osu file format v14

[General]
AudioFilename: audio.mp3
AudioLeadIn: 0
PreviewTime: 646559
Countdown: 0
SampleSet: None
StackLeniency: 1
Mode: 0
LetterboxInBreaks: 0
EpilepsyWarning: 1
WidescreenStoryboard: 1

[Editor]
Bookmarks: 763,789,815,841,867,892,918,944,970,996,1022,1048,1074,1099,1125,1151,1177,1203,1229,1255,1280,1306,1332,1358,1384,27556,82074,82125,82177,82229,82280,108556,108608,108660,108711,108763,177453,177479,177505,177530,177556,177582,177608,177634,177660,177686,177711,177737,177763,177787,177811,177836,177861,177885,177910,177935,177959,177984,178009,178033,178058,178083,209267,209316,209365,209415,209464,264530,264579,264629,264678,264727,353000,353025,353050,353074,353099,353124,353148,353173,353198,353222,353247,353272,353299,353328,353357,353386,353416,353445,353474,353504,353533,353562,353591,353621,353650,447177,447225,447274,447323,447371,497047,497095,497144,497193,497242,588215,588263,588312,588361,588409,600682,600731,600780,600828,600877,616267,616315,616364,616413,616461,638085,638133,638182,638231,638280,646486,646510,646534,646559,646583,646607,646632,646656,646681,646705,646729,646754,646773,646797,646821,646845,646869,646893,646918,646942,646966,646990,647014,647039,686930,686978,687027,687075,687123,699317,699365,699414,699463,699512,743940,743989,744037,744085,744133,756327,756375,756424,756472,756520,771230,771254,771278,771303,771327,771351,771375,771399,771424,771448,771472,771496,771520,771545,771569,771593,771617,771641,771668,771694,771720,771746,771772,771798,771824,771850,771876,771902,771928,771954,771980,772006,772032,772058,772084,772110,772136,772162,772188,848757,848805,848853,848902,848950,885680,885728,885777,885825,885873,973373,973421,973469,973517,973565,1010296,1010344,1010392,1010440,1010488,1012507,1012531,1012555,1012579,1012603,1012627,1012652,1012676,1012700,1012724,1012748,1012772,1012796,1012820,1012844,1012868,1012892,1012916,1012947,1012970,1012994,1013018,1013041,1013065,1013089,1013113,1013136,1013160,1013184,1013208,1013231,1013255,1013279,1013303,1013326,1013350,1013374,1013397,1013421,1013445,1013469,1013492,1013516,1091691,1091737,1091783,1091830,1091876,1102061,1102108,1102154,1102200,1102246,1156135,1156181,1156228,1156274,1156320,1179490,1179534,1179578,1179622,1179666,1179843,1179865,1179887,1179909,1179931,1179953,1179975,1179997,1180019,1180041,1180063,1180085,1180107,1180130,1180152,1180174,1180196,1180218,1180240,1180262,1180284,1180306,1180328,1180350,1180372,1180394,1180416,1180438,1180460,1180482,1180505,1180527,1180549,1180571,1180593,1180615,1180637,1180659,1180681,1180703,1180725,1180747,1180769,1180791,1180813,1180835,1180857,1180880,1180902,1180924,1180946,1180968,1180990
DistanceSpacing: 0.3
BeatDivisor: 4
GridSize: 32
TimelineZoom: 2.200002

[Metadata]
Title:Touhou Compilation pt. 1
TitleUnicode:Touhou Compilation pt. 1
Artist:RichaadEB
ArtistUnicode:RichaadEB
Creator:K4L1
Version:Border of Life (Yuyuko's Theme)
Source:東方Project
Tags:Touhou marathon Remilia Cirno Kaguya Flandre Reisen Metal Cover Theme Septette for the Dead Princess Beloved Tomboyish Daughter Lunatic U.N. Owen Was Her Border of Life Eyes Invisible Full Moon jparecki95
BeatmapID:2130847
BeatmapSetID:1000314

[Difficulty]
HPDrainRate:5
CircleSize:4
OverallDifficulty:9
ApproachRate:9.5
SliderMultiplier:1.6
SliderTickRate:1

[Events]
//Background and Video events
0,0,"sb/TouhouCompilation.jpg",0,0
//Break Periods
//Storyboard Layer 0 (Background)
//Storyboard Layer 1 (Fail)
//Storyboard Layer 2 (Pass)
//Storyboard Layer 3 (Foreground)
//Storyboard Layer 4 (Overlay)
//Storyboard Sound Samples

[TimingPoints]
1074,413.793103448276,4,2,1,40,1,0
1074,-133.333333333333,4,2,1,40,0,0
7694,-133.333333333333,4,2,1,40,0,0
13694,-125,4,2,1,60,0,0
13901,-86.9565217391304,4,2,1,60,0,0
14108,-66.6666666666667,4,2,1,60,0,0
16280,-86.9565217391304,4,2,1,60,0,0
16591,-125,4,2,1,60,0,0
17211,-86.9565217391304,4,2,1,60,0,0
17418,-66.6666666666667,4,2,1,60,0,0
19591,-86.9565217391304,4,2,1,60,0,0
19901,-125,4,2,1,60,0,0
20522,-86.9565217391304,4,2,1,60,0,0
20729,-66.6666666666667,4,2,1,60,0,0
20936,-57.1428571428571,4,2,1,60,0,0
21556,-125,4,2,1,60,0,0
21970,-86.9565217391304,4,2,1,60,0,0
22177,-66.6666666666667,4,2,1,60,0,0
22384,-57.1428571428571,4,2,1,60,0,0
23211,-125,4,2,1,60,0,0
23625,-66.6666666666667,4,2,1,60,0,0
24246,-54.054054054054,4,2,1,60,0,0
24867,-125,4,2,1,60,0,0
25901,-54.054054054054,4,2,1,60,0,0
27556,-80,4,2,1,60,0,0
29211,-90.9090909090909,4,2,1,60,0,0
34177,-100,4,2,1,60,0,0
40177,-80,4,2,1,60,0,0
40384,-57.1428571428571,4,2,1,60,0,0
40591,-44.4444444444445,4,2,1,60,0,0
40798,-57.1428571428571,4,2,1,60,0,0
43487,-80,4,2,1,60,0,0
43694,-57.1428571428571,4,2,1,60,0,0
43901,-44.4444444444445,4,2,1,60,0,0
44108,-57.1428571428571,4,2,1,60,0,0
46798,-80,4,2,1,60,0,0
47005,-57.1428571428571,4,2,1,60,0,0
47211,-44.4444444444445,4,2,1,60,0,0
47418,-57.1428571428571,4,2,1,60,0,0
48453,-80,4,2,1,60,0,0
48660,-57.1428571428571,4,2,1,60,0,0
48867,-44.4444444444445,4,2,1,60,0,0
49074,-57.1428571428571,4,2,1,60,0,0
53211,-50,4,2,1,60,0,0
53625,-40,4,2,1,60,0,0
54039,-66.6666666666667,4,2,1,60,0,0
67280,-50,4,2,1,60,0,0
80108,-40,4,2,1,60,0,0
82177,-50,4,2,1,60,0,0
108660,-50,4,2,1,80,0,1
174867,-80,4,2,1,80,0,1
177787,394.736842105263,4,2,1,60,1,0
180944,-66.6666666666667,4,2,1,60,0,0
207787,-100,4,2,1,60,0,0
215681,-80,4,2,1,60,0,0
221997,-66.6666666666667,4,2,1,60,0,0
234629,-57.1428571428571,4,2,1,60,0,0
259892,-80,4,2,1,60,0,0
263050,-66.6666666666667,4,2,1,60,0,0
263839,-57.1428571428571,4,2,1,60,0,0
264629,-66.6666666666667,4,2,1,60,0,0
277260,-57.1428571428571,4,2,1,60,0,0
293050,-50,4,2,1,80,0,1
295615,-100,4,2,1,80,0,1
299365,-50,4,2,1,80,0,1
303017,-100,4,2,1,80,0,1
304102,-66.6666666666667,4,2,1,80,0,1
305681,-50,4,2,1,80,0,1
330944,-44.4444444444445,4,2,1,80,0,1
343576,-100,4,2,1,60,0,0
348313,-161.290322580645,4,2,1,60,0,0
353299,468.75,4,2,1,40,1,0
361736,434.782608695652,4,2,1,40,1,0
366953,405.405405405405,4,2,1,40,1,0
368574,389.61038961039,4,2,1,75,1,0
368574,-80,4,2,1,60,0,0
374807,-66.6666666666667,4,2,1,60,0,0
377924,-80,4,2,1,60,0,0
379483,-100,4,2,1,60,0,0
380651,-50,4,2,1,60,0,0
381041,-66.6666666666667,4,2,1,60,0,0
405976,-133.333333333333,4,2,1,40,0,0
415327,-100,4,2,1,40,0,0
420781,-80,4,2,1,40,0,0
421561,-66.6666666666667,4,2,1,60,0,0
430911,-133.333333333333,4,2,1,40,0,0
434807,389.61038961039,4,2,1,60,1,0
434807,-133.333333333333,4,2,1,60,0,0
441040,-100,4,2,1,60,0,0
472209,-133.333333333333,4,2,1,60,0,0
475326,-100,4,2,1,60,0,0
497144,-200,4,2,1,40,0,0
506495,-133.333333333333,4,2,1,40,0,0
508053,-100,4,2,1,40,0,0
509612,-80,4,2,1,60,0,0
515845,-66.6666666666667,4,2,1,60,0,0
518962,-80,4,2,1,60,0,0
520521,-100,4,2,1,60,0,0
521690,-50,4,2,1,60,0,0
522079,-66.6666666666667,4,2,1,60,0,0
547014,-133.333333333333,4,2,1,40,0,0
556365,-100,4,2,1,40,0,0
561819,-80,4,2,1,40,0,0
562599,-66.6666666666667,4,2,1,60,0,0
571949,-133.333333333333,4,2,1,40,0,0
575845,389.61038961039,4,2,1,60,1,0
575845,-133.333333333333,4,2,1,60,0,0
588312,-100,4,2,1,60,0,0
600780,-50,4,2,1,80,0,1
607013,-66.6666666666667,4,2,1,80,0,1
610130,-50,4,2,1,80,0,1
613247,-100,4,2,1,60,0,0
638182,-142.857142857143,4,2,1,60,0,0
641299,-142.857142857143,4,2,1,40,0,0
646773,387.096774193548,4,2,1,60,1,0
665349,-50,4,2,1,60,0,0
665736,-133.333333333333,4,2,1,60,0,0
666123,-50,4,2,1,60,0,0
666511,-133.333333333333,4,2,1,60,0,0
666898,-50,4,2,1,60,0,0
667285,-133.333333333333,4,2,1,60,0,0
667672,-50,4,2,1,60,0,0
668446,-40,4,2,1,60,0,0
674253,-66.6666666666667,4,2,1,60,0,0
674640,-100,4,2,1,40,0,0
680833,-57.1428571428571,4,2,1,60,0,0
683930,-66.6666666666667,4,2,1,60,0,0
685478,-100,4,2,1,40,0,0
686253,-57.1428571428571,4,2,1,60,0,0
687027,-66.6666666666667,4,2,1,60,0,0
699414,394.736842105263,4,2,1,40,1,0
700203,401.740877134248,4,2,1,40,1,0
701006,402.684563758389,4,2,1,40,1,0
704227,397.350993377483,4,2,1,40,1,0
705816,400,4,2,1,40,1,0
709016,394.736842105263,4,2,1,40,1,0
711384,-50,4,2,1,60,0,0
711779,379.746835443038,4,2,1,60,1,0
712158,396.039603960396,4,2,1,80,1,1
712158,-50,4,2,1,80,0,1
717999,-40,4,2,1,80,0,1
718296,-33.3333333333333,4,2,1,80,0,1
718489,387.096774193548,4,2,1,40,1,0
724682,-66.6666666666667,4,2,1,60,0,0
726230,-52.6315789473684,4,2,1,60,0,0
737069,-44.4444444444445,4,2,1,60,0,0
743069,-100,4,2,1,40,0,0
744037,387.096774193548,4,2,1,60,1,0
744037,-66.6666666666667,4,2,1,60,0,0
756424,-50,4,2,1,80,0,1
757004,-66.6666666666667,4,2,1,80,0,1
757972,-50,4,2,1,80,0,1
760295,-100,4,2,1,80,0,1
761069,-50,4,2,1,80,0,1
768811,-100,4,2,1,60,0,0
771668,416.666666666667,4,2,1,40,1,0
771668,-133.333333333333,4,2,1,40,0,0
785777,384.615384615385,4,2,1,60,1,0
785777,-80,4,2,1,60,0,0
797315,-57.1428571428571,4,2,1,60,0,0
798084,-66.6666666666667,4,2,1,60,0,0
809623,-50,4,2,1,60,0,0
810007,-40,4,2,1,60,0,0
810392,-66.6666666666667,4,2,1,60,0,0
833469,-133.333333333333,4,2,1,60,0,0
834238,-66.6666666666667,4,2,1,60,0,0
835007,-200,4,2,1,40,0,0
836546,-44.4444444444445,4,2,1,60,0,0
837507,-200,4,2,1,60,0,0
838084,-44.4444444444445,4,2,1,60,0,0
839046,-200,4,2,1,60,0,0
839623,-44.4444444444445,4,2,1,60,0,0
842123,-100,4,2,1,60,0,0
842700,-50,4,2,1,60,0,0
843661,-66.6666666666667,4,2,1,60,0,0
844238,-50,4,2,1,60,0,0
845200,-66.6666666666667,4,2,1,60,0,0
845777,-50,4,2,1,60,0,0
847315,-44.4444444444445,4,2,1,60,0,0
848277,-50,4,2,1,60,0,0
861161,-66.6666666666667,4,2,1,60,0,0
885007,-44.4444444444445,4,2,1,60,0,0
885777,-200,4,2,1,40,0,0
895007,-133.333333333333,4,2,1,40,0,0
896546,-100,4,2,1,60,0,0
898084,-36.3636363636364,4,2,1,60,0,0
907315,-57.1428571428571,4,2,1,60,0,0
910392,-80,4,2,1,60,0,0
921930,-57.1428571428571,4,2,1,60,0,0
922700,-66.6666666666667,4,2,1,60,0,0
934238,-50,4,2,1,60,0,0
934623,-40,4,2,1,60,0,0
935007,-66.6666666666667,4,2,1,60,0,0
947315,-44.4444444444445,4,2,1,80,0,1
951930,-66.6666666666667,4,2,1,80,0,1
953469,-50,4,2,1,80,0,1
955007,-100,4,2,1,80,0,1
956546,-50,4,2,1,80,0,1
958853,-133.333333333333,4,2,1,80,0,1
959142,-66.6666666666667,4,2,1,80,0,1
959623,-200,4,2,1,40,0,0
961161,-44.4444444444445,4,2,1,60,0,0
962123,-200,4,2,1,60,0,0
962700,-44.4444444444445,4,2,1,60,0,0
963661,-200,4,2,1,60,0,0
964238,-44.4444444444445,4,2,1,60,0,0
966738,-100,4,2,1,60,0,0
967315,-50,4,2,1,60,0,0
968277,-66.6666666666667,4,2,1,60,0,0
968853,-50,4,2,1,60,0,0
969815,-66.6666666666667,4,2,1,60,0,0
970392,-50,4,2,1,60,0,0
971930,-44.4444444444445,4,2,1,60,0,0
972892,-50,4,2,1,60,0,0
985777,-66.6666666666667,4,2,1,60,0,0
1009623,-44.4444444444445,4,2,1,60,0,0
1010921,-44.4444444444445,4,2,1,40,0,0
1012947,379.746835443038,4,2,1,60,1,0
1013706,379.746835443038,6,2,1,60,1,0
1013706,-133.333333333333,6,2,1,60,0,0
1018262,-66.6666666666667,6,2,1,60,0,0
1020541,-50,6,2,1,60,0,0
1022819,-80,6,2,1,60,0,0
1041047,-100,6,2,1,40,0,0
1050161,-80,6,2,1,40,0,0
1054718,-66.6666666666667,6,2,1,60,0,0
1059275,-100,6,2,1,40,0,0
1068389,-80,6,2,1,40,0,0
1072946,-66.6666666666667,6,2,1,60,0,0
1075224,-57.1428571428571,6,2,1,60,0,0
1077503,-100,6,2,1,40,0,0
1079781,379.746835443038,4,2,1,60,1,0
1079781,-40,4,2,1,60,0,0
1081299,-50,4,2,1,60,0,0
1081394,-50,4,2,1,5,0,0
1081489,-50,4,2,1,60,0,0
1081584,-50,4,2,1,5,0,0
1081679,-50,4,2,1,60,0,0
1081774,-50,4,2,1,5,0,0
1081869,-50,4,2,1,60,0,0
1081964,-50,4,2,1,5,0,0
1082059,-133.333333333333,4,2,1,60,0,0
1082534,-133.333333333333,4,2,1,5,0,0
1082629,-133.333333333333,4,2,1,60,0,0
1082818,-50,4,2,1,60,0,0
1085097,-42.5531914893617,4,2,1,60,0,0
1085858,370.37037037037,4,2,1,60,1,0
1085858,-40,4,2,1,60,0,0
1086598,-30.7692307692308,4,2,1,60,0,0
1086969,-40,4,2,1,60,0,0
1088080,-33.3333333333333,4,2,1,60,0,0
1088820,-50,4,2,1,60,0,0
1090302,-66.6666666666667,4,2,1,60,0,0
1093265,-50,4,2,1,60,0,0
1093635,-66.6666666666667,4,2,1,60,0,0
1095117,-50,4,2,1,60,0,0
1095487,-66.6666666666667,4,2,1,60,0,0
1097709,-50,4,2,1,60,0,0
1100672,-40,4,2,1,60,0,0
1101691,-57.1428571428571,4,2,1,60,0,0
1101969,-100,4,2,1,60,0,0
1102154,370.37037037037,6,2,1,40,1,0
1106598,-200,6,2,1,40,0,0
1108820,-100,6,2,1,40,0,0
1109931,-200,6,2,1,40,0,0
1110302,-80,6,2,1,40,0,0
1110672,-50,6,2,1,40,0,0
1111042,-66.6666666666667,6,2,1,60,0,0
1114376,-50,6,2,1,60,0,0
1115487,-66.6666666666667,6,2,1,60,0,0
1119931,-57.1428571428571,6,2,1,80,0,1
1122154,-66.6666666666667,6,2,1,80,0,1
1126598,-50,6,2,1,80,0,1
1126968,-44.4444444444445,6,2,1,80,0,1
1128450,-57.1428571428571,6,2,1,80,0,1
1128820,-100,6,2,1,40,0,0
1133265,-200,6,2,1,40,0,0
1135487,-100,6,2,1,40,0,0
1136598,-200,6,2,1,40,0,0
1136968,-80,6,2,1,40,0,0
1137339,-50,6,2,1,40,0,0
1137709,-66.6666666666667,6,2,1,60,0,0
1141043,-50,6,2,1,60,0,0
1142154,-66.6666666666667,6,2,1,60,0,0
1146598,-100,6,2,1,60,0,0
1153265,-50,6,2,1,60,0,0
1156228,370.37037037037,4,2,1,60,1,0
1156228,-66.6666666666667,4,2,1,60,0,0
1157709,-50,4,2,1,60,0,0
1158079,-66.6666666666667,4,2,1,60,0,0
1159561,-50,4,2,1,60,0,0
1159931,-66.6666666666667,4,2,1,60,0,0
1162153,-50,4,2,1,60,0,0
1165116,-40,4,2,1,60,0,0
1166135,-57.1428571428571,4,2,1,60,0,0
1167709,-36.3636363636364,4,2,1,60,0,0
1168080,363.636363636364,4,2,1,60,1,0
1168080,-66.6666666666667,4,2,1,60,0,0
1169534,-50,4,2,1,60,0,0
1169898,-66.6666666666667,4,2,1,60,0,0
1171352,-50,4,2,1,60,0,0
1171716,-66.6666666666667,4,2,1,60,0,0
1173898,357.142857142857,4,2,1,60,1,0
1173898,-50,4,2,1,60,0,0
1176755,352.941176470588,4,2,1,60,1,0
1176755,-40,4,2,1,60,0,0
1177725,-57.1428571428571,4,2,1,60,0,0
1178166,-40,4,2,1,60,0,0
1179578,-57.1428571428571,4,2,1,60,0,0
1179975,-57.1428571428571,4,2,1,40,0,0

[Colours]
Combo1 : 149,237,255
Combo2 : 255,128,192
Combo3 : 54,109,254
Combo4 : 252,44,49
Combo5 : 148,40,255
Combo6 : 208,208,208
Combo7 : 234,240,111

[HitObjects]
252,111,771668,6,0,B|297:118|342:111|342:111|374:135|426:141,2,180.000006866455,6|0|0,0:0|0:0|0:0,0:0:0:0:
106,326,773334,2,0,P|58:301|131:256,2,180.000006866455,4|0|0,0:0|0:0|0:0,0:0:0:0:
359,355,775001,6,0,P|299:351|245:326,1,120.000004577637,6|0,0:0|0:0,0:0:0:0:
308,104,775834,2,0,P|334:157|339:216,1,120.000004577637,6|0,0:0|0:0,0:0:0:0:
132,300,776668,6,0,B|95:306|102:341|133:350|152:346|172:329|180:310|176:287|163:266|141:255|91:222|54:154|137:79,1,360.000013732911,6|0,0:0|0:0,0:0:0:0:
428,194,778334,6,0,B|389:188|357:192|357:192|359:184|359:184|306:205|241:171,2,180.000006866455,6|0|0,0:0|0:0|0:0,0:0:0:0:
131,302,780001,2,0,B|170:296|202:300|202:300|200:292|200:292|253:313|297:288,2,180.000006866455,6|0|0,0:0|0:0|0:0,0:0:0:0:
116,91,781668,6,0,P|123:162|95:220,1,120.000004577637,6|0,0:0|0:0,0:0:0:0:
302,147,782501,2,0,P|359:105|424:100,1,120.000004577637,6|0,0:0|0:0,0:0:0:0:
249,246,783334,6,0,B|239:254|227:272|227:272|261:196|195:196|227:103,1,210.000008010865,6|0,0:0|0:0,0:0:0:0:
225,70,784168,6,8,L|232:50,7,15.0000005722046
147,104,784584,6,0,L|127:133,2,20.0000007629395,2|2|2,0:0|0:0|0:0,0:0:0:0:
142,57,784793,5,8,0:0:0:0:
124,22,784897,1,8,0:0:0:0:
512,97,785777,6,0,P|458:95|404:96,1,100,6|0,0:0|0:0,0:0:0:0:
246,134,786161,1,0,0:0:0:0:
32,210,786353,2,0,P|85:208|140:209,1,100
303,248,786737,1,0,0:0:0:0:
290,244,786930,1,0,0:0:0:0:
432,384,787123,1,2,0:0:0:0:
432,384,787219,1,2,0:0:0:0:
432,384,787315,6,0,P|406:336|378:289,1,100,2|0,0:0|0:0,0:0:0:0:
266,172,787700,1,0,0:0:0:0:
94,24,787891,2,0,P|122:69|148:117,1,100
187,292,788277,1,0,0:0:0:0:
191,276,788469,1,0,0:0:0:0:
196,259,788661,1,0,0:0:0:0:
288,29,788853,6,0,B|309:39|309:39|324:119,1,100,6|0,0:0|0:0,0:0:0:0:
344,274,789238,1,0,0:0:0:0:
392,36,789430,2,0,B|413:46|413:46|428:126,1,100
448,281,789815,1,0,0:0:0:0:
455,267,790007,1,0,0:0:0:0:
282,366,790200,1,2,0:0:0:0:
282,366,790296,1,2,0:0:0:0:
282,366,790392,6,0,P|273:335|271:298,2,50,6|2|0,0:0|0:0|0:0,0:0:0:0:
101,302,790777,1,0,0:0:0:0:
209,192,790969,1,0,0:0:0:0:
46,78,791161,1,4,0:3:0:0:
62,96,791257,1,4,0:3:0:0:
75,118,791353,1,4,0:3:0:0:
83,141,791449,1,4,0:3:0:0:
87,166,791546,5,8,0:0:0:0:
113,123,791642,1,8,0:0:0:0:
151,92,791738,1,4,0:1:0:0:
198,73,791834,1,4,0:1:0:0:
247,70,791930,6,0,L|261:119,1,50,6|2,0:0|0:0,0:0:0:0:
377,69,792123,2,0,L|364:117,1,50,4|4,0:3|0:3,0:0:0:0:
489,131,792315,2,0,L|453:166,1,50,2|2,0:0|0:0,0:0:0:0:
372,42,792507,6,0,L|359:90,1,50,4|4,0:3|0:3,0:0:0:0:
234,50,792700,2,0,L|247:98,1,50,12|8,0:0|0:0,0:0:0:0:
97,17,792892,5,2,0:0:0:0:
94,54,792988,1,2,0:0:0:0:
92,91,793084,1,4,0:1:0:0:
89,129,793180,1,4,0:1:0:0:
87,166,793277,2,0,L|14:190,1,50
205,171,793469,5,6,0:0:0:0:
244,219,793565,1,4,0:3:0:0:
252,280,793661,2,0,P|246:308|229:339,1,50,4|4,0:3|0:3,0:0:0:0:
351,236,793853,2,0,P|376:250|400:276,1,50,4|4,0:3|0:3,0:0:0:0:
178,197,794046,6,0,P|153:201|128:198,1,50,2|2,0:0|0:0,0:0:0:0:
234,104,794238,2,0,P|221:77|217:42,1,50,12|8,0:0|0:0,0:0:0:0:
340,128,794430,5,2,0:0:0:0:
389,123,794526,1,2,0:0:0:0:
420,86,794622,1,8,0:0:0:0:
414,37,794718,1,8,0:0:0:0:
376,8,794814,1,2,0:0:0:0:
328,15,794910,1,2,0:0:0:0:
299,54,795007,6,0,L|292:4,1,50,4|4,0:1|0:1,0:0:0:0:
126,119,795200,2,0,L|133:68,1,50,4|4,0:3|0:3,0:0:0:0:
282,235,795392,2,0,L|274:184,1,50,2|2,0:0|0:0,0:0:0:0:
121,59,795584,6,0,L|113:108,1,50,4|4,0:1|0:1,0:0:0:0:
305,2,795777,2,0,L|312:51,1,50,12|8,0:0|0:0,0:0:0:0:
452,155,795969,6,0,L|449:121,2,33.3333333333333,4|4|4,0:3|0:3|0:3,0:0:0:0:
437,187,796161,1,4,0:1:0:0:
436,204,796225,1,4,0:1:0:0:
434,221,796289,1,4,0:1:0:0:
433,238,796353,2,0,L|436:278,2,33.3333333333333,4|4|4,0:1|0:1|0:1,0:0:0:0:
351,304,796546,5,4,0:3:0:0:
351,304,796610,2,0,L|313:306,1,33.3333333333333,4|4,0:3|0:3,0:0:0:0:
251,257,796738,5,4,0:3:0:0:
251,257,796802,2,0,L|213:255,1,33.3333333333333,4|4,0:3|0:3,0:0:0:0:
186,374,796930,5,8,0:0:0:0:
186,374,796994,2,0,L|148:376,1,33.3333333333333,8|8,0:0|0:0,0:0:0:0:
86,327,797122,5,4,0:3:0:0:
86,327,797186,2,0,L|48:325,1,33.3333333333333,4|4,0:3|0:3,0:0:0:0:
0,243,797315,6,0,P|28:222|64:209,1,70.000000667572,8|8,0:0|0:0,0:0:0:0:
100,82,797507,2,0,P|132:95|161:120,1,70.000000667572,6|2,0:0|0:0,0:0:0:0:
333,184,797700,2,0,P|355:157|368:124,1,70.000000667572,8|8,0:0|0:0,0:0:0:0:
512,60,797892,2,0,P|499:27|478:0,1,70.000000667572,8|8,0:0|0:0,0:0:0:0:
233,0,798084,5,6,0:0:0:0:
163,125,798277,1,8,0:0:0:0:
165,154,798373,1,2,0:0:0:0:
168,184,798469,1,2,0:0:0:0:
171,214,798565,1,2,0:0:0:0:
158,249,798661,5,8,0:0:0:0:
278,94,798853,1,2,0:0:0:0:
143,6,799046,1,8,0:0:0:0:
143,6,799142,1,2,0:0:0:0:
143,6,799238,1,0,0:0:0:0:
83,13,799334,1,2,0:0:0:0:
23,20,799430,1,8,0:0:0:0:
244,0,799623,5,6,0:0:0:0:
376,88,799815,1,8,0:0:0:0:
405,90,799911,1,2,0:0:0:0:
435,93,800007,1,2,0:0:0:0:
465,96,800103,1,2,0:0:0:0:
499,80,800199,5,8,0:0:0:0:
329,175,800392,1,2,0:0:0:0:
512,280,800584,1,8,0:0:0:0:
512,280,800680,1,2,0:0:0:0:
512,280,800776,1,0,0:0:0:0:
452,272,800872,1,2,0:0:0:0:
392,265,800968,1,8,0:0:0:0:
238,368,801161,5,2,0:0:0:0:
150,163,801353,1,8,0:0:0:0:
150,163,801449,1,2,0:0:0:0:
150,163,801545,1,2,0:0:0:0:
158,223,801641,1,2,0:0:0:0:
165,283,801737,1,8,0:0:0:0:
0,384,801930,5,6,0:0:0:0:
30,178,802123,1,8,0:0:0:0:
30,178,802219,1,2,0:0:0:0:
30,178,802315,1,0,0:0:0:0:
90,170,802411,1,2,0:0:0:0:
150,163,802507,1,8,0:0:0:0:
266,283,802700,5,2,0:0:0:0:
305,280,802796,1,2,0:0:0:0:
341,263,802892,1,8,0:0:0:0:
368,234,802988,1,2,0:0:0:0:
383,197,803084,1,2,0:0:0:0:
383,157,803180,1,2,0:0:0:0:
368,120,803277,1,8,0:0:0:0:
341,92,803373,1,2,0:0:0:0:
305,75,803469,1,2,0:0:0:0:
284,108,803565,1,2,0:0:0:0:
251,131,803661,1,8,0:0:0:0:
213,142,803757,1,2,0:0:0:0:
174,139,803853,1,2,0:0:0:0:
134,135,803950,1,2,0:0:0:0:
98,150,804046,2,0,P|118:127|129:100,1,60.0000022888184,8|2,0:0|0:0,0:0:0:0:
0,35,804238,5,6,0:0:0:0:
2,55,804334,1,2,0:0:0:0:
4,75,804430,1,8,0:0:0:0:
6,95,804526,1,2,0:0:0:0:
8,115,804622,1,2,0:0:0:0:
9,134,804718,1,2,0:0:0:0:
10,154,804815,5,8,0:0:0:0:
35,136,804911,1,2,0:0:0:0:
61,122,805007,1,2,0:0:0:0:
89,111,805103,1,2,0:0:0:0:
118,104,805199,1,8,0:0:0:0:
148,101,805295,1,2,0:0:0:0:
178,102,805391,5,2,0:0:0:0:
191,144,805488,1,2,0:0:0:0:
193,189,805584,1,8,0:0:0:0:
181,232,805680,1,2,0:0:0:0:
158,271,805777,5,2,0:0:0:0:
174,259,805873,1,2,0:0:0:0:
192,249,805969,1,8,0:0:0:0:
211,242,806065,1,2,0:0:0:0:
230,237,806161,1,2,0:0:0:0:
250,235,806257,1,2,0:0:0:0:
270,237,806353,5,8,0:0:0:0:
275,207,806449,1,2,0:0:0:0:
289,181,806545,1,2,0:0:0:0:
310,160,806641,1,2,0:0:0:0:
337,146,806737,1,8,0:0:0:0:
366,140,806833,1,2,0:0:0:0:
396,143,806929,5,2,0:0:0:0:
371,106,807026,1,2,0:0:0:0:
336,77,807123,2,0,P|320:52|308:13,1,60.0000022888184,8|2,0:0|0:0,0:0:0:0:
165,0,807315,5,6,0:0:0:0:
161,29,807411,1,2,0:0:0:0:
156,58,807507,2,0,L|141:159,1,60.0000022888184,2|2,0:0|0:0,0:0:0:0:
43,132,807700,5,2,0:0:0:0:
47,161,807796,1,2,0:0:0:0:
52,190,807892,2,0,L|67:291,1,60.0000022888184,8|2,0:0|0:0,0:0:0:0:
269,218,808084,5,6,0:0:0:0:
240,208,808180,1,2,0:0:0:0:
209,209,808277,2,0,P|178:216|153:232,1,60.0000022888184,8|2,0:0|0:0,0:0:0:0:
12,341,808469,5,2,0:0:0:0:
41,351,808565,1,2,0:0:0:0:
72,350,808662,2,0,P|103:343|128:327,1,60.0000022888184,8|2,0:0|0:0,0:0:0:0:
230,323,808853,5,6,0:0:0:0:
257,311,808949,1,2,0:0:0:0:
287,306,809045,1,8,0:0:0:0:
316,309,809141,1,2,0:0:0:0:
345,319,809237,1,2,0:0:0:0:
373,328,809334,1,2,0:0:0:0:
402,331,809430,1,8,0:0:0:0:
432,327,809526,1,2,0:0:0:0:
472,341,809623,6,0,L|481:252,1,80,2|8,0:0|0:0,0:0:0:0:
378,136,809815,2,0,L|388:235,1,80,4|4,0:1|0:3,0:0:0:0:
283,383,810007,6,0,B|233:384|233:384|184:373,1,100,8|2,0:0|0:0,0:0:0:0:
0,158,810200,2,0,B|48:147|48:147|99:148,1,100,8|8,0:0|0:0,0:0:0:0:
0,384,810392,5,6,0:0:0:0:
114,261,810585,1,8,0:0:0:0:
143,263,810681,1,2,0:0:0:0:
173,266,810777,1,2,0:0:0:0:
203,269,810873,1,2,0:0:0:0:
230,293,810969,5,8,0:0:0:0:
98,147,811161,1,2,0:0:0:0:
259,150,811354,1,8,0:0:0:0:
259,150,811450,1,2,0:0:0:0:
259,150,811546,1,0,0:0:0:0:
318,143,811642,1,2,0:0:0:0:
378,136,811738,1,8,0:0:0:0:
178,45,811931,5,6,0:0:0:0:
386,13,812123,1,8,0:0:0:0:
388,42,812219,1,2,0:0:0:0:
391,72,812315,1,2,0:0:0:0:
394,102,812411,1,2,0:0:0:0:
378,136,812507,5,8,0:0:0:0:
512,0,812700,1,2,0:0:0:0:
498,151,812892,1,8,0:0:0:0:
498,151,812988,1,2,0:0:0:0:
498,151,813084,1,0,0:0:0:0:
438,143,813180,1,2,0:0:0:0:
378,136,813276,1,8,0:0:0:0:
178,45,813469,5,6,0:0:0:0:
96,181,813661,1,8,0:0:0:0:
96,181,813757,1,2,0:0:0:0:
96,181,813853,1,2,0:0:0:0:
104,241,813949,1,2,0:0:0:0:
111,301,814045,1,8,0:0:0:0:
461,384,814238,5,6,0:0:0:0:
363,256,814430,1,8,0:0:0:0:
363,256,814526,1,2,0:0:0:0:
363,256,814622,1,0,0:0:0:0:
371,196,814719,1,2,0:0:0:0:
378,136,814815,2,0,L|389:60,1,60.0000022888184,8|2,0:0|0:0,0:0:0:0:
220,151,815007,5,12,0:0:0:0:
224,181,815103,1,4,0:1:0:0:
228,210,815199,1,2,0:0:0:0:
111,301,815392,1,6,0:0:0:0:
128,92,815584,1,8,0:0:0:0:
155,64,815681,1,8,0:0:0:0:
191,47,815777,1,2,0:0:0:0:
231,45,815873,1,4,0:3:0:0:
269,57,815969,1,4,0:3:0:0:
299,83,816065,1,2,0:0:0:0:
318,118,816161,1,8,0:0:0:0:
341,153,816257,1,2,0:0:0:0:
379,172,816354,2,0,P|410:181|441:179,1,60.0000022888184,4|4,0:3|0:3,0:0:0:0:
497,7,816546,5,6,0:0:0:0:
495,27,816642,1,2,0:0:0:0:
493,47,816738,1,8,0:0:0:0:
491,67,816834,1,2,0:0:0:0:
489,87,816930,1,2,0:0:0:0:
488,106,817026,1,2,0:0:0:0:
487,126,817123,5,8,0:0:0:0:
462,108,817219,1,2,0:0:0:0:
436,94,817315,1,2,0:0:0:0:
408,83,817411,1,2,0:0:0:0:
379,76,817507,1,8,0:0:0:0:
349,73,817603,1,2,0:0:0:0:
319,74,817699,5,2,0:0:0:0:
305,116,817796,1,2,0:0:0:0:
303,161,817892,1,8,0:0:0:0:
315,204,817988,1,2,0:0:0:0:
338,243,818085,5,2,0:0:0:0:
322,231,818181,1,2,0:0:0:0:
304,221,818277,1,8,0:0:0:0:
285,214,818373,1,2,0:0:0:0:
266,209,818469,1,2,0:0:0:0:
246,207,818565,1,2,0:0:0:0:
227,209,818661,5,8,0:0:0:0:
221,179,818757,1,2,0:0:0:0:
207,153,818853,1,2,0:0:0:0:
186,132,818949,1,2,0:0:0:0:
159,118,819045,1,8,0:0:0:0:
130,112,819141,1,2,0:0:0:0:
100,117,819238,5,8,0:0:0:0:
92,164,819334,1,2,0:0:0:0:
86,211,819430,2,0,P|48:209|17:215,1,60.0000022888184,8|2,0:0|0:0,0:0:0:0:
8,372,819623,6,0,L|0:312,1,60.0000022888184,12|2,0:0|0:0,0:0:0:0:
156,331,819815,2,0,L|163:271,1,60.0000022888184,8|2,0:0|0:0,0:0:0:0:
401,307,820007,6,0,L|408:247,1,60.0000022888184,8|2,0:0|0:0,0:0:0:0:
253,266,820199,2,0,L|245:206,1,60.0000022888184,8|2,0:0|0:0,0:0:0:0:
8,41,820392,6,0,L|0:100,1,60.0000022888184,8|2,0:0|0:0,0:0:0:0:
156,82,820584,2,0,L|163:141,1,60.0000022888184,8|2,0:0|0:0,0:0:0:0:
401,106,820776,6,0,L|408:165,1,60.0000022888184,8|2,0:0|0:0,0:0:0:0:
253,147,820968,2,0,L|245:206,1,60.0000022888184,8|2,0:0|0:0,0:0:0:0:
91,304,821161,5,8,0:0:0:0:
91,304,821257,1,2,0:0:0:0:
138,297,821353,5,8,0:0:0:0:
138,297,821449,1,2,0:0:0:0:
186,291,821546,5,8,0:0:0:0:
186,291,821642,1,2,0:0:0:0:
233,284,821738,5,8,0:0:0:0:
233,284,821834,1,2,0:0:0:0:
280,277,821930,5,8,0:0:0:0:
281,307,822027,1,8,0:0:0:0:
283,336,822123,2,0,L|344:344,1,60.0000022888184,4|4,0:1|0:1,0:0:0:0:
433,250,822315,6,0,L|372:258,1,60.0000022888184,8|2,0:0|0:0,0:0:0:0:
512,368,822507,2,0,L|452:360,1,60.0000022888184,8|8,0:0|0:0,0:0:0:0:
309,197,822700,5,2,0:0:0:0:
276,192,822796,1,4,0:3:0:0:
259,164,822892,1,4,0:3:0:0:
270,133,822988,1,4,0:3:0:0:
301,122,823084,1,2,0:0:0:0:
329,140,823180,1,4,0:3:0:0:
333,173,823276,1,4,0:3:0:0:
309,196,823373,1,4,0:3:0:0:
298,159,823469,6,0,P|209:143|155:159,1,120.000004577637,8|0,0:0|0:0,0:0:0:0:
0,179,823853,2,0,P|89:195|143:179,1,120.000004577637,0|4,0:0|0:3,0:0:0:0:
68,98,824238,5,6,0:0:0:0:
36,93,824334,1,2,0:0:0:0:
19,65,824430,1,4,0:3:0:0:
30,34,824526,1,4,0:3:0:0:
61,23,824622,1,2,0:0:0:0:
89,41,824718,1,4,0:3:0:0:
93,74,824814,1,4,0:3:0:0:
69,97,824911,1,2,0:0:0:0:
7,65,825007,6,0,L|-1:132,3,60.0000022888184,12|8|2|2,0:0|0:0|0:0|0:0,0:0:0:0:
174,0,825392,2,0,L|182:67,3,60.0000022888184,12|8|2|2,0:0|0:0|0:0|0:0,0:0:0:0:
310,144,825777,5,2,0:0:0:0:
315,176,825873,1,4,0:3:0:0:
343,193,825969,1,4,0:3:0:0:
374,182,826065,1,4,0:3:0:0:
385,151,826161,1,2,0:0:0:0:
367,123,826257,1,4,0:3:0:0:
334,119,826353,1,4,0:3:0:0:
311,143,826450,1,4,0:3:0:0:
346,157,826546,6,0,L|336:287,1,120.000004577637,8|0,0:0|0:0,0:0:0:0:
179,384,826930,2,0,L|169:264,1,120.000004577637,0|4,0:0|0:3,0:0:0:0:
78,139,827315,5,6,0:0:0:0:
46,144,827411,1,2,0:0:0:0:
29,172,827507,1,4,0:3:0:0:
40,203,827603,1,4,0:3:0:0:
71,214,827699,1,2,0:0:0:0:
99,196,827795,1,4,0:3:0:0:
103,163,827891,1,2,0:0:0:0:
79,140,827988,1,2,0:0:0:0:
70,175,828084,5,12,0:0:0:0:
114,180,828180,1,8,0:0:0:0:
159,176,828276,1,2,0:0:0:0:
201,162,828372,1,2,0:0:0:0:
240,139,828468,5,8,0:0:0:0:
234,198,828565,1,2,0:0:0:0:
238,258,828661,1,8,0:0:0:0:
250,317,828757,1,8,0:0:0:0:
216,384,828853,6,0,P|274:356|346:344,1,120.000004577637,6|0,0:0|0:0,0:0:0:0:
500,366,829142,1,2,0:0:0:0:
500,366,829238,2,0,P|503:272|509:215,1,120.000004577637,0|6,0:0|0:0,0:0:0:0:
512,212,829527,1,2,0:0:0:0:
408,135,829623,6,0,P|405:229|399:286,1,120.000004577637,8|0,0:0|0:0,0:0:0:0:
314,105,829911,1,0,0:0:0:0:
314,105,830007,2,0,P|351:51|394:35,1,60.0000022888184
497,102,830200,2,0,P|460:48|417:32,1,60.0000022888184
325,192,830392,6,0,L|179:186,1,120.000004577637,6|0,0:0|0:0,0:0:0:0:
189,186,830680,1,2,0:0:0:0:
89,235,830777,2,0,P|80:177|99:121,1,120.000004577637,0|2,0:0|0:0,0:0:0:0:
112,108,831065,1,2,0:0:0:0:
176,285,831161,6,0,L|322:279,1,120.000004577637,12|0,0:0|0:0,0:0:0:0:
319,278,831450,1,2,0:0:0:0:
353,265,831546,5,8,0:0:0:0:
363,308,831642,1,4,0:3:0:0:
391,343,831738,1,4,0:3:0:0:
431,362,831834,1,2,0:0:0:0:
475,362,831930,6,0,P|497:303|492:236,1,120.000004577637,6|0,0:0|0:0,0:0:0:0:
319,119,832219,1,6,0:0:0:0:
319,119,832315,2,0,P|359:167|396:188,1,60.0000022888184
468,128,832507,1,2,0:0:0:0:
239,30,832700,5,8,0:0:0:0:
231,47,832796,1,2,0:0:0:0:
225,69,832892,5,0,0:0:0:0:
225,69,832988,1,2,0:0:0:0:
195,75,833084,5,0,0:0:0:0:
195,75,833180,1,2,0:0:0:0:
167,88,833277,5,0,0:0:0:0:
167,88,833373,1,2,0:0:0:0:
131,107,833469,6,0,P|91:144|74:213,1,120.000004577637,6|2,0:0|0:0,0:0:0:0:
301,365,834238,6,0,L|292:245,1,120.000004577637,2|0,0:0|0:0,0:0:0:0:
289,228,834527,1,2,0:0:0:0:
268,207,834623,5,8,0:0:0:0:
326,198,834719,1,8,0:0:0:0:
374,162,834815,1,8,0:0:0:0:
400,109,834911,1,8,0:0:0:0:
393,93,835007,6,0,L|315:71,2,80
504,237,835969,6,0,L|485:232,1,20
508,158,836162,2,0,L|489:153,1,20
512,79,836354,2,0,L|493:74,1,20
250,281,836546,6,0,B|230:316|170:328|130:310|79:322|79:322|93:311|81:270|103:219|146:201|146:201|83:157|92:72|92:72|94:51|81:30|81:30|169:95|190:36|256:121,1,720.000027465821,6|2,0:0|0:0,0:0:0:0:
19,74,837507,6,0,L|-12:83,1,20
23,153,837700,2,0,L|-8:162,1,20,2|0,0:0|0:0,0:0:0:0:
27,232,837892,2,0,L|-4:241,1,20
255,119,838084,6,0,B|320:35|342:93|429:28|429:28|417:48|419:70|419:70|428:155|364:199|364:199|406:217|429:269|417:309|431:321|431:321|380:308|340:327|280:314|249:267,1,720.000027465821,6|2,0:0|0:0,0:0:0:0:
93,130,839046,6,0,L|90:170,2,40,0|2|0,0:0|0:0|0:0,0:0:0:0:
83,358,839623,6,0,L|97:166,2,180.000006866455,6|0|2,0:0|0:0|0:0,0:0:0:0:
512,257,840200,2,0,P|424:272|341:241,1,180.000006866455,0|6,0:0|0:0,0:0:0:0:
7,278,840584,2,0,P|94:263|177:294,1,180.000006866455,0|2,0:0|0:0,0:0:0:0:
211,31,840969,5,6,0:0:0:0:
419,166,841161,2,0,B|515:86|428:-38|279:14|318:126|318:126|206:87|196:144|82:80|82:80|169:89|230:9,1,720.000027465821,2|2,0:0|0:0,0:0:0:0:
2,39,842123,6,0,P|-7:77|0:116,2,80,0|2|0,0:0|0:0|0:0,0:0:0:0:
482,308,842700,6,0,B|375:304|375:304|291:337|291:337|166:323,2,320,6|8|2,0:0|0:0|0:0,0:0:0:0:
96,372,843661,2,0,P|84:317|116:252,1,120.000004577637,0|8,0:0|0:0,0:0:0:0:
402,195,844046,5,6,0:0:0:0:
302,0,844238,2,0,B|292:175|374:126|366:308,2,320,6|8|2,0:0|0:0|0:0,0:0:0:0:
473,61,845200,6,0,P|412:70|339:57,1,120.000004577637,0|8,0:0|0:0,0:0:0:0:
113,34,845584,1,0,0:0:0:0:
113,34,845680,1,8,0:0:0:0:
84,62,845777,6,0,P|165:50|261:67,1,160,6|0,0:0|0:0,0:0:0:0:
389,190,846161,1,8,0:0:0:0:
156,328,846353,2,0,L|145:146,1,160,0|6,0:0|0:0,0:0:0:0:
389,202,846738,2,0,L|379:361,1,160,0|8,0:0|0:0,0:0:0:0:
269,131,847123,1,2,0:0:0:0:
497,73,847315,6,0,B|366:59|366:59|265:98|265:98|142:84,1,360.000013732911,2|8,0:0|0:0,0:0:0:0:
66,139,847892,1,4,0:1:0:0:
94,146,847988,1,4,0:1:0:0:
121,157,848084,1,6,0:0:0:0:
137,181,848180,1,8,0:0:0:0:
154,206,848277,6,0,P|185:213|239:202,1,80,4|4,0:1|0:1,0:0:0:0:
379,112,848469,2,0,P|356:135|339:187,1,80,12|2,0:0|0:0,0:0:0:0:
347,353,848661,2,0,P|337:321|301:281,1,80,8|8,0:0|0:0,0:0:0:0:
55,225,848853,5,6,0:0:0:0:
232,205,849046,1,8,0:0:0:0:
231,244,849142,1,2,0:0:0:0:
222,283,849238,1,2,0:0:0:0:
206,320,849334,1,2,0:0:0:0:
217,357,849430,5,8,0:0:0:0:
413,249,849623,1,2,0:0:0:0:
425,247,849815,6,0,L|440:352,1,80,8|2,0:0|0:0,0:0:0:0:
350,99,850007,2,0,L|335:204,1,80,0|2,0:0|0:0,0:0:0:0:
501,0,850200,1,8,0:0:0:0:
261,0,850392,5,6,0:0:0:0:
77,66,850584,1,8,0:0:0:0:
116,72,850680,1,2,0:0:0:0:
155,79,850776,1,2,0:0:0:0:
195,86,850872,1,2,0:0:0:0:
249,97,850969,5,12,0:0:0:0:
13,169,851161,1,2,0:0:0:0:
3,171,851353,6,0,P|5:214|24:258,1,80,8|2,0:0|0:0,0:0:0:0:
61,359,851546,2,0,P|97:335|125:297,1,80,0|2,0:0|0:0,0:0:0:0:
238,197,851738,1,8,0:0:0:0:
459,321,851930,6,0,P|389:285|304:275,1,160,6|8,0:0|0:0,0:0:0:0:
226,353,852219,1,2,0:0:0:0:
216,361,852315,2,0,L|196:265,1,80,2|2,0:0|0:0,0:0:0:0:
108,154,852507,1,8,0:0:0:0:
326,192,852700,6,0,L|492:170,1,160,6|8,0:0|0:0,0:0:0:0:
512,61,852988,1,2,0:0:0:0:
505,53,853084,2,0,L|426:36,1,80,0|2,0:0|0:0,0:0:0:0:
316,194,853277,1,8,0:0:0:0:
256,60,853469,5,2,0:0:0:0:
215,39,853565,1,2,0:0:0:0:
170,39,853661,1,8,0:0:0:0:
129,60,853757,1,2,0:0:0:0:
102,96,853853,1,2,0:0:0:0:
94,141,853949,1,2,0:0:0:0:
107,184,854045,1,8,0:0:0:0:
139,217,854142,1,2,0:0:0:0:
181,239,854238,1,2,0:0:0:0:
210,276,854334,1,2,0:0:0:0:
205,323,854430,6,0,P|171:355|140:368,1,80,8|2,0:0|0:0,0:0:0:0:
351,305,854623,2,0,P|361:350|357:383,1,80,2|2,0:0|0:0,0:0:0:0:
504,169,854815,2,0,P|471:146|433:135,1,80,8|2,0:0|0:0,0:0:0:0:
192,131,855007,5,2,0:0:0:0:
149,101,855103,1,2,0:0:0:0:
141,49,855199,1,8,0:0:0:0:
171,8,855295,1,2,0:0:0:0:
223,0,855391,1,2,0:0:0:0:
264,32,855487,1,2,0:0:0:0:
270,83,855584,1,8,0:0:0:0:
269,131,855680,1,2,0:0:0:0:
280,177,855776,1,2,0:0:0:0:
303,218,855872,1,2,0:0:0:0:
336,252,855969,6,0,P|369:276|435:292,1,80,8|2,0:0|0:0,0:0:0:0:
113,193,856161,2,0,P|76:195|25:185,1,80,2|2,0:0|0:0,0:0:0:0:
433,135,856353,1,8,0:0:0:0:
298,23,856545,5,6,0:0:0:0:
246,59,856641,1,2,0:0:0:0:
227,118,856737,1,8,0:0:0:0:
246,178,856834,1,2,0:0:0:0:
271,235,856930,1,2,0:0:0:0:
251,294,857026,1,2,0:0:0:0:
195,323,857122,1,8,0:0:0:0:
135,307,857218,1,2,0:0:0:0:
101,255,857314,1,2,0:0:0:0:
113,193,857410,1,2,0:0:0:0:
159,154,857507,6,0,P|175:192|182:241,1,80,8|2,0:0|0:0,0:0:0:0:
303,384,857700,2,0,P|310:344|325:307,1,80,2|2,0:0|0:0,0:0:0:0:
497,174,857892,2,0,P|459:158|410:151,1,80,8|2,0:0|0:0,0:0:0:0:
287,0,858084,1,6,0:0:0:0:
286,1,858180,1,2,0:0:0:0:
301,16,858277,6,0,P|286:52|279:92,1,80,8|2,0:0|0:0,0:0:0:0:
429,249,858469,2,0,P|389:241|352:226,1,80,2|2,0:0|0:0,0:0:0:0:
172,0,858661,2,0,P|188:38|195:87,1,80,8|2,0:0|0:0,0:0:0:0:
0,296,858853,2,0,P|39:288|76:273,1,80,2|2,0:0|0:0,0:0:0:0:
226,162,859046,2,0,L|219:241,1,80,8|2,0:0|0:0,0:0:0:0:
15,192,859238,2,0,L|9:113,1,80,2|2,0:0|0:0,0:0:0:0:
172,359,859430,1,8,0:0:0:0:
172,359,859527,1,2,0:0:0:0:
172,359,859623,5,6,0:0:0:0:
231,356,859719,1,2,0:0:0:0:
284,329,859815,1,8,0:0:0:0:
321,282,859911,1,2,0:0:0:0:
335,224,860007,1,2,0:0:0:0:
352,168,860103,1,2,0:0:0:0:
399,132,860200,1,8,0:0:0:0:
458,130,860295,1,2,0:0:0:0:
506,164,860391,5,6,0:0:0:0:
467,174,860488,1,8,0:0:0:0:
414,223,860584,5,4,0:1:0:0:
370,212,860681,1,4,0:1:0:0:
312,161,860777,5,8,0:0:0:0:
262,173,860874,1,2,0:0:0:0:
215,228,860969,5,8,0:0:0:0:
155,213,861066,1,8,0:0:0:0:
101,159,861161,5,6,0:0:0:0:
0,328,861353,1,8,0:0:0:0:
39,322,861449,1,2,0:0:0:0:
79,317,861545,1,2,0:0:0:0:
118,312,861641,1,2,0:0:0:0:
162,337,861737,5,8,0:0:0:0:
0,205,861930,1,2,0:0:0:0:
172,22,862123,1,8,0:0:0:0:
178,61,862219,1,2,0:0:0:0:
184,100,862315,2,0,L|252:109,1,60.0000022888184,0|2,0:0|0:0,0:0:0:0:
352,53,862507,1,8,0:0:0:0:
215,228,862700,5,6,0:0:0:0:
503,159,862892,1,8,0:0:0:0:
464,153,862988,1,2,0:0:0:0:
424,148,863084,1,2,0:0:0:0:
385,143,863180,1,2,0:0:0:0:
341,168,863276,5,8,0:0:0:0:
475,58,863469,1,2,0:0:0:0:
404,249,863661,1,8,0:0:0:0:
365,255,863757,1,2,0:0:0:0:
326,261,863853,2,0,L|256:247,1,60.0000022888184,0|2,0:0|0:0,0:0:0:0:
143,320,864046,1,8,0:0:0:0:
0,205,864238,5,6,0:0:0:0:
121,66,864430,1,8,0:0:0:0:
127,105,864526,1,2,0:0:0:0:
133,144,864622,2,0,L|119:214,1,60.0000022888184,2|2,0:0|0:0,0:0:0:0:
25,315,864815,1,8,0:0:0:0:
31,96,865007,5,6,0:0:0:0:
281,99,865200,2,0,L|222:87,1,60.0000022888184,8|2,0:0|0:0,0:0:0:0:
382,168,865392,2,0,L|323:179,1,60.0000022888184,0|2,0:0|0:0,0:0:0:0:
472,70,865584,1,8,0:0:0:0:
429,257,865777,5,6,0:0:0:0:
429,257,865873,1,2,0:0:0:0:
429,257,865969,2,0,L|477:221,1,60.0000022888184,8|2,0:0|0:0,0:0:0:0:
300,350,866161,1,2,0:0:0:0:
300,350,866257,1,2,0:0:0:0:
300,350,866353,2,0,L|319:293,1,60.0000022888184,8|2,0:0|0:0,0:0:0:0:
191,180,866546,6,0,L|207:237,1,60.0000022888184,2|2,0:0|0:0,0:0:0:0:
73,296,866738,2,0,L|119:333,1,60.0000022888184,8|2,0:0|0:0,0:0:0:0:
9,164,866930,2,0,L|68:167,1,60.0000022888184,2|2,0:0|0:0,0:0:0:0:
124,7,867123,2,0,L|72:38,1,60.0000022888184,8|2,0:0|0:0,0:0:0:0:
240,61,867315,5,6,0:0:0:0:
268,69,867411,1,2,0:0:0:0:
298,69,867507,1,8,0:0:0:0:
327,60,867603,1,2,0:0:0:0:
355,51,867699,1,2,0:0:0:0:
385,51,867795,1,2,0:0:0:0:
414,59,867892,2,0,P|416:88|422:118,1,60.0000022888184,8|2,0:0|0:0,0:0:0:0:
495,264,868084,5,2,0:0:0:0:
473,318,868180,1,2,0:0:0:0:
423,349,868276,1,8,0:0:0:0:
364,344,868372,1,2,0:0:0:0:
320,304,868468,1,2,0:0:0:0:
309,247,868564,1,2,0:0:0:0:
335,194,868661,2,0,P|342:161|344:127,1,60.0000022888184,8|2,0:0|0:0,0:0:0:0:
193,77,868853,5,6,0:0:0:0:
151,55,868949,1,2,0:0:0:0:
107,67,869045,1,8,0:0:0:0:
83,109,869141,1,2,0:0:0:0:
91,152,869237,1,2,0:0:0:0:
129,179,869334,1,2,0:0:0:0:
174,174,869430,1,8,0:0:0:0:
220,169,869527,1,2,0:0:0:0:
257,196,869623,1,2,0:0:0:0:
266,240,869719,1,2,0:0:0:0:
242,281,869815,1,8,0:0:0:0:
198,294,869911,1,2,0:0:0:0:
157,273,870007,6,0,P|123:274|87:284,1,60.0000022888184,2|2,0:0|0:0,0:0:0:0:
23,209,870200,2,0,P|6:238|-2:275,1,60.0000022888184,8|8,0:0|0:0,0:0:0:0:
132,382,870392,5,6,0:0:0:0:
161,379,870488,1,2,0:0:0:0:
191,377,870584,1,8,0:0:0:0:
221,375,870680,1,2,0:0:0:0:
259,354,870777,5,2,0:0:0:0:
298,356,870873,1,2,0:0:0:0:
338,359,870969,1,8,0:0:0:0:
378,362,871065,1,2,0:0:0:0:
417,384,871161,5,6,0:0:0:0:
431,337,871257,1,2,0:0:0:0:
436,288,871353,1,8,0:0:0:0:
429,240,871449,1,2,0:0:0:0:
410,195,871546,5,2,0:0:0:0:
362,230,871642,1,2,0:0:0:0:
304,240,871738,1,8,0:0:0:0:
247,222,871834,1,2,0:0:0:0:
206,179,871930,5,6,0:0:0:0:
243,242,872026,1,2,0:0:0:0:
231,315,872122,1,8,0:0:0:0:
176,363,872218,1,2,0:0:0:0:
103,366,872314,1,2,0:0:0:0:
44,322,872410,1,2,0:0:0:0:
27,251,872506,1,8,0:0:0:0:
59,185,872603,1,2,0:0:0:0:
126,154,872700,5,6,0:0:0:0:
138,206,872796,1,8,0:0:0:0:
128,259,872892,1,4,0:1:0:0:
134,312,872988,1,4,0:1:0:0:
176,363,873084,6,0,L|254:360,1,60.0000022888184,8|2,0:0|0:0,0:0:0:0:
436,288,873277,2,0,L|358:285,1,60.0000022888184,8|8,0:0|0:0,0:0:0:0:
229,153,873469,1,6,0:0:0:0:
221,144,873661,5,8,0:0:0:0:
262,141,873757,1,2,0:0:0:0:
303,138,873853,1,2,0:0:0:0:
345,135,873950,1,2,0:0:0:0:
379,110,874046,5,8,0:0:0:0:
204,23,874238,1,2,0:0:0:0:
198,34,874430,5,8,0:0:0:0:
155,31,874527,1,2,0:0:0:0:
113,27,874623,2,0,L|48:34,1,60.0000022888184,0|2,0:0|0:0,0:0:0:0:
314,34,874815,1,8,0:0:0:0:
87,149,875007,1,6,0:0:0:0:
74,160,875200,5,8,0:0:0:0:
115,163,875296,1,2,0:0:0:0:
156,166,875392,1,2,0:0:0:0:
198,169,875489,1,2,0:0:0:0:
230,144,875585,5,8,0:0:0:0:
374,283,875777,1,2,0:0:0:0:
375,293,875969,5,8,0:0:0:0:
332,296,876066,1,2,0:0:0:0:
290,300,876162,2,0,L|225:293,1,60.0000022888184,0|2,0:0|0:0,0:0:0:0:
57,353,876353,5,8,0:0:0:0:
74,160,876546,1,6,0:0:0:0:
68,146,876738,5,8,0:0:0:0:
111,149,876835,1,2,0:0:0:0:
153,153,876931,2,0,L|218:146,1,60.0000022888184,2|2,0:0|0:0,0:0:0:0:
386,206,877123,1,8,0:0:0:0:
512,82,877315,1,2,0:0:0:0:
512,96,877507,6,0,L|447:89,1,60.0000022888184,8|2,0:0|0:0,0:0:0:0:
231,33,877700,2,0,L|296:26,1,60.0000022888184,0|2,0:0|0:0,0:0:0:0:
512,113,877892,2,0,L|447:106,1,60.0000022888184,8|2,0:0|0:0,0:0:0:0:
309,137,878084,5,12,0:0:0:0:
303,197,878180,1,8,0:0:0:0:
297,257,878276,1,2,0:0:0:0:
437,366,878469,1,2,0:0:0:0:
297,257,878661,5,8,0:0:0:0:
237,251,878757,1,8,0:0:0:0:
177,245,878853,2,0,L|168:319,1,60.0000022888184,4|4,0:1|0:1,0:0:0:0:
79,135,879046,2,0,L|82:209,1,60.0000022888184,4|4,0:3|0:3,0:0:0:0:
354,267,879238,2,0,L|363:341,1,60.0000022888184,8|2,0:0|0:0,0:0:0:0:
452,157,879431,2,0,L|448:231,1,60.0000022888184,4|4,0:3|0:3,0:0:0:0:
280,147,879623,5,6,0:0:0:0:
238,143,879719,1,2,0:0:0:0:
200,125,879815,1,8,0:0:0:0:
175,99,879911,1,2,0:0:0:0:
145,69,880007,1,2,0:0:0:0:
106,55,880103,1,2,0:0:0:0:
64,58,880199,1,8,0:0:0:0:
28,78,880295,1,2,0:0:0:0:
9,111,880391,1,2,0:0:0:0:
0,151,880487,1,2,0:0:0:0:
9,193,880584,1,8,0:0:0:0:
30,226,880680,1,2,0:0:0:0:
67,245,880777,6,0,P|99:243|144:229,1,60.0000022888184,8|2,0:0|0:0,0:0:0:0:
354,267,880969,2,0,P|322:264|277:250,1,60.0000022888184,8|2,0:0|0:0,0:0:0:0:
203,160,881161,5,2,0:0:0:0:
186,130,881257,1,2,0:0:0:0:
188,96,881353,1,8,0:0:0:0:
205,67,881449,1,2,0:0:0:0:
234,50,881545,1,2,0:0:0:0:
267,50,881641,1,2,0:0:0:0:
296,67,881737,1,8,0:0:0:0:
314,95,881834,1,2,0:0:0:0:
316,128,881930,1,2,0:0:0:0:
303,160,882027,1,2,0:0:0:0:
293,191,882123,1,8,0:0:0:0:
290,224,882219,1,2,0:0:0:0:
295,257,882315,6,0,P|306:283|325:307,1,60.0000022888184,8|2,0:0|0:0,0:0:0:0:
187,213,882507,2,0,P|158:210|128:214,1,60.0000022888184,8|2,0:0|0:0,0:0:0:0:
0,295,882700,5,12,0:0:0:0:
30,299,882796,1,2,0:0:0:0:
60,303,882892,1,8,0:0:0:0:
90,307,882988,1,2,0:0:0:0:
117,345,883084,5,8,0:0:0:0:
147,341,883180,1,2,0:0:0:0:
180,319,883277,5,8,0:0:0:0:
210,323,883373,1,2,0:0:0:0:
240,327,883469,1,8,0:0:0:0:
270,331,883565,1,2,0:0:0:0:
297,369,883661,5,8,0:0:0:0:
327,365,883757,1,2,0:0:0:0:
360,343,883853,5,8,0:0:0:0:
390,347,883949,1,2,0:0:0:0:
415,384,884046,5,8,0:0:0:0:
445,380,884142,1,2,0:0:0:0:
478,358,884238,5,8,0:0:0:0:
478,358,884334,1,2,0:0:0:0:
503,317,884430,5,8,0:0:0:0:
503,317,884526,1,2,0:0:0:0:
500,268,884623,5,8,0:0:0:0:
500,268,884719,1,2,0:0:0:0:
474,227,884815,5,8,0:0:0:0:
474,227,884911,1,2,0:0:0:0:
435,209,885007,6,0,P|390:202|337:224,1,90.0000034332277,12|8,0:0|0:0,0:0:0:0:
297,369,885200,2,0,P|325:333|333:276,1,90.0000034332277,2|2,0:0|0:0,0:0:0:0:
271,79,885392,2,0,P|228:95|193:140,1,90.0000034332277,12|2,0:0|0:0,0:0:0:0:
231,286,885585,2,0,P|237:240|216:188,1,90.0000034332277,8|8,0:0|0:0,0:0:0:0:
63,48,885777,6,0,B|43:72|38:100|82:122|54:168,1,126.666666666667,2|0,0:0|0:0,0:0:0:0:
334,334,886930,2,0,L|275:344,1,60
205,372,887315,2,0,B|201:330|201:330|217:296|217:296|207:244,1,120
132,115,888517,2,0,L|175:114,1,40
482,184,888853,6,0,B|449:171|449:171|425:173|409:207|378:195|359:184,1,120
357,185,889527,1,0,0:0:0:0:
292,143,889623,2,0,B|277:168|285:216|286:274|277:256,1,120
266,274,890296,1,0,0:0:0:0:
166,293,890392,2,0,B|216:271|242:292|249:304|260:323,1,100
323,377,890969,2,0,L|340:353,1,20
496,295,891161,2,0,B|478:312|445:316|429:309|419:302|424:286|429:272|420:257|391:243,1,140
308,249,891930,6,0,B|325:220|323:194|332:183,1,60
446,33,892507,2,0,B|451:61|425:57|399:45|380:37|274:29|361:70,1,160
365,77,893373,1,0,0:0:0:0:
468,154,893469,2,0,B|448:152|430:160|430:160|408:153|386:158|386:158|366:152|366:152|346:161|320:155,1,140
304,187,894238,2,0,P|269:160|241:149,2,60
468,327,895007,6,0,B|475:307|470:285|470:285|412:294|417:366|347:343|347:343|330:354|330:354|291:339|273:350,1,240.000009155274
2,323,896161,2,0,P|7:320|12:352,1,60.0000022888184
113,371,896546,6,0,B|137:297|82:253|82:253|83:231|100:225,1,160,2|2,0:0|0:0,0:0:0:0:
257,162,897315,1,2,0:0:0:0:
111,50,897507,1,2,0:0:0:0:
325,56,897700,1,2,0:0:0:0:
69,136,897892,1,2,0:0:0:0:
304,281,898084,6,0,B|314:284|314:284|346:280|377:246|377:246|332:189|267:194|267:194|193:260|218:328|218:328|278:375|351:355|351:355|373:335|402:336|421:304|421:304|450:314|486:305,2,660.000006294251,6|0|0,0:0|0:0|0:0,0:0:0:0:
195,121,899623,6,0,B|185:124|185:124|154:120|122:86|122:86|167:29|232:34|232:34|306:100|281:168|281:168|221:215|148:195|148:195|126:175|98:176|78:144|78:144|50:154|14:145,2,660.000006294251,6|0|0,0:0|0:0|0:0,0:0:0:0:
400,198,901161,6,0,B|453:213|464:259|464:259|452:294|409:310|409:310|315:253|433:150|359:50,1,440.000004196167,6|0,0:0|0:0,0:0:0:0:
73,258,901930,2,0,B|19:273|8:319|8:319|20:354|63:370|63:370|157:313|39:210|113:110,1,440.000004196167,6|0,0:0|0:0,0:0:0:0:
309,307,902700,6,0,B|325:333|375:354|417:336|476:357|476:357|460:344|477:300|460:248|418:220|418:220|491:182|491:92|491:92|493:64|512:45|512:45|438:108|393:39|314:118|314:118|256:21|226:82|141:1|141:1|152:25|147:47|147:47|126:137|188:192|188:192|139:206|109:257|117:303|100:312|100:312|156:306|197:331|262:326|288:274,1,1540.00001468658,6|8,0:0|0:0,0:0:0:0:
344,198,904238,6,0,B|476:111|476:111|463:100|463:100|435:91|435:91|412:65|412:65|369:57|369:57|330:37|330:37|286:45|286:45|242:38|242:38|206:54|206:54|176:59|176:59|161:66|161:66|264:191,2,660.000006294251,6|0|0,0:0|0:0|0:0,0:0:0:0:
310,117,905584,1,8,0:0:0:0:
124,252,905777,6,0,B|-8:165|-8:165|5:154|5:154|33:145|33:145|56:119|56:119|99:111|99:111|138:91|138:91|182:99|182:99|226:92|226:92|262:108|262:108|292:113|292:113|307:120|307:120|204:245,2,660.000006294251,6|0|0,0:0|0:0|0:0,0:0:0:0:
482,336,907315,5,6,0:0:0:0:
176,327,907507,1,8,0:0:0:0:
484,326,907700,2,0,P|396:285|281:275,1,210.000002002716
170,322,908084,5,6,0:0:0:0:
483,312,908277,1,8,0:0:0:0:
162,315,908469,2,0,P|248:256|349:230,1,210.000002002716
456,205,908853,6,8,L|490:204,22,35.000000333786,12|8|8|8|8|8|8|8|8|8|8|8|8|8|8|8|8|8|8|8|8|8|8,0:0|0:0|0:0|0:0|0:0|0:0|0:0|0:0|0:0|0:0|0:0|0:0|0:0|0:0|0:0|0:0|0:0|0:0|0:0|0:0|0:0|0:0|0:0,0:0:0:0:
391,160,910007,5,2,0:0:0:0:
389,150,910071,1,2,0:0:0:0:
387,140,910135,1,2,0:0:0:0:
387,130,910200,2,0,L|468:127,1,70.000000667572,8|8,0:0|0:0,0:0:0:0:
512,287,910392,6,0,P|458:289|404:288,1,100,6|0,0:0|0:0,0:0:0:0:
246,250,910776,1,0,0:0:0:0:
32,174,910968,2,0,P|85:176|140:175,1,100
303,136,911352,1,0,0:0:0:0:
290,140,911545,1,0,0:0:0:0:
432,0,911738,1,2,0:0:0:0:
432,0,911834,1,2,0:0:0:0:
432,0,911930,6,0,P|406:48|378:95,1,100,2|0,0:0|0:0,0:0:0:0:
266,212,912315,1,0,0:0:0:0:
94,360,912507,2,0,P|122:315|148:267,1,100
187,92,912892,1,0,0:0:0:0:
191,108,913084,1,0,0:0:0:0:
196,125,913276,1,0,0:0:0:0:
288,355,913468,6,0,B|309:345|309:345|324:265,1,100,6|0,0:0|0:0,0:0:0:0:
344,110,913853,1,0,0:0:0:0:
392,348,914045,2,0,B|413:338|413:338|428:258,1,100
448,103,914430,1,0,0:0:0:0:
455,117,914622,1,0,0:0:0:0:
282,18,914815,1,2,0:0:0:0:
282,18,914911,1,2,0:0:0:0:
282,18,915007,6,0,P|273:49|271:86,2,50,6|2|0,0:0|0:0|0:0,0:0:0:0:
101,82,915392,1,0,0:0:0:0:
209,192,915584,1,0,0:0:0:0:
46,306,915776,1,4,0:3:0:0:
62,288,915872,1,4,0:3:0:0:
75,266,915968,1,4,0:3:0:0:
83,243,916064,1,4,0:3:0:0:
87,218,916161,5,8,0:0:0:0:
113,261,916257,1,8,0:0:0:0:
151,292,916353,1,4,0:1:0:0:
198,311,916449,1,4,0:1:0:0:
247,314,916545,6,0,L|261:265,1,50,6|2,0:0|0:0,0:0:0:0:
377,315,916738,2,0,L|364:267,1,50,4|4,0:3|0:3,0:0:0:0:
489,253,916930,2,0,L|453:218,1,50,2|2,0:0|0:0,0:0:0:0:
372,342,917122,6,0,L|359:294,1,50,4|4,0:3|0:3,0:0:0:0:
234,334,917315,2,0,L|247:286,1,50,12|8,0:0|0:0,0:0:0:0:
97,367,917507,5,2,0:0:0:0:
94,330,917603,1,2,0:0:0:0:
92,293,917699,1,4,0:1:0:0:
89,255,917795,1,4,0:1:0:0:
87,218,917892,2,0,L|14:194,1,50
205,213,918084,5,6,0:0:0:0:
244,165,918180,1,4,0:3:0:0:
252,104,918276,2,0,P|246:76|229:45,1,50,4|4,0:3|0:3,0:0:0:0:
351,148,918468,2,0,P|376:134|400:108,1,50,4|4,0:3|0:3,0:0:0:0:
178,187,918661,6,0,P|153:183|128:186,1,50,2|2,0:0|0:0,0:0:0:0:
234,280,918853,2,0,P|221:307|217:342,1,50,12|8,0:0|0:0,0:0:0:0:
340,256,919045,5,2,0:0:0:0:
389,261,919141,1,2,0:0:0:0:
420,298,919237,1,8,0:0:0:0:
414,347,919333,1,8,0:0:0:0:
376,376,919430,1,2,0:0:0:0:
328,369,919527,1,2,0:0:0:0:
299,330,919623,6,0,L|292:380,1,50,4|4,0:1|0:1,0:0:0:0:
126,265,919815,2,0,L|133:316,1,50,4|4,0:3|0:3,0:0:0:0:
282,149,920007,2,0,L|274:200,1,50,2|2,0:0|0:0,0:0:0:0:
121,325,920199,6,0,L|113:276,1,50,4|4,0:1|0:1,0:0:0:0:
305,382,920392,2,0,L|312:333,1,50,12|8,0:0|0:0,0:0:0:0:
452,229,920584,6,0,L|449:263,2,33.3333333333333,4|4|4,0:3|0:3|0:3,0:0:0:0:
437,197,920776,1,4,0:1:0:0:
436,180,920840,1,4,0:1:0:0:
434,163,920904,1,4,0:1:0:0:
433,146,920968,2,0,L|436:106,2,33.3333333333333,4|4|4,0:1|0:1|0:1,0:0:0:0:
351,80,921161,5,4,0:3:0:0:
351,80,921225,2,0,L|313:78,1,33.3333333333333,4|4,0:3|0:3,0:0:0:0:
251,127,921353,5,4,0:3:0:0:
251,127,921417,2,0,L|213:129,1,33.3333333333333,4|4,0:3|0:3,0:0:0:0:
186,10,921545,5,8,0:0:0:0:
186,10,921609,2,0,L|148:8,1,33.3333333333333,8|8,0:0|0:0,0:0:0:0:
86,57,921737,5,4,0:3:0:0:
86,57,921801,2,0,L|48:59,1,33.3333333333333,4|4,0:3|0:3,0:0:0:0:
0,141,921930,6,0,P|28:162|64:175,1,70.000000667572,8|8,0:0|0:0,0:0:0:0:
100,302,922122,2,0,P|132:289|161:264,1,70.000000667572,6|2,0:0|0:0,0:0:0:0:
333,200,922315,2,0,P|355:227|368:260,1,70.000000667572,8|8,0:0|0:0,0:0:0:0:
512,324,922507,2,0,P|499:357|478:384,1,70.000000667572,8|8,0:0|0:0,0:0:0:0:
233,384,922699,5,6,0:0:0:0:
163,259,922892,1,8,0:0:0:0:
165,230,922988,1,2,0:0:0:0:
168,200,923084,1,2,0:0:0:0:
171,170,923180,1,2,0:0:0:0:
158,135,923276,5,8,0:0:0:0:
278,290,923468,1,2,0:0:0:0:
143,378,923661,1,8,0:0:0:0:
143,378,923757,1,2,0:0:0:0:
143,378,923853,1,0,0:0:0:0:
83,371,923949,1,2,0:0:0:0:
23,364,924045,1,8,0:0:0:0:
244,384,924238,5,6,0:0:0:0:
376,296,924430,1,8,0:0:0:0:
405,294,924526,1,2,0:0:0:0:
435,291,924622,1,2,0:0:0:0:
465,288,924718,1,2,0:0:0:0:
499,304,924814,5,8,0:0:0:0:
329,209,925007,1,2,0:0:0:0:
512,104,925199,1,8,0:0:0:0:
512,104,925295,1,2,0:0:0:0:
512,104,925391,1,0,0:0:0:0:
452,112,925487,1,2,0:0:0:0:
392,119,925583,1,8,0:0:0:0:
238,16,925776,5,2,0:0:0:0:
150,221,925968,1,8,0:0:0:0:
150,221,926064,1,2,0:0:0:0:
150,221,926160,1,2,0:0:0:0:
158,161,926256,1,2,0:0:0:0:
165,101,926352,1,8,0:0:0:0:
0,0,926545,5,6,0:0:0:0:
30,206,926738,1,8,0:0:0:0:
30,206,926834,1,2,0:0:0:0:
30,206,926930,1,0,0:0:0:0:
90,214,927026,1,2,0:0:0:0:
150,221,927122,1,8,0:0:0:0:
266,101,927315,5,2,0:0:0:0:
305,104,927411,1,2,0:0:0:0:
341,121,927507,1,8,0:0:0:0:
368,150,927603,1,2,0:0:0:0:
383,187,927699,1,2,0:0:0:0:
383,227,927795,1,2,0:0:0:0:
368,264,927892,1,8,0:0:0:0:
341,292,927988,1,2,0:0:0:0:
305,309,928084,1,2,0:0:0:0:
284,276,928180,1,2,0:0:0:0:
251,253,928276,1,8,0:0:0:0:
213,242,928372,1,2,0:0:0:0:
174,245,928468,1,2,0:0:0:0:
134,249,928565,1,2,0:0:0:0:
98,234,928661,2,0,P|118:257|129:284,1,60.0000022888184,8|2,0:0|0:0,0:0:0:0:
0,349,928853,5,6,0:0:0:0:
2,329,928949,1,2,0:0:0:0:
4,309,929045,1,8,0:0:0:0:
6,289,929141,1,2,0:0:0:0:
8,269,929237,1,2,0:0:0:0:
9,250,929333,1,2,0:0:0:0:
10,230,929430,5,8,0:0:0:0:
35,248,929526,1,2,0:0:0:0:
61,262,929622,1,2,0:0:0:0:
89,273,929718,1,2,0:0:0:0:
118,280,929814,1,8,0:0:0:0:
148,283,929910,1,2,0:0:0:0:
178,282,930006,5,2,0:0:0:0:
191,240,930103,1,2,0:0:0:0:
193,195,930199,1,8,0:0:0:0:
181,152,930295,1,2,0:0:0:0:
158,113,930392,5,2,0:0:0:0:
174,125,930488,1,2,0:0:0:0:
192,135,930584,1,8,0:0:0:0:
211,142,930680,1,2,0:0:0:0:
230,147,930776,1,2,0:0:0:0:
250,149,930873,1,2,0:0:0:0:
270,147,930969,5,8,0:0:0:0:
275,177,931065,1,2,0:0:0:0:
289,203,931161,1,2,0:0:0:0:
310,224,931257,1,2,0:0:0:0:
337,238,931353,1,8,0:0:0:0:
366,244,931450,1,2,0:0:0:0:
396,241,931546,5,2,0:0:0:0:
371,278,931642,1,2,0:0:0:0:
336,307,931738,2,0,P|320:332|308:371,1,60.0000022888184,8|2,0:0|0:0,0:0:0:0:
165,384,931930,5,6,0:0:0:0:
161,355,932026,1,2,0:0:0:0:
156,326,932122,2,0,L|141:225,1,60.0000022888184,2|2,0:0|0:0,0:0:0:0:
43,252,932315,5,2,0:0:0:0:
47,223,932411,1,2,0:0:0:0:
52,194,932507,2,0,L|67:93,1,60.0000022888184,8|2,0:0|0:0,0:0:0:0:
269,166,932699,5,6,0:0:0:0:
240,176,932795,1,2,0:0:0:0:
209,175,932892,2,0,P|178:168|153:152,1,60.0000022888184,8|2,0:0|0:0,0:0:0:0:
12,43,933084,5,2,0:0:0:0:
41,33,933180,1,2,0:0:0:0:
72,34,933277,2,0,P|103:41|128:57,1,60.0000022888184,8|2,0:0|0:0,0:0:0:0:
230,61,933468,5,6,0:0:0:0:
257,73,933564,1,2,0:0:0:0:
287,78,933660,1,8,0:0:0:0:
316,75,933756,1,2,0:0:0:0:
345,65,933852,1,2,0:0:0:0:
373,56,933949,1,2,0:0:0:0:
402,53,934045,1,8,0:0:0:0:
432,57,934141,1,2,0:0:0:0:
472,43,934238,6,0,L|481:132,1,80,2|8,0:0|0:0,0:0:0:0:
378,248,934430,2,0,L|388:149,1,80,4|4,0:1|0:3,0:0:0:0:
283,1,934623,6,0,B|233:0|233:0|184:11,1,100,8|2,0:0|0:0,0:0:0:0:
0,226,934815,2,0,B|48:237|48:237|99:236,1,100,8|8,0:0|0:0,0:0:0:0:
0,0,935007,5,6,0:0:0:0:
114,123,935200,1,8,0:0:0:0:
143,121,935296,1,2,0:0:0:0:
173,118,935392,1,2,0:0:0:0:
203,115,935488,1,2,0:0:0:0:
230,91,935584,5,8,0:0:0:0:
98,237,935776,1,2,0:0:0:0:
259,234,935969,1,8,0:0:0:0:
259,234,936065,1,2,0:0:0:0:
259,234,936161,1,0,0:0:0:0:
318,241,936257,1,2,0:0:0:0:
378,248,936353,1,8,0:0:0:0:
178,339,936546,5,6,0:0:0:0:
386,371,936738,1,8,0:0:0:0:
388,342,936834,1,2,0:0:0:0:
391,312,936930,1,2,0:0:0:0:
394,282,937026,1,2,0:0:0:0:
378,248,937122,5,8,0:0:0:0:
512,384,937315,1,2,0:0:0:0:
498,233,937507,1,8,0:0:0:0:
498,233,937603,1,2,0:0:0:0:
498,233,937699,1,0,0:0:0:0:
438,241,937795,1,2,0:0:0:0:
378,248,937891,1,8,0:0:0:0:
178,339,938084,5,6,0:0:0:0:
96,203,938276,1,8,0:0:0:0:
96,203,938372,1,2,0:0:0:0:
96,203,938468,1,2,0:0:0:0:
104,143,938564,1,2,0:0:0:0:
111,83,938660,1,8,0:0:0:0:
461,0,938853,5,6,0:0:0:0:
363,128,939045,1,8,0:0:0:0:
363,128,939141,1,2,0:0:0:0:
363,128,939237,1,0,0:0:0:0:
371,188,939334,1,2,0:0:0:0:
378,248,939430,2,0,P|378:282|364:326,1,60.0000022888184,8|2,0:0|0:0,0:0:0:0:
220,233,939622,5,12,0:0:0:0:
224,203,939718,1,4,0:1:0:0:
228,174,939814,1,2,0:0:0:0:
111,83,940007,1,2,0:0:0:0:
128,292,940199,1,8,0:0:0:0:
155,320,940296,1,8,0:0:0:0:
191,337,940392,1,2,0:0:0:0:
231,339,940488,1,4,0:3:0:0:
269,327,940584,1,4,0:3:0:0:
299,301,940680,1,2,0:0:0:0:
318,266,940776,1,8,0:0:0:0:
341,231,940872,1,2,0:0:0:0:
379,212,940969,2,0,P|410:203|441:205,1,60.0000022888184,4|4,0:3|0:3,0:0:0:0:
497,377,941161,5,6,0:0:0:0:
495,357,941257,1,2,0:0:0:0:
493,337,941353,1,8,0:0:0:0:
491,317,941449,1,2,0:0:0:0:
489,297,941545,1,2,0:0:0:0:
488,278,941641,1,2,0:0:0:0:
487,258,941738,5,8,0:0:0:0:
462,276,941834,1,2,0:0:0:0:
436,290,941930,1,2,0:0:0:0:
408,301,942026,1,2,0:0:0:0:
379,308,942122,1,8,0:0:0:0:
349,311,942218,1,2,0:0:0:0:
319,310,942314,5,2,0:0:0:0:
305,268,942411,1,2,0:0:0:0:
303,223,942507,1,8,0:0:0:0:
315,180,942603,1,2,0:0:0:0:
338,141,942700,5,2,0:0:0:0:
322,153,942796,1,2,0:0:0:0:
304,163,942892,1,8,0:0:0:0:
285,170,942988,1,2,0:0:0:0:
266,175,943084,1,2,0:0:0:0:
246,177,943180,1,2,0:0:0:0:
227,175,943276,5,8,0:0:0:0:
221,205,943372,1,2,0:0:0:0:
207,231,943468,1,2,0:0:0:0:
186,252,943564,1,2,0:0:0:0:
159,266,943660,1,8,0:0:0:0:
130,272,943756,1,2,0:0:0:0:
100,267,943853,5,8,0:0:0:0:
92,220,943949,1,2,0:0:0:0:
86,173,944045,2,0,P|48:175|17:169,1,60.0000022888184,8|2,0:0|0:0,0:0:0:0:
8,12,944238,6,0,L|0:72,1,60.0000022888184,12|2,0:0|0:0,0:0:0:0:
156,53,944430,2,0,L|163:113,1,60.0000022888184,8|2,0:0|0:0,0:0:0:0:
401,77,944622,6,0,L|408:137,1,60.0000022888184,8|2,0:0|0:0,0:0:0:0:
253,118,944814,2,0,L|245:178,1,60.0000022888184,8|2,0:0|0:0,0:0:0:0:
8,343,945007,6,0,L|0:284,1,60.0000022888184,12|2,0:0|0:0,0:0:0:0:
156,302,945199,2,0,L|163:243,1,60.0000022888184,8|2,0:0|0:0,0:0:0:0:
401,278,945391,6,0,L|408:219,1,60.0000022888184,8|2,0:0|0:0,0:0:0:0:
253,237,945583,2,0,L|245:178,1,60.0000022888184,8|2,0:0|0:0,0:0:0:0:
91,80,945776,5,12,0:0:0:0:
91,80,945872,1,2,0:0:0:0:
138,87,945968,5,8,0:0:0:0:
138,87,946064,1,2,0:0:0:0:
186,93,946161,5,8,0:0:0:0:
186,93,946257,1,2,0:0:0:0:
233,100,946353,5,8,0:0:0:0:
233,100,946449,1,2,0:0:0:0:
280,107,946545,5,12,0:0:0:0:
281,77,946642,1,8,0:0:0:0:
283,48,946738,2,0,L|344:40,1,60.0000022888184,4|4,0:1|0:1,0:0:0:0:
433,134,946930,6,0,L|372:126,1,60.0000022888184,12|2,0:0|0:0,0:0:0:0:
512,16,947122,2,0,L|452:24,1,60.0000022888184,8|8,0:0|0:0,0:0:0:0:
512,243,947315,5,6,0:0:0:0:
462,276,947411,1,4,0:3:0:0:
405,292,947507,1,4,0:3:0:0:
345,286,947603,1,4,0:3:0:0:
291,261,947700,1,2,0:0:0:0:
340,227,947796,1,4,0:3:0:0:
397,211,947892,1,4,0:3:0:0:
457,217,947988,1,4,0:3:0:0:
512,243,948084,5,8,0:0:0:0:
492,258,948180,1,0,0:0:0:0:
467,256,948276,1,0,0:0:0:0:
451,237,948372,1,0,0:0:0:0:
452,212,948468,1,0,0:0:0:0:
471,195,948564,1,0,0:0:0:0:
498,196,948661,2,0,P|436:199|395:182,1,90.0000034332277,4|4,0:3|0:3,0:0:0:0:
78,143,948853,5,6,0:0:0:0:
127,176,948949,1,2,0:0:0:0:
184,192,949045,1,4,0:3:0:0:
244,186,949141,1,4,0:3:0:0:
299,161,949238,1,2,0:0:0:0:
249,127,949334,1,4,0:3:0:0:
192,111,949430,1,4,0:3:0:0:
132,117,949526,1,2,0:0:0:0:
78,143,949623,5,12,0:0:0:0:
101,146,949719,1,8,0:0:0:0:
120,132,949815,2,0,P|118:62|87:30,1,90.0000034332277,2|2,0:0|0:0,0:0:0:0:
357,95,950007,1,12,0:0:0:0:
334,98,950103,1,8,0:0:0:0:
315,84,950199,2,0,P|317:14|348:-18,1,90.0000034332277,2|2,0:0|0:0,0:0:0:0:
247,242,950392,5,2,0:0:0:0:
254,266,950488,1,4,0:3:0:0:
275,279,950584,1,4,0:3:0:0:
299,272,950680,1,4,0:3:0:0:
313,251,950776,1,2,0:0:0:0:
307,227,950872,1,4,0:3:0:0:
285,211,950969,2,0,P|334:249|377:258,1,90.0000034332277,4|4,0:3|0:3,0:0:0:0:
377,150,951161,5,8,0:0:0:0:
294,119,951257,1,0,0:0:0:0:
211,147,951353,1,0,0:0:0:0:
165,223,951449,1,0,0:0:0:0:
178,310,951545,1,0,0:0:0:0:
244,369,951641,1,0,0:0:0:0:
332,372,951738,2,0,P|376:358|414:325,1,90.0000034332277,4|4,0:3|0:3,0:0:0:0:
466,157,951930,6,0,L|457:274,2,60.0000022888184,6|2|4,0:0|0:0|0:3,0:0:0:0:
354,5,952219,2,0,L|363:122,2,60.0000022888184,4|2|4,0:3|0:0|0:3,0:0:0:0:
290,305,952507,2,0,L|285:245,1,60.0000022888184,4|2,0:3|0:0,0:0:0:0:
163,42,952700,5,12,0:0:0:0:
160,71,952796,2,0,L|151:144,1,60.0000022888184,8|2,0:0|0:0,0:0:0:0:
31,83,952988,1,2,0:0:0:0:
28,112,953084,2,0,L|19:185,1,60.0000022888184,12|2,0:0|0:0,0:0:0:0:
84,250,953277,1,8,0:0:0:0:
81,279,953373,1,8,0:0:0:0:
34,337,953469,6,0,P|152:319|271:334,2,240,6|2|2,0:0|0:0|0:0,0:0:0:0:
85,278,954142,1,2,0:0:0:0:
131,353,954238,2,0,P|256:368|383:349,1,240,12|8,0:0|0:0,0:0:0:0:
484,143,954719,5,8,0:0:0:0:
510,132,954815,2,0,P|502:168|503:219,1,80
453,360,955007,5,6,0:0:0:0:
336,16,955296,1,6,0:0:0:0:
266,373,955584,5,2,0:0:0:0:
266,373,955680,1,2,0:0:0:0:
298,345,955777,2,0,B|231:355|229:322|170:338,1,120,8|2,0:0|0:0,0:0:0:0:
80,382,956161,1,8,0:0:0:0:
92,345,956257,1,4,0:1:0:0:
96,306,956353,1,4,0:1:0:0:
88,267,956450,1,4,0:1:0:0:
19,237,956546,5,6,0:0:0:0:
19,237,956642,2,0,L|104:216,1,80,0|2,0:0|0:0,0:0:0:0:
255,175,956834,1,2,0:0:0:0:
208,143,956930,1,0,0:0:0:0:
153,131,957026,1,0,0:0:0:0:
97,142,957123,2,0,P|66:69|65:32,1,80,2|0,0:0|0:0,0:0:0:0:
187,18,957315,5,8,0:0:0:0:
254,36,957411,1,2,0:0:0:0:
324,25,957507,1,0,0:0:0:0:
390,4,957603,1,2,0:0:0:0:
462,10,957699,1,0,0:0:0:0:
509,59,957796,1,2,0:0:0:0:
512,131,957892,1,0,0:0:0:0:
472,186,957988,1,2,0:0:0:0:
377,206,958084,6,0,P|383:163|396:122,1,80,6|0,0:0|0:0,0:0:0:0:
274,384,958277,2,0,P|269:344|256:306,1,80
145,231,958469,5,2,0:0:0:0:
137,273,958565,1,0,0:0:0:0:
145,305,958661,1,0,0:0:0:0:
137,330,958757,1,0,0:0:0:0:
143,348,958853,2,0,L|180:364,2,30.0000011444092,2|0|0,0:0|0:0|0:0,0:0:0:0:
55,205,959142,5,2,0:0:0:0:
59,230,959238,2,0,L|-3:236,1,60.0000022888184,8|8,0:0|0:0,0:0:0:0:
295,163,959430,1,8,0:0:0:0:
336,182,959527,1,8,0:0:0:0:
344,193,959623,6,0,L|423:205,2,80
486,365,960584,6,0,L|491:346,1,20
408,361,960777,2,0,L|413:342,1,20
328,357,960969,2,0,L|333:338,1,20
146,337,961161,6,0,B|2:242|2:242|16:230|16:230|47:220|47:220|72:192|72:192|118:183|118:183|161:162|161:162|208:170|208:170|256:163|256:163|295:180|295:180|328:186|328:186|344:193|344:193|232:329,1,720.000027465821,6|2,0:0|0:0,0:0:0:0:
53,65,962123,6,0,L|48:84,1,20
132,69,962316,2,0,L|126:88,1,20
211,73,962508,2,0,L|206:92,1,20
375,119,962700,6,0,B|518:213|518:213|504:225|504:225|473:235|473:235|448:263|448:263|402:272|402:272|359:293|359:293|312:285|312:285|264:292|264:292|225:275|225:275|192:269|192:269|176:262|176:262|288:126,1,720.000027465821,6|2,0:0|0:0,0:0:0:0:
424,56,963661,6,0,L|465:59,2,40,0|2|0,0:0|0:0|0:0,0:0:0:0:
91,196,964238,6,0,B|85:257|85:257|102:314|102:314|93:374,2,180.000006866455,6|0|2,0:0|0:0|0:0,0:0:0:0:
489,247,964815,2,0,B|426:233|426:233|367:258|300:255,1,180.000006866455,0|6,0:0|0:0,0:0:0:0:
19,314,965200,2,0,B|82:328|82:328|141:303|208:306,1,180.000006866455,0|2,0:0|0:0,0:0:0:0:
339,94,965584,5,6,0:0:0:0:
209,109,965777,2,0,B|198:112|198:112|164:107|128:70|128:70|178:8|249:13|249:13|330:85|303:160|303:160|237:212|157:190|157:190|133:168|102:169|80:134|80:134|50:145|10:135,1,720.000027465821,2|0,0:0|0:0,0:0:0:0:
383,55,966738,6,0,P|394:89|392:141,2,80,0|2|0,0:0|0:0|0:0,0:0:0:0:
359,369,967315,6,0,B|294:242|423:177|359:50,2,320,6|8|2,0:0|0:0|0:0,0:0:0:0:
491,151,968277,2,0,P|433:137|375:151,1,120.000004577637,0|8,0:0|0:0,0:0:0:0:
76,229,968661,5,6,0:0:0:0:
138,16,968853,2,0,B|121:136|121:136|162:221|162:221|138:323,2,320,2|8|2,0:0|0:0|0:0,0:0:0:0:
327,100,969815,6,0,L|208:118,1,120.000004577637,0|8,0:0|0:0,0:0:0:0:
32,169,970200,1,0,0:0:0:0:
32,169,970296,1,8,0:0:0:0:
3,195,970392,6,0,L|163:221,1,160,6|0,0:0|0:0,0:0:0:0:
434,209,970777,1,8,0:0:0:0:
364,24,970969,2,0,P|341:104|347:187,1,160,0|6,0:0|0:0,0:0:0:0:
191,384,971353,2,0,P|197:298|173:223,1,160,0|8,0:0|0:0,0:0:0:0:
0,95,971738,1,6,0:0:0:0:
309,103,971930,6,0,B|410:39|309:-28|235:6|248:81|369:147|282:248,1,360.000013732911,2|8,0:0|0:0,0:0:0:0:
112,340,972507,1,4,0:1:0:0:
109,313,972603,1,4,0:1:0:0:
106,285,972700,1,6,0:0:0:0:
104,258,972796,1,8,0:0:0:0:
91,233,972892,6,0,L|173:220,1,80,4|4,0:1|0:1,0:0:0:0:
379,272,973084,2,0,P|356:249|339:197,1,80,12|2,0:0|0:0,0:0:0:0:
347,31,973277,2,0,P|337:63|301:103,1,80,8|8,0:0|0:0,0:0:0:0:
55,159,973469,5,6,0:0:0:0:
232,179,973662,1,8,0:0:0:0:
231,140,973758,1,2,0:0:0:0:
222,101,973854,1,2,0:0:0:0:
206,64,973950,1,2,0:0:0:0:
217,27,974046,5,8,0:0:0:0:
413,135,974238,1,2,0:0:0:0:
425,137,974430,6,0,L|440:32,1,80,8|2,0:0|0:0,0:0:0:0:
350,285,974622,2,0,L|335:180,1,80,0|2,0:0|0:0,0:0:0:0:
501,384,974815,1,8,0:0:0:0:
261,384,975007,5,6,0:0:0:0:
77,318,975199,1,8,0:0:0:0:
116,312,975295,1,2,0:0:0:0:
155,305,975391,1,2,0:0:0:0:
195,298,975487,1,2,0:0:0:0:
249,287,975584,5,8,0:0:0:0:
13,215,975776,1,2,0:0:0:0:
3,213,975969,6,0,P|5:170|24:126,1,80,8|2,0:0|0:0,0:0:0:0:
61,25,976161,2,0,P|97:49|125:87,1,80,0|2,0:0|0:0,0:0:0:0:
238,187,976353,1,8,0:0:0:0:
459,63,976546,6,0,P|389:99|304:109,1,160,6|8,0:0|0:0,0:0:0:0:
226,31,976834,1,2,0:0:0:0:
216,23,976930,2,0,L|196:119,1,80,2|2,0:0|0:0,0:0:0:0:
108,230,977122,1,8,0:0:0:0:
326,192,977315,6,0,L|492:214,1,160,6|8,0:0|0:0,0:0:0:0:
512,323,977603,1,2,0:0:0:0:
505,331,977699,2,0,L|426:348,1,80,0|2,0:0|0:0,0:0:0:0:
316,190,977892,1,8,0:0:0:0:
256,324,978084,5,6,0:0:0:0:
215,345,978180,1,2,0:0:0:0:
170,345,978276,1,8,0:0:0:0:
129,324,978372,1,2,0:0:0:0:
102,288,978468,1,2,0:0:0:0:
94,243,978564,1,2,0:0:0:0:
107,200,978660,1,8,0:0:0:0:
139,167,978757,1,2,0:0:0:0:
181,145,978853,1,2,0:0:0:0:
210,108,978949,1,2,0:0:0:0:
205,61,979046,6,0,P|171:29|140:16,1,80,8|2,0:0|0:0,0:0:0:0:
351,79,979238,2,0,P|361:34|357:1,1,80,2|2,0:0|0:0,0:0:0:0:
504,215,979430,2,0,P|471:238|433:249,1,80,8|2,0:0|0:0,0:0:0:0:
192,253,979622,5,6,0:0:0:0:
149,283,979718,1,2,0:0:0:0:
141,335,979814,1,8,0:0:0:0:
171,376,979910,1,2,0:0:0:0:
223,384,980006,1,2,0:0:0:0:
264,352,980102,1,2,0:0:0:0:
270,301,980199,1,8,0:0:0:0:
269,253,980295,1,2,0:0:0:0:
280,207,980391,1,2,0:0:0:0:
303,166,980487,1,2,0:0:0:0:
336,132,980584,6,0,P|369:108|435:92,1,80,8|2,0:0|0:0,0:0:0:0:
113,191,980776,2,0,P|76:189|25:199,1,80,2|2,0:0|0:0,0:0:0:0:
433,248,980968,1,8,0:0:0:0:
298,361,981160,5,6,0:0:0:0:
246,325,981256,1,2,0:0:0:0:
227,266,981352,1,8,0:0:0:0:
246,206,981449,1,2,0:0:0:0:
271,149,981545,1,2,0:0:0:0:
251,90,981641,1,2,0:0:0:0:
195,61,981737,1,8,0:0:0:0:
135,77,981834,1,2,0:0:0:0:
101,129,981930,1,2,0:0:0:0:
113,191,982027,1,2,0:0:0:0:
159,230,982123,6,0,P|175:192|182:143,1,80,8|2,0:0|0:0,0:0:0:0:
303,0,982315,2,0,P|310:40|325:77,1,80,2|2,0:0|0:0,0:0:0:0:
497,210,982507,2,0,P|459:226|410:233,1,80,8|2,0:0|0:0,0:0:0:0:
287,384,982700,1,6,0:0:0:0:
286,383,982795,1,2,0:0:0:0:
301,368,982892,6,0,P|286:332|279:292,1,80,8|2,0:0|0:0,0:0:0:0:
429,135,983084,2,0,P|389:143|352:158,1,80,2|2,0:0|0:0,0:0:0:0:
172,384,983276,2,0,P|188:346|195:297,1,80,8|2,0:0|0:0,0:0:0:0:
0,88,983468,2,0,P|39:96|76:111,1,80,6|2,0:0|0:0,0:0:0:0:
226,222,983661,2,0,L|219:143,1,80,8|2,0:0|0:0,0:0:0:0:
15,192,983853,2,0,L|9:271,1,80,2|2,0:0|0:0,0:0:0:0:
172,25,984045,1,12,0:0:0:0:
172,25,984142,1,2,0:0:0:0:
172,25,984238,5,2,0:0:0:0:
231,28,984334,1,2,0:0:0:0:
284,55,984430,1,8,0:0:0:0:
321,102,984526,1,2,0:0:0:0:
335,160,984622,1,2,0:0:0:0:
352,216,984718,1,2,0:0:0:0:
399,252,984815,1,8,0:0:0:0:
458,254,984910,1,2,0:0:0:0:
506,220,985006,5,6,0:0:0:0:
467,210,985103,1,8,0:0:0:0:
414,161,985199,5,4,0:1:0:0:
370,172,985296,1,4,0:1:0:0:
312,223,985392,5,12,0:0:0:0:
262,211,985489,1,2,0:0:0:0:
215,156,985584,5,12,0:0:0:0:
155,171,985681,1,8,0:0:0:0:
101,225,985777,5,6,0:0:0:0:
0,56,985968,1,8,0:0:0:0:
39,62,986064,1,2,0:0:0:0:
79,67,986160,1,2,0:0:0:0:
118,72,986256,1,2,0:0:0:0:
162,47,986352,5,8,0:0:0:0:
0,179,986545,1,2,0:0:0:0:
172,362,986738,1,8,0:0:0:0:
178,323,986834,1,2,0:0:0:0:
184,284,986930,2,0,L|252:275,1,60.0000022888184,0|2,0:0|0:0,0:0:0:0:
352,331,987122,1,8,0:0:0:0:
215,156,987315,5,6,0:0:0:0:
503,225,987507,1,8,0:0:0:0:
464,231,987603,1,2,0:0:0:0:
424,236,987699,1,2,0:0:0:0:
385,241,987795,1,2,0:0:0:0:
341,216,987891,5,8,0:0:0:0:
475,326,988084,1,2,0:0:0:0:
404,135,988276,1,8,0:0:0:0:
365,129,988372,1,2,0:0:0:0:
326,123,988468,2,0,L|256:137,1,60.0000022888184,0|2,0:0|0:0,0:0:0:0:
143,64,988661,1,8,0:0:0:0:
0,179,988853,5,6,0:0:0:0:
121,318,989045,1,8,0:0:0:0:
127,279,989141,1,2,0:0:0:0:
133,240,989237,2,0,L|119:170,1,60.0000022888184,2|2,0:0|0:0,0:0:0:0:
25,69,989430,1,8,0:0:0:0:
31,288,989622,5,6,0:0:0:0:
281,285,989815,2,0,L|222:297,1,60.0000022888184,8|2,0:0|0:0,0:0:0:0:
382,216,990007,2,0,L|323:205,1,60.0000022888184,0|2,0:0|0:0,0:0:0:0:
472,314,990199,1,8,0:0:0:0:
429,127,990392,5,6,0:0:0:0:
429,127,990488,1,2,0:0:0:0:
429,127,990584,2,0,L|477:163,1,60.0000022888184,8|2,0:0|0:0,0:0:0:0:
300,34,990776,1,2,0:0:0:0:
300,34,990872,1,2,0:0:0:0:
300,34,990968,2,0,L|319:91,1,60.0000022888184,8|2,0:0|0:0,0:0:0:0:
191,204,991161,6,0,L|207:147,1,60.0000022888184,6|2,0:0|0:0,0:0:0:0:
73,88,991353,2,0,L|119:51,1,60.0000022888184,8|2,0:0|0:0,0:0:0:0:
9,220,991545,2,0,L|68:217,1,60.0000022888184,2|2,0:0|0:0,0:0:0:0:
124,377,991738,2,0,L|72:346,1,60.0000022888184,8|2,0:0|0:0,0:0:0:0:
240,323,991930,5,6,0:0:0:0:
268,315,992026,1,2,0:0:0:0:
298,315,992122,1,8,0:0:0:0:
327,324,992218,1,2,0:0:0:0:
355,333,992314,1,2,0:0:0:0:
385,333,992410,1,2,0:0:0:0:
414,325,992507,2,0,P|416:296|422:266,1,60.0000022888184,8|2,0:0|0:0,0:0:0:0:
495,120,992699,5,2,0:0:0:0:
473,66,992795,1,2,0:0:0:0:
423,35,992891,1,8,0:0:0:0:
364,40,992987,1,2,0:0:0:0:
320,80,993083,1,2,0:0:0:0:
309,137,993179,1,2,0:0:0:0:
335,190,993276,2,0,P|342:223|344:257,1,60.0000022888184,8|2,0:0|0:0,0:0:0:0:
193,307,993469,5,6,0:0:0:0:
151,329,993564,1,2,0:0:0:0:
107,317,993660,1,8,0:0:0:0:
83,275,993756,1,2,0:0:0:0:
91,232,993852,1,2,0:0:0:0:
129,205,993949,1,2,0:0:0:0:
174,210,994045,1,8,0:0:0:0:
220,215,994142,1,2,0:0:0:0:
257,188,994238,1,2,0:0:0:0:
266,144,994334,1,2,0:0:0:0:
242,103,994430,1,8,0:0:0:0:
198,90,994526,1,2,0:0:0:0:
157,111,994622,6,0,P|123:110|87:100,1,60.0000022888184,2|2,0:0|0:0,0:0:0:0:
23,175,994815,2,0,P|6:146|-2:109,1,60.0000022888184,8|8,0:0|0:0,0:0:0:0:
132,2,995007,5,6,0:0:0:0:
161,5,995103,1,2,0:0:0:0:
191,7,995199,1,8,0:0:0:0:
221,9,995295,1,2,0:0:0:0:
259,30,995392,5,2,0:0:0:0:
298,28,995488,1,2,0:0:0:0:
338,25,995584,1,8,0:0:0:0:
378,22,995680,1,2,0:0:0:0:
417,0,995776,5,6,0:0:0:0:
431,47,995872,1,2,0:0:0:0:
436,96,995968,1,8,0:0:0:0:
429,144,996064,1,2,0:0:0:0:
410,189,996161,5,2,0:0:0:0:
362,154,996257,1,2,0:0:0:0:
304,144,996353,1,8,0:0:0:0:
247,162,996449,1,2,0:0:0:0:
206,205,996546,5,6,0:0:0:0:
243,142,996642,1,2,0:0:0:0:
231,69,996738,1,8,0:0:0:0:
176,21,996834,1,2,0:0:0:0:
103,18,996930,1,2,0:0:0:0:
44,62,997027,1,2,0:0:0:0:
27,133,997123,1,8,0:0:0:0:
59,199,997219,1,2,0:0:0:0:
126,230,997315,5,2,0:0:0:0:
138,178,997411,1,8,0:0:0:0:
128,125,997507,1,4,0:1:0:0:
134,72,997603,1,4,0:1:0:0:
176,21,997700,6,0,L|254:24,1,60.0000022888184,8|2,0:0|0:0,0:0:0:0:
436,96,997892,2,0,L|358:99,1,60.0000022888184,8|8,0:0|0:0,0:0:0:0:
229,231,998084,1,6,0:0:0:0:
221,240,998276,5,8,0:0:0:0:
262,243,998372,1,2,0:0:0:0:
303,246,998468,1,2,0:0:0:0:
345,249,998565,1,2,0:0:0:0:
379,274,998661,5,8,0:0:0:0:
204,361,998853,1,2,0:0:0:0:
198,350,999045,5,8,0:0:0:0:
155,353,999142,1,2,0:0:0:0:
113,357,999238,2,0,L|48:350,1,60.0000022888184,0|2,0:0|0:0,0:0:0:0:
314,350,999430,1,8,0:0:0:0:
87,235,999622,1,6,0:0:0:0:
74,224,999815,5,8,0:0:0:0:
115,221,999911,1,2,0:0:0:0:
156,218,1000007,1,2,0:0:0:0:
198,215,1000104,1,2,0:0:0:0:
230,240,1000200,5,8,0:0:0:0:
374,101,1000392,1,2,0:0:0:0:
375,91,1000584,5,8,0:0:0:0:
332,88,1000681,1,2,0:0:0:0:
290,84,1000777,2,0,L|225:91,1,60.0000022888184,0|2,0:0|0:0,0:0:0:0:
57,31,1000968,5,8,0:0:0:0:
74,224,1001161,1,6,0:0:0:0:
68,238,1001353,5,8,0:0:0:0:
111,235,1001450,1,2,0:0:0:0:
153,231,1001546,2,0,L|218:238,1,60.0000022888184,2|2,0:0|0:0,0:0:0:0:
386,178,1001738,1,8,0:0:0:0:
512,302,1001930,1,6,0:0:0:0:
512,288,1002122,6,0,L|447:295,1,60.0000022888184,8|2,0:0|0:0,0:0:0:0:
231,351,1002315,2,0,L|296:358,1,60.0000022888184,0|2,0:0|0:0,0:0:0:0:
512,271,1002507,2,0,L|447:278,1,60.0000022888184,8|2,0:0|0:0,0:0:0:0:
309,247,1002699,5,12,0:0:0:0:
303,187,1002795,1,8,0:0:0:0:
297,127,1002891,1,2,0:0:0:0:
437,18,1003084,1,6,0:0:0:0:
297,127,1003276,5,8,0:0:0:0:
237,133,1003372,1,8,0:0:0:0:
177,139,1003468,2,0,L|168:65,1,60.0000022888184,4|4,0:1|0:1,0:0:0:0:
79,249,1003661,2,0,L|82:175,1,60.0000022888184,4|4,0:3|0:3,0:0:0:0:
354,117,1003853,2,0,L|363:43,1,60.0000022888184,8|2,0:0|0:0,0:0:0:0:
452,227,1004046,2,0,L|448:153,1,60.0000022888184,4|4,0:3|0:3,0:0:0:0:
280,237,1004238,5,6,0:0:0:0:
238,241,1004334,1,2,0:0:0:0:
200,259,1004430,1,8,0:0:0:0:
175,285,1004526,1,2,0:0:0:0:
145,315,1004622,1,2,0:0:0:0:
106,329,1004718,1,2,0:0:0:0:
64,326,1004814,1,8,0:0:0:0:
28,306,1004910,1,2,0:0:0:0:
9,273,1005006,1,2,0:0:0:0:
0,233,1005102,1,2,0:0:0:0:
9,191,1005199,1,8,0:0:0:0:
30,158,1005295,1,2,0:0:0:0:
67,139,1005392,6,0,P|99:141|144:155,1,60.0000022888184,8|2,0:0|0:0,0:0:0:0:
354,117,1005584,2,0,P|322:120|277:134,1,60.0000022888184,8|2,0:0|0:0,0:0:0:0:
203,224,1005776,5,2,0:0:0:0:
186,253,1005872,1,2,0:0:0:0:
188,287,1005968,1,8,0:0:0:0:
205,316,1006064,1,2,0:0:0:0:
234,333,1006160,1,2,0:0:0:0:
267,333,1006256,1,2,0:0:0:0:
296,316,1006352,1,8,0:0:0:0:
314,288,1006449,1,2,0:0:0:0:
316,255,1006545,1,2,0:0:0:0:
303,224,1006642,1,2,0:0:0:0:
293,192,1006738,1,8,0:0:0:0:
290,159,1006834,1,2,0:0:0:0:
295,126,1006930,6,0,P|306:99|325:75,1,60.0000022888184,8|2,0:0|0:0,0:0:0:0:
187,171,1007122,2,0,P|158:174|128:170,1,60.0000022888184,8|2,0:0|0:0,0:0:0:0:
0,89,1007315,5,12,0:0:0:0:
30,85,1007411,1,2,0:0:0:0:
60,81,1007507,1,8,0:0:0:0:
90,77,1007603,1,2,0:0:0:0:
117,39,1007699,5,8,0:0:0:0:
147,43,1007795,1,2,0:0:0:0:
180,65,1007892,5,8,0:0:0:0:
210,61,1007988,1,2,0:0:0:0:
240,57,1008084,1,8,0:0:0:0:
270,53,1008180,1,2,0:0:0:0:
297,15,1008276,5,8,0:0:0:0:
327,19,1008372,1,2,0:0:0:0:
360,41,1008468,5,8,0:0:0:0:
390,37,1008564,1,2,0:0:0:0:
415,0,1008661,5,8,0:0:0:0:
445,4,1008757,1,2,0:0:0:0:
478,26,1008853,5,12,0:0:0:0:
478,26,1008949,1,2,0:0:0:0:
503,67,1009045,5,8,0:0:0:0:
503,67,1009141,1,2,0:0:0:0:
500,116,1009238,5,8,0:0:0:0:
500,116,1009334,1,2,0:0:0:0:
474,157,1009430,5,8,0:0:0:0:
474,157,1009526,1,2,0:0:0:0:
435,175,1009623,6,0,P|390:182|337:160,1,90.0000034332277,12|8,0:0|0:0,0:0:0:0:
297,15,1009815,2,0,P|325:51|333:108,1,90.0000034332277,2|2,0:0|0:0,0:0:0:0:
270,300,1010007,6,0,P|227:284|192:239,1,90.0000034332277,12|2,0:0|0:0,0:0:0:0:
230,93,1010200,2,0,P|236:139|215:191,1,90.0000034332277,8|8,0:0|0:0,0:0:0:0:
99,384,1010392,6,0,B|40:334|44:262|59:149|152:202|209:182|200:31|103:22|17:62|54:150,1,495.000018882752,6|0,0:0|0:0,0:0:0:0:
