osu file format v14

[General]
AudioFilename: audio.mp3
AudioLeadIn: 0
PreviewTime: 646559
Countdown: 0
SampleSet: None
StackLeniency: 1
Mode: 0
LetterboxInBreaks: 0
EpilepsyWarning: 1
WidescreenStoryboard: 1

[Editor]
Bookmarks: 763,789,815,841,867,892,918,944,970,996,1022,1048,1074,1099,1125,1151,1177,1203,1229,1255,1280,1306,1332,1358,1384,27556,82074,82125,82177,82229,82280,108556,108608,108660,108711,108763,177453,177479,177505,177530,177556,177582,177608,177634,177660,177686,177711,177737,177763,177787,177811,177836,177861,177885,177910,177935,177959,177984,178009,178033,178058,178083,209267,209316,209365,209415,209464,264530,264579,264629,264678,264727,353000,353025,353050,353074,353099,353124,353148,353173,353198,353222,353247,353272,353299,353328,353357,353386,353416,353445,353474,353504,353533,353562,353591,353621,353650,447177,447225,447274,447323,447371,497047,497095,497144,497193,497242,588215,588263,588312,588361,588409,600682,600731,600780,600828,600877,616267,616315,616364,616413,616461,638085,638133,638182,638231,638280,646486,646510,646534,646559,646583,646607,646632,646656,646681,646705,646729,646754,646773,646797,646821,646845,646869,646893,646918,646942,646966,646990,647014,647039,686930,686978,687027,687075,687123,699317,699365,699414,699463,699512,743940,743989,744037,744085,744133,756327,756375,756424,756472,756520,771230,771254,771278,771303,771327,771351,771375,771399,771424,771448,771472,771496,771520,771545,771569,771593,771617,771641,771668,771694,771720,771746,771772,771798,771824,771850,771876,771902,771928,771954,771980,772006,772032,772058,772084,772110,772136,772162,772188,848757,848805,848853,848902,848950,885680,885728,885777,885825,885873,973373,973421,973469,973517,973565,1010296,1010344,1010392,1010440,1010488,1012507,1012531,1012555,1012579,1012603,1012627,1012652,1012676,1012700,1012724,1012748,1012772,1012796,1012820,1012844,1012868,1012892,1012916,1012947,1012970,1012994,1013018,1013041,1013065,1013089,1013113,1013136,1013160,1013184,1013208,1013231,1013255,1013279,1013303,1013326,1013350,1013374,1013397,1013421,1013445,1013469,1013492,1013516,1091691,1091737,1091783,1091830,1091876,1102061,1102108,1102154,1102200,1102246,1156135,1156181,1156228,1156274,1156320,1179490,1179534,1179578,1179622,1179666,1179843,1179865,1179887,1179909,1179931,1179953,1179975,1179997,1180019,1180041,1180063,1180085,1180107,1180130,1180152,1180174,1180196,1180218,1180240,1180262,1180284,1180306,1180328,1180350,1180372,1180394,1180416,1180438,1180460,1180482,1180505,1180527,1180549,1180571,1180593,1180615,1180637,1180659,1180681,1180703,1180725,1180747,1180769,1180791,1180813,1180835,1180857,1180880,1180902,1180924,1180946,1180968,1180990
DistanceSpacing: 0.3
BeatDivisor: 4
GridSize: 32
TimelineZoom: 2.200002

[Metadata]
Title:Touhou Compilation pt. 1
TitleUnicode:Touhou Compilation pt. 1
Artist:RichaadEB
ArtistUnicode:RichaadEB
Creator:K4L1
Version:Beloved Tomboyish Daughter (Cirno's Theme)
Source:東方Project
Tags:Touhou marathon Remilia Cirno Kaguya Flandre Reisen Metal Cover Theme Septette for the Dead Princess Beloved Tomboyish Daughter Lunatic U.N. Owen Was Her Border of Life Eyes Invisible Full Moon jparecki95
BeatmapID:2130846
BeatmapSetID:1000314

[Difficulty]
HPDrainRate:5
CircleSize:4
OverallDifficulty:9
ApproachRate:9.5
SliderMultiplier:1.6
SliderTickRate:1

[Events]
//Background and Video events
0,0,"sb/TouhouCompilation.jpg",0,0
//Break Periods
//Storyboard Layer 0 (Background)
//Storyboard Layer 1 (Fail)
//Storyboard Layer 2 (Pass)
//Storyboard Layer 3 (Foreground)
//Storyboard Layer 4 (Overlay)
//Storyboard Sound Samples

[TimingPoints]
1074,413.793103448276,4,2,1,40,1,0
1074,-133.333333333333,4,2,1,40,0,0
7694,-133.333333333333,4,2,1,40,0,0
13694,-125,4,2,1,60,0,0
13901,-86.9565217391304,4,2,1,60,0,0
14108,-66.6666666666667,4,2,1,60,0,0
16280,-86.9565217391304,4,2,1,60,0,0
16591,-125,4,2,1,60,0,0
17211,-86.9565217391304,4,2,1,60,0,0
17418,-66.6666666666667,4,2,1,60,0,0
19591,-86.9565217391304,4,2,1,60,0,0
19901,-125,4,2,1,60,0,0
20522,-86.9565217391304,4,2,1,60,0,0
20729,-66.6666666666667,4,2,1,60,0,0
20936,-57.1428571428571,4,2,1,60,0,0
21556,-125,4,2,1,60,0,0
21970,-86.9565217391304,4,2,1,60,0,0
22177,-66.6666666666667,4,2,1,60,0,0
22384,-57.1428571428571,4,2,1,60,0,0
23211,-125,4,2,1,60,0,0
23625,-66.6666666666667,4,2,1,60,0,0
24246,-54.054054054054,4,2,1,60,0,0
24867,-125,4,2,1,60,0,0
25901,-54.054054054054,4,2,1,60,0,0
27556,-80,4,2,1,60,0,0
29211,-90.9090909090909,4,2,1,60,0,0
34177,-100,4,2,1,60,0,0
40177,-80,4,2,1,60,0,0
40384,-57.1428571428571,4,2,1,60,0,0
40591,-44.4444444444445,4,2,1,60,0,0
40798,-57.1428571428571,4,2,1,60,0,0
43487,-80,4,2,1,60,0,0
43694,-57.1428571428571,4,2,1,60,0,0
43901,-44.4444444444445,4,2,1,60,0,0
44108,-57.1428571428571,4,2,1,60,0,0
46798,-80,4,2,1,60,0,0
47005,-57.1428571428571,4,2,1,60,0,0
47211,-44.4444444444445,4,2,1,60,0,0
47418,-57.1428571428571,4,2,1,60,0,0
48453,-80,4,2,1,60,0,0
48660,-57.1428571428571,4,2,1,60,0,0
48867,-44.4444444444445,4,2,1,60,0,0
49074,-57.1428571428571,4,2,1,60,0,0
53211,-50,4,2,1,60,0,0
53625,-40,4,2,1,60,0,0
54039,-66.6666666666667,4,2,1,60,0,0
67280,-50,4,2,1,60,0,0
80108,-40,4,2,1,60,0,0
82177,-50,4,2,1,60,0,0
108660,-50,4,2,1,80,0,1
174867,-80,4,2,1,80,0,1
177787,394.736842105263,4,2,1,60,1,0
180944,-66.6666666666667,4,2,1,60,0,0
207787,-100,4,2,1,60,0,0
215681,-80,4,2,1,60,0,0
221997,-66.6666666666667,4,2,1,60,0,0
234629,-57.1428571428571,4,2,1,60,0,0
259892,-80,4,2,1,60,0,0
263050,-66.6666666666667,4,2,1,60,0,0
263839,-57.1428571428571,4,2,1,60,0,0
264629,-66.6666666666667,4,2,1,60,0,0
277260,-57.1428571428571,4,2,1,60,0,0
293050,-50,4,2,1,80,0,1
295615,-100,4,2,1,80,0,1
299365,-50,4,2,1,80,0,1
303017,-100,4,2,1,80,0,1
304102,-66.6666666666667,4,2,1,80,0,1
305681,-50,4,2,1,80,0,1
330944,-44.4444444444445,4,2,1,80,0,1
343576,-100,4,2,1,60,0,0
348313,-161.290322580645,4,2,1,60,0,0
353299,468.75,4,2,1,40,1,0
361736,434.782608695652,4,2,1,40,1,0
366953,405.405405405405,4,2,1,40,1,0
368574,389.61038961039,4,2,1,75,1,0
368574,-80,4,2,1,60,0,0
374807,-66.6666666666667,4,2,1,60,0,0
377924,-80,4,2,1,60,0,0
379483,-100,4,2,1,60,0,0
380651,-50,4,2,1,60,0,0
381041,-66.6666666666667,4,2,1,60,0,0
405976,-133.333333333333,4,2,1,40,0,0
415327,-100,4,2,1,40,0,0
420781,-80,4,2,1,40,0,0
421561,-66.6666666666667,4,2,1,60,0,0
430911,-133.333333333333,4,2,1,40,0,0
434807,389.61038961039,4,2,1,60,1,0
434807,-133.333333333333,4,2,1,60,0,0
441040,-100,4,2,1,60,0,0
472209,-133.333333333333,4,2,1,60,0,0
475326,-100,4,2,1,60,0,0
497144,-200,4,2,1,40,0,0
506495,-133.333333333333,4,2,1,40,0,0
508053,-100,4,2,1,40,0,0
509612,-80,4,2,1,60,0,0
515845,-66.6666666666667,4,2,1,60,0,0
518962,-80,4,2,1,60,0,0
520521,-100,4,2,1,60,0,0
521690,-50,4,2,1,60,0,0
522079,-66.6666666666667,4,2,1,60,0,0
547014,-133.333333333333,4,2,1,40,0,0
556365,-100,4,2,1,40,0,0
561819,-80,4,2,1,40,0,0
562599,-66.6666666666667,4,2,1,60,0,0
571949,-133.333333333333,4,2,1,40,0,0
575845,389.61038961039,4,2,1,60,1,0
575845,-133.333333333333,4,2,1,60,0,0
588312,-100,4,2,1,60,0,0
600780,-50,4,2,1,80,0,1
607013,-66.6666666666667,4,2,1,80,0,1
610130,-50,4,2,1,80,0,1
613247,-100,4,2,1,60,0,0
638182,-142.857142857143,4,2,1,60,0,0
641299,-142.857142857143,4,2,1,40,0,0
646773,387.096774193548,4,2,1,60,1,0
665349,-50,4,2,1,60,0,0
665736,-133.333333333333,4,2,1,60,0,0
666123,-50,4,2,1,60,0,0
666511,-133.333333333333,4,2,1,60,0,0
666898,-50,4,2,1,60,0,0
667285,-133.333333333333,4,2,1,60,0,0
667672,-50,4,2,1,60,0,0
668446,-40,4,2,1,60,0,0
674253,-66.6666666666667,4,2,1,60,0,0
674640,-100,4,2,1,40,0,0
680833,-57.1428571428571,4,2,1,60,0,0
683930,-66.6666666666667,4,2,1,60,0,0
685478,-100,4,2,1,40,0,0
686253,-57.1428571428571,4,2,1,60,0,0
687027,-66.6666666666667,4,2,1,60,0,0
699414,394.736842105263,4,2,1,40,1,0
700203,401.740877134248,4,2,1,40,1,0
701006,402.684563758389,4,2,1,40,1,0
704227,397.350993377483,4,2,1,40,1,0
705816,400,4,2,1,40,1,0
709016,394.736842105263,4,2,1,40,1,0
711384,-50,4,2,1,60,0,0
711779,379.746835443038,4,2,1,60,1,0
712158,396.039603960396,4,2,1,80,1,1
712158,-50,4,2,1,80,0,1
717999,-40,4,2,1,80,0,1
718296,-33.3333333333333,4,2,1,80,0,1
718489,387.096774193548,4,2,1,40,1,0
724682,-66.6666666666667,4,2,1,60,0,0
726230,-52.6315789473684,4,2,1,60,0,0
737069,-44.4444444444445,4,2,1,60,0,0
743069,-100,4,2,1,40,0,0
744037,387.096774193548,4,2,1,60,1,0
744037,-66.6666666666667,4,2,1,60,0,0
756424,-50,4,2,1,80,0,1
757004,-66.6666666666667,4,2,1,80,0,1
757972,-50,4,2,1,80,0,1
760295,-100,4,2,1,80,0,1
761069,-50,4,2,1,80,0,1
768811,-100,4,2,1,60,0,0
771668,416.666666666667,4,2,1,40,1,0
771668,-133.333333333333,4,2,1,40,0,0
785777,384.615384615385,4,2,1,60,1,0
785777,-80,4,2,1,60,0,0
797315,-57.1428571428571,4,2,1,60,0,0
798084,-66.6666666666667,4,2,1,60,0,0
809623,-50,4,2,1,60,0,0
810007,-40,4,2,1,60,0,0
810392,-66.6666666666667,4,2,1,60,0,0
833469,-133.333333333333,4,2,1,60,0,0
834238,-66.6666666666667,4,2,1,60,0,0
835007,-200,4,2,1,40,0,0
836546,-44.4444444444445,4,2,1,60,0,0
837507,-200,4,2,1,60,0,0
838084,-44.4444444444445,4,2,1,60,0,0
839046,-200,4,2,1,60,0,0
839623,-44.4444444444445,4,2,1,60,0,0
842123,-100,4,2,1,60,0,0
842700,-50,4,2,1,60,0,0
843661,-66.6666666666667,4,2,1,60,0,0
844238,-50,4,2,1,60,0,0
845200,-66.6666666666667,4,2,1,60,0,0
845777,-50,4,2,1,60,0,0
847315,-44.4444444444445,4,2,1,60,0,0
848277,-50,4,2,1,60,0,0
861161,-66.6666666666667,4,2,1,60,0,0
885007,-44.4444444444445,4,2,1,60,0,0
885777,-200,4,2,1,40,0,0
895007,-133.333333333333,4,2,1,40,0,0
896546,-100,4,2,1,60,0,0
898084,-36.3636363636364,4,2,1,60,0,0
907315,-57.1428571428571,4,2,1,60,0,0
910392,-80,4,2,1,60,0,0
921930,-57.1428571428571,4,2,1,60,0,0
922700,-66.6666666666667,4,2,1,60,0,0
934238,-50,4,2,1,60,0,0
934623,-40,4,2,1,60,0,0
935007,-66.6666666666667,4,2,1,60,0,0
947315,-44.4444444444445,4,2,1,80,0,1
951930,-66.6666666666667,4,2,1,80,0,1
953469,-50,4,2,1,80,0,1
955007,-100,4,2,1,80,0,1
956546,-50,4,2,1,80,0,1
958853,-133.333333333333,4,2,1,80,0,1
959142,-66.6666666666667,4,2,1,80,0,1
959623,-200,4,2,1,40,0,0
961161,-44.4444444444445,4,2,1,60,0,0
962123,-200,4,2,1,60,0,0
962700,-44.4444444444445,4,2,1,60,0,0
963661,-200,4,2,1,60,0,0
964238,-44.4444444444445,4,2,1,60,0,0
966738,-100,4,2,1,60,0,0
967315,-50,4,2,1,60,0,0
968277,-66.6666666666667,4,2,1,60,0,0
968853,-50,4,2,1,60,0,0
969815,-66.6666666666667,4,2,1,60,0,0
970392,-50,4,2,1,60,0,0
971930,-44.4444444444445,4,2,1,60,0,0
972892,-50,4,2,1,60,0,0
985777,-66.6666666666667,4,2,1,60,0,0
1009623,-44.4444444444445,4,2,1,60,0,0
1010921,-44.4444444444445,4,2,1,40,0,0
1012947,379.746835443038,4,2,1,60,1,0
1013706,379.746835443038,6,2,1,60,1,0
1013706,-133.333333333333,6,2,1,60,0,0
1018262,-66.6666666666667,6,2,1,60,0,0
1020541,-50,6,2,1,60,0,0
1022819,-80,6,2,1,60,0,0
1041047,-100,6,2,1,40,0,0
1050161,-80,6,2,1,40,0,0
1054718,-66.6666666666667,6,2,1,60,0,0
1059275,-100,6,2,1,40,0,0
1068389,-80,6,2,1,40,0,0
1072946,-66.6666666666667,6,2,1,60,0,0
1075224,-57.1428571428571,6,2,1,60,0,0
1077503,-100,6,2,1,40,0,0
1079781,379.746835443038,4,2,1,60,1,0
1079781,-40,4,2,1,60,0,0
1081299,-50,4,2,1,60,0,0
1081394,-50,4,2,1,5,0,0
1081489,-50,4,2,1,60,0,0
1081584,-50,4,2,1,5,0,0
1081679,-50,4,2,1,60,0,0
1081774,-50,4,2,1,5,0,0
1081869,-50,4,2,1,60,0,0
1081964,-50,4,2,1,5,0,0
1082059,-133.333333333333,4,2,1,60,0,0
1082534,-133.333333333333,4,2,1,5,0,0
1082629,-133.333333333333,4,2,1,60,0,0
1082818,-50,4,2,1,60,0,0
1085097,-42.5531914893617,4,2,1,60,0,0
1085858,370.37037037037,4,2,1,60,1,0
1085858,-40,4,2,1,60,0,0
1086598,-30.7692307692308,4,2,1,60,0,0
1086969,-40,4,2,1,60,0,0
1088080,-33.3333333333333,4,2,1,60,0,0
1088820,-50,4,2,1,60,0,0
1090302,-66.6666666666667,4,2,1,60,0,0
1093265,-50,4,2,1,60,0,0
1093635,-66.6666666666667,4,2,1,60,0,0
1095117,-50,4,2,1,60,0,0
1095487,-66.6666666666667,4,2,1,60,0,0
1097709,-50,4,2,1,60,0,0
1100672,-40,4,2,1,60,0,0
1101691,-57.1428571428571,4,2,1,60,0,0
1101969,-100,4,2,1,60,0,0
1102154,370.37037037037,6,2,1,40,1,0
1106598,-200,6,2,1,40,0,0
1108820,-100,6,2,1,40,0,0
1109931,-200,6,2,1,40,0,0
1110302,-80,6,2,1,40,0,0
1110672,-50,6,2,1,40,0,0
1111042,-66.6666666666667,6,2,1,60,0,0
1114376,-50,6,2,1,60,0,0
1115487,-66.6666666666667,6,2,1,60,0,0
1119931,-57.1428571428571,6,2,1,80,0,1
1122154,-66.6666666666667,6,2,1,80,0,1
1126598,-50,6,2,1,80,0,1
1126968,-44.4444444444445,6,2,1,80,0,1
1128450,-57.1428571428571,6,2,1,80,0,1
1128820,-100,6,2,1,40,0,0
1133265,-200,6,2,1,40,0,0
1135487,-100,6,2,1,40,0,0
1136598,-200,6,2,1,40,0,0
1136968,-80,6,2,1,40,0,0
1137339,-50,6,2,1,40,0,0
1137709,-66.6666666666667,6,2,1,60,0,0
1141043,-50,6,2,1,60,0,0
1142154,-66.6666666666667,6,2,1,60,0,0
1146598,-100,6,2,1,60,0,0
1153265,-50,6,2,1,60,0,0
1156228,370.37037037037,4,2,1,60,1,0
1156228,-66.6666666666667,4,2,1,60,0,0
1157709,-50,4,2,1,60,0,0
1158079,-66.6666666666667,4,2,1,60,0,0
1159561,-50,4,2,1,60,0,0
1159931,-66.6666666666667,4,2,1,60,0,0
1162153,-50,4,2,1,60,0,0
1165116,-40,4,2,1,60,0,0
1166135,-57.1428571428571,4,2,1,60,0,0
1167709,-36.3636363636364,4,2,1,60,0,0
1168080,363.636363636364,4,2,1,60,1,0
1168080,-66.6666666666667,4,2,1,60,0,0
1169534,-50,4,2,1,60,0,0
1169898,-66.6666666666667,4,2,1,60,0,0
1171352,-50,4,2,1,60,0,0
1171716,-66.6666666666667,4,2,1,60,0,0
1173898,357.142857142857,4,2,1,60,1,0
1173898,-50,4,2,1,60,0,0
1176755,352.941176470588,4,2,1,60,1,0
1176755,-40,4,2,1,60,0,0
1177725,-57.1428571428571,4,2,1,60,0,0
1178166,-40,4,2,1,60,0,0
1179578,-57.1428571428571,4,2,1,60,0,0
1179975,-57.1428571428571,4,2,1,40,0,0

[Colours]
Combo1 : 149,237,255
Combo2 : 255,128,192
Combo3 : 54,109,254
Combo4 : 252,44,49
Combo5 : 148,40,255
Combo6 : 208,208,208
Combo7 : 234,240,111

[HitObjects]
213,288,177787,5,4,0:3:0:0:
320,168,177984,1,2,0:0:0:0:
320,168,178083,1,2,0:0:0:0:
320,207,178181,1,8,0:0:0:0:
320,247,178280,1,2,0:0:0:0:
320,288,178379,1,2,0:0:0:0:
416,160,178576,1,4,0:3:0:0:
512,256,178773,1,2,0:0:0:0:
512,256,178872,1,2,0:0:0:0:
512,224,178971,1,8,0:0:0:0:
512,64,179168,1,4,0:3:0:0:
320,64,179464,1,4,0:3:0:0:
352,64,179563,1,4,0:3:0:0:
416,256,179760,1,8,0:0:0:0:
290,371,179958,1,4,0:1:0:0:
258,371,180056,1,4,0:1:0:0:
226,339,180155,1,2,0:0:0:0:
194,339,180254,1,4,0:1:0:0:
162,307,180352,1,4,0:3:0:0:
130,307,180451,1,2,0:0:0:0:
75,379,180550,6,0,P|40:314|65:248,1,120,8|8,0:0|0:0,0:0:0:0:
122,228,180944,6,0,L|278:201,1,120.000004577637,6|2,0:0|0:0,0:0:0:0:
315,251,181240,1,2,0:0:0:0:
338,262,181339,2,0,L|445:243,1,60.0000022888184,8|0,0:0|0:0,0:0:0:0:
512,292,181537,2,0,L|495:186,1,60.0000022888184,2|0,0:0|0:0,0:0:0:0:
435,151,181734,6,0,L|408:-5,1,120.000004577637,2|0,0:0|0:0,0:0:0:0:
327,0,182030,1,2,0:0:0:0:
309,9,182129,2,0,L|201:28,1,60.0000022888184,8|0,0:0|0:0,0:0:0:0:
150,99,182327,2,0,L|131:-7,1,60.0000022888184
270,130,182523,6,0,L|329:120,1,60.0000022888184,2|0,0:0|0:0,0:0:0:0:
166,206,182721,2,0,L|107:217,1,60.0000022888184,2|2,0:0|0:0,0:0:0:0:
342,144,182918,2,0,L|282:154,1,60.0000022888184,8|0,0:0|0:0,0:0:0:0:
258,240,183115,6,0,L|279:358,1,120.000004577637,2|2,0:0|0:0,0:0:0:0:
421,320,183510,1,2,0:0:0:0:
417,328,183609,1,2,0:0:0:0:
414,335,183708,2,0,L|355:346,1,60.0000022888184,8|4,0:0|0:1,0:0:0:0:
187,305,183905,2,0,L|111:318,1,60.0000022888184,2|8,0:0|0:0,0:0:0:0:
352,203,184102,6,0,L|339:127,1,60.0000022888184,6|0,0:0|0:0,0:0:0:0:
490,255,184300,2,0,L|500:314,1,60.0000022888184,2|2,0:0|0:0,0:0:0:0:
356,132,184497,2,0,L|366:191,1,60.0000022888184,8|0,0:0|0:0,0:0:0:0:
305,284,184694,6,0,L|176:307,1,120.000004577637,2|2,0:0|0:0,0:0:0:0:
141,188,185089,1,0,0:0:0:0:
143,202,185188,1,2,0:0:0:0:
144,213,185287,2,0,L|154:272,1,60.0000022888184,8|0,0:0|0:0,0:0:0:0:
125,116,185484,1,0,0:0:0:0:
104,119,185583,1,0,0:0:0:0:
83,123,185681,6,0,L|6:136,1,60.0000022888184,2|0,0:0|0:0,0:0:0:0:
214,23,185879,2,0,L|225:91,1,60.0000022888184,2|2,0:0|0:0,0:0:0:0:
11,151,186076,2,0,L|87:137,1,60.0000022888184,8|0,0:0|0:0,0:0:0:0:
195,215,186273,2,0,L|359:186,1,120.000004577637,2|2,0:0|0:0,0:0:0:0:
343,218,186569,5,8,0:0:0:0:
350,253,186668,1,0,0:0:0:0:
357,288,186767,1,2,0:0:0:0:
364,323,186865,1,8,0:0:0:0:
400,317,186964,2,0,L|478:304,1,60.0000022888184,8|4,0:0|0:1,0:0:0:0:
483,280,187162,1,4,0:1:0:0:
422,213,187260,6,0,L|397:75,1,120.000004577637,6|2,0:0|0:0,0:0:0:0:
341,32,187556,1,2,0:0:0:0:
321,69,187655,2,0,L|193:92,1,120.000004577637,8|2,0:0|0:0,0:0:0:0:
43,208,188050,5,2,0:0:0:0:
87,200,188148,1,4,0:1:0:0:
132,192,188247,1,2,0:0:0:0:
176,184,188346,1,2,0:0:0:0:
220,176,188444,1,8,0:0:0:0:
43,208,188642,1,8,0:0:0:0:
53,266,188740,1,8,0:0:0:0:
64,325,188839,6,0,L|190:300,1,120.000004577637,2|2,0:0|0:0,0:0:0:0:
229,338,189135,1,2,0:0:0:0:
276,330,189234,2,0,L|253:200,1,120.000004577637,8|2,0:0|0:0,0:0:0:0:
321,69,189629,5,2,0:0:0:0:
329,116,189727,1,8,0:0:0:0:
338,163,189826,2,0,L|232:181,1,60.0000022888184,2|2,0:0|0:0,0:0:0:0:
72,142,190023,1,8,0:0:0:0:
118,133,190121,1,2,0:0:0:0:
166,125,190221,2,0,L|184:230,1,60.0000022888184,8|8,0:0|0:0,0:0:0:0:
138,378,190418,6,0,L|114:251,1,120.000004577637,6|2,0:0|0:0,0:0:0:0:
159,292,190714,1,2,0:0:0:0:
209,283,190813,2,0,L|286:269,1,60.0000022888184,8|0,0:0|0:0,0:0:0:0:
418,328,191010,2,0,L|394:194,1,120.000004577637,2|2,0:0|0:0,0:0:0:0:
431,31,191405,5,0,0:0:0:0:
437,66,191504,1,2,0:0:0:0:
444,100,191602,1,8,0:0:0:0:
396,111,191701,1,2,0:0:0:0:
347,119,191800,1,2,0:0:0:0:
300,128,191898,1,2,0:0:0:0:
252,136,191997,6,0,L|179:149,1,60.0000022888184,8|2,0:0|0:0,0:0:0:0:
0,125,192194,2,0,L|72:112,1,60.0000022888184,4|4,0:1|0:1,0:0:0:0:
167,12,192392,2,0,L|180:84,1,60.0000022888184,4|4,0:3|0:3,0:0:0:0:
94,318,192589,2,0,B|82:252|82:252|155:239,1,120.000004577637,8|2,0:0|0:0,0:0:0:0:
210,237,192885,5,8,0:0:0:0:
258,229,192984,2,0,L|330:216,1,60.0000022888184,2|2,0:0|0:0,0:0:0:0:
512,273,193181,5,8,0:0:0:0:
467,285,193280,1,8,0:0:0:0:
405,296,193379,1,8,0:0:0:0:
345,307,193477,1,8,0:0:0:0:
284,317,193576,6,0,L|191:334,1,60.0000022888184,6|0,0:0|0:0,0:0:0:0:
80,357,193773,1,2,0:0:0:0:
85,327,193872,1,2,0:0:0:0:
91,297,193971,2,0,P|101:233|101:195,1,60.0000022888184,8|0,0:0|0:0,0:0:0:0:
0,112,194168,2,0,P|22:132|46:149,1,60.0000022888184,2|8,0:0|0:0,0:0:0:0:
186,189,194365,1,0,0:0:0:0:
215,182,194464,1,8,0:0:0:0:
244,176,194563,1,2,0:0:0:0:
401,128,194760,5,8,0:0:0:0:
372,121,194859,1,2,0:0:0:0:
343,115,194958,1,0,0:0:0:0:
314,108,195056,1,4,0:3:0:0:
285,102,195155,6,0,P|245:88|211:67,1,60.0000022888184,4|0,0:3|0:0,0:0:0:0:
149,122,195352,2,0,P|121:89|102:54,1,60.0000022888184,2|2,0:0|0:0,0:0:0:0:
0,0,195550,2,0,P|1:29|8:59,1,60.0000022888184,8|0,0:0|0:0,0:0:0:0:
24,235,195747,2,0,P|32:206|46:179,1,60.0000022888184,0|8,0:0|0:0,0:0:0:0:
173,14,195944,1,2,0:0:0:0:
221,174,196142,5,8,0:0:0:0:
211,202,196240,1,2,0:0:0:0:
203,231,196339,2,0,P|173:238|143:239,1,60.0000022888184,0|8,0:0|0:0,0:0:0:0:
269,91,196537,2,0,P|290:112|306:138,1,60.0000022888184,8|8,0:0|0:0,0:0:0:0:
314,347,196734,2,0,P|323:318|338:293,1,60.0000022888184,6|0,0:0|0:0,0:0:0:0:
485,243,196931,5,2,0:0:0:0:
489,245,196997,1,2,0:0:0:0:
496,248,197063,1,2,0:0:0:0:
503,251,197129,2,0,P|471:257|418:253,1,60.0000022888184,8|0,0:0|0:0,0:0:0:0:
300,225,197326,5,2,0:0:0:0:
310,197,197425,2,0,L|305:122,1,60.0000022888184,8|0,0:0|0:0,0:0:0:0:
196,42,197622,1,8,0:0:0:0:
215,64,197721,2,0,L|282:97,1,60.0000022888184,2|0,0:0|0:0,0:0:0:0:
463,100,197918,1,8,0:0:0:0:
445,116,198017,1,2,0:0:0:0:
420,298,198214,5,8,0:0:0:0:
392,307,198313,2,0,L|317:302,1,60.0000022888184,2|0,0:0|0:0,0:0:0:0:
270,369,198510,2,0,L|221:312,1,60.0000022888184,8|8,0:0|0:0,0:0:0:0:
141,328,198708,2,0,L|146:253,1,60.0000022888184,4|4,0:1|0:1,0:0:0:0:
72,187,198905,5,2,0:0:0:0:
113,170,199003,1,8,0:0:0:0:
158,172,199102,1,8,0:0:0:0:
201,180,199201,1,8,0:0:0:0:
245,174,199300,2,0,P|274:175|316:184,1,60.0000022888184,8|8,0:0|0:0,0:0:0:0:
420,298,199497,5,2,0:0:0:0:
433,271,199595,1,8,0:0:0:0:
440,242,199694,1,8,0:0:0:0:
441,212,199793,1,8,0:0:0:0:
435,182,199892,6,0,L|443:105,1,60.0000022888184,6|2,0:0|0:0,0:0:0:0:
339,85,200089,2,0,L|384:22,1,60.0000022888184,2|2,0:0|0:0,0:0:0:0:
227,32,200287,2,0,L|172:56,1,60.0000022888184,8|2,0:0|0:0,0:0:0:0:
62,32,200484,5,2,0:0:0:0:
49,69,200582,1,2,0:0:0:0:
47,109,200681,1,2,0:0:0:0:
58,148,200780,1,2,0:0:0:0:
70,186,200878,1,2,0:0:0:0:
70,226,200977,1,2,0:0:0:0:
34,298,201076,5,8,0:0:0:0:
74,298,201175,1,2,0:0:0:0:
112,286,201273,1,2,0:0:0:0:
151,275,201372,1,2,0:0:0:0:
191,277,201471,6,0,P|223:284|274:345,1,60.0000022888184,6|2,0:0|0:0,0:0:0:0:
353,204,201668,2,0,P|362:235|335:309,1,60.0000022888184,2|2,0:0|0:0,0:0:0:0:
481,384,201865,2,0,P|471:352|498:278,1,60.0000022888184,8|2,0:0|0:0,0:0:0:0:
455,171,202063,5,2,0:0:0:0:
433,131,202161,1,2,0:0:0:0:
398,104,202260,1,2,0:0:0:0:
354,95,202359,1,2,0:0:0:0:
311,104,202458,6,0,L|233:99,1,60.0000022888184,2|2,0:0|0:0,0:0:0:0:
126,0,202655,2,0,L|160:70,1,60.0000022888184,8|2,0:0|0:0,0:0:0:0:
128,213,202852,2,0,L|172:148,1,60.0000022888184,8|8,0:0|0:0,0:0:0:0:
249,4,203050,6,0,L|308:0,1,60.0000022888184,6|2,0:0|0:0,0:0:0:0:
76,107,203247,2,0,L|16:102,1,60.0000022888184,2|2,0:0|0:0,0:0:0:0:
253,193,203444,2,0,L|312:188,1,60.0000022888184,8|2,0:0|0:0,0:0:0:0:
88,288,203642,5,2,0:0:0:0:
123,290,203740,1,2,0:0:0:0:
159,293,203839,1,2,0:0:0:0:
195,295,203938,1,2,0:0:0:0:
231,298,204036,1,2,0:0:0:0:
267,301,204135,1,2,0:0:0:0:
284,341,204234,5,8,0:0:0:0:
320,338,204333,1,2,0:0:0:0:
356,335,204431,1,2,0:0:0:0:
392,333,204530,1,8,0:0:0:0:
427,348,204629,5,6,0:0:0:0:
330,180,204826,2,0,L|405:156,1,60.0000022888184,8|8,0:0|0:0,0:0:0:0:
410,20,205023,2,0,L|468:73,1,60.0000022888184,8|8,0:0|0:0,0:0:0:0:
396,170,205221,5,2,0:0:0:0:
214,103,205418,1,8,0:0:0:0:
178,101,205517,1,2,0:0:0:0:
143,83,205615,2,0,L|98:174,1,60.0000022888184,8|8,0:0|0:0,0:0:0:0:
65,303,205813,5,6,0:0:0:0:
19,288,205912,1,8,0:0:0:0:
19,240,206010,1,8,0:0:0:0:
65,225,206109,1,8,0:0:0:0:
93,264,206208,6,0,B|152:267|152:267|236:243,1,120.000004577637,2|0,0:0|0:0,0:0:0:0:
392,175,206602,1,0,0:0:0:0:
187,38,206800,2,0,B|176:-32|269:-28|306:52|235:51|240:118|271:153,1,240.000009155274,2|0,0:0|0:0,0:0:0:0:
467,266,207392,1,0,0:0:0:0:
119,155,207787,6,0,B|81:170|62:97|102:73|155:70|190:101|191:148|157:194|129:218|105:270|159:314|235:303|260:269|256:217|212:204,1,400,4|0,0:0|0:0,0:0:0:0:
70,178,208971,5,2,0:0:0:0:
61,212,209069,1,2,0:0:0:0:
22,243,209168,1,8,0:0:0:0:
36,300,209266,1,8,0:0:0:0:
0,373,209365,1,2,0:0:0:0:
197,315,209563,5,2,0:0:0:0:
236,317,209661,1,2,0:0:0:0:
276,319,209760,1,8,0:0:0:0:
316,321,209859,1,2,0:0:0:0:
356,323,209958,2,0,L|415:309,1,40,2|2,0:0|0:0,0:0:0:0:
478,378,210155,2,0,L|474:266,1,80,2|2,0:0|0:0,0:0:0:0:
417,226,210451,1,2,0:0:0:0:
406,233,210550,2,0,L|415:191,3,26.6666666666667,8|0|0|2,0:0|0:0|0:0|0:0,0:0:0:0:
228,213,210944,1,6,0:0:0:0:
123,294,211142,5,2,0:0:0:0:
162,296,211240,1,2,0:0:0:0:
202,299,211339,1,8,0:0:0:0:
318,361,211537,1,2,0:0:0:0:
316,321,211636,1,2,0:0:0:0:
263,189,211833,1,2,0:0:0:0:
265,149,211931,1,2,0:0:0:0:
268,109,212030,1,2,0:0:0:0:
300,75,212129,1,8,0:0:0:0:
245,50,212227,1,2,0:0:0:0:
185,46,212326,1,2,0:0:0:0:
128,64,212425,1,8,0:0:0:0:
81,100,212523,2,0,B|69:124|69:124|67:193,1,80,2|2,0:0|0:0,0:0:0:0:
42,225,212819,5,2,0:0:0:0:
81,228,212918,1,8,0:0:0:0:
121,232,213016,1,2,0:0:0:0:
161,235,213115,2,0,L|233:221,1,40,2|2,0:0|0:0,0:0:0:0:
394,247,213313,1,2,0:0:0:0:
311,171,213510,1,2,0:0:0:0:
307,130,213609,1,2,0:0:0:0:
319,91,213708,2,0,P|328:74|350:61,3,26.6666666666667,8|0|0|2,0:0|0:0|0:0|0:0,0:0:0:0:
201,32,214102,1,6,0:0:0:0:
182,29,214300,5,2,0:0:0:0:
182,68,214398,1,2,0:0:0:0:
176,108,214497,1,8,0:0:0:0:
163,146,214596,1,2,0:0:0:0:
147,183,214694,1,2,0:0:0:0:
136,221,214793,1,2,0:0:0:0:
133,260,214892,1,2,0:0:0:0:
145,299,214990,1,2,0:0:0:0:
171,329,215089,1,2,0:0:0:0:
207,345,215188,1,2,0:0:0:0:
247,346,215287,5,8,0:0:0:0:
250,287,215385,1,2,0:0:0:0:
229,231,215484,1,8,0:0:0:0:
189,187,215583,1,8,0:0:0:0:
135,162,215681,1,2,0:0:0:0:
51,302,215879,5,2,0:0:0:0:
102,313,215977,1,2,0:0:0:0:
153,303,216076,1,8,0:0:0:0:
199,275,216175,1,2,0:0:0:0:
229,231,216273,2,0,L|292:254,1,50,2|0,0:0|0:0,0:0:0:0:
410,302,216471,1,2,0:0:0:0:
425,310,216668,5,2,0:0:0:0:
437,235,216767,1,2,0:0:0:0:
448,161,216865,1,8,0:0:0:0:
465,179,216964,1,2,0:0:0:0:
482,197,217063,1,2,0:0:0:0:
276,248,217260,6,0,L|226:229,1,50,6|2,0:0|0:0,0:0:0:0:
173,348,217458,2,0,L|151:299,1,50,2|2,0:0|0:0,0:0:0:0:
33,348,217655,2,0,L|51:298,1,50,8|2,0:0|0:0,0:0:0:0:
144,117,217852,6,0,L|152:169,1,50,2|2,0:0|0:0,0:0:0:0:
282,156,218050,2,0,L|250:199,1,50,2|2,0:0|0:0,0:0:0:0:
352,277,218247,2,0,L|299:285,1,50,2|2,0:0|0:0,0:0:0:0:
106,242,218444,5,8,0:0:0:0:
66,215,218542,1,2,0:0:0:0:
68,167,218641,1,2,0:0:0:0:
109,143,218740,1,8,0:0:0:0:
151,165,218839,5,2,0:0:0:0:
245,45,219037,2,0,P|229:66|220:94,1,50,2|2,0:0|0:0,0:0:0:0:
396,67,219234,2,0,P|369:64|340:70,1,50,8|2,0:0|0:0,0:0:0:0:
324,198,219431,6,0,P|313:174|293:152,1,50,0|2,0:0|0:0,0:0:0:0:
230,318,219629,2,0,P|245:296|254:268,1,50,2|2,0:0|0:0,0:0:0:0:
79,296,219826,2,0,P|105:298|134:292,1,50,2|2,0:0|0:0,0:0:0:0:
29,188,220023,5,8,0:0:0:0:
29,188,220122,1,2,0:0:0:0:
34,152,220221,1,2,0:0:0:0:
201,24,220418,6,0,B|200:62|200:62|191:85|191:85|191:122,1,100,6|2,0:0|0:0,0:0:0:0:
191,135,220714,1,2,0:0:0:0:
192,151,220813,1,8,0:0:0:0:
225,139,220912,1,2,0:0:0:0:
259,141,221010,2,0,P|286:146|316:142,1,50,2|2,0:0|0:0,0:0:0:0:
410,64,221208,5,2,0:0:0:0:
393,105,221306,1,2,0:0:0:0:
384,149,221405,1,2,0:0:0:0:
394,196,221504,1,2,0:0:0:0:
413,241,221602,2,0,L|429:301,1,50,2|8,0:0|0:0,0:0:0:0:
512,384,221800,2,0,P|487:383|462:376,1,50,4|4,0:3|0:3,0:0:0:0:
302,322,221997,1,2,0:0:0:0:
287,309,222194,5,2,0:0:0:0:
237,341,222292,1,2,0:0:0:0:
178,340,222392,1,8,0:0:0:0:
129,306,222490,1,2,0:0:0:0:
108,251,222588,1,2,0:0:0:0:
121,194,222687,1,2,0:0:0:0:
110,145,222786,5,2,0:0:0:0:
161,51,222984,5,2,0:0:0:0:
161,51,223083,1,2,0:0:0:0:
210,72,223181,6,0,L|258:62,3,40.000001525879,8|0|0|2,0:0|0:0|0:0|0:0,0:0:0:0:
214,240,223576,1,6,0:0:0:0:
311,160,223773,5,2,0:0:0:0:
352,157,223872,1,2,0:0:0:0:
390,151,223971,1,8,0:0:0:0:
487,73,224168,1,2,0:0:0:0:
449,67,224267,1,2,0:0:0:0:
463,222,224464,5,2,0:0:0:0:
484,220,224563,1,2,0:0:0:0:
484,220,224662,1,2,0:0:0:0:
466,295,224760,5,8,0:0:0:0:
455,310,224859,1,2,0:0:0:0:
388,352,224957,5,2,0:0:0:0:
354,365,225056,1,8,0:0:0:0:
278,353,225155,5,2,0:0:0:0:
112,302,225352,1,2,0:0:0:0:
146,291,225450,1,2,0:0:0:0:
181,281,225549,1,8,0:0:0:0:
215,271,225648,1,2,0:0:0:0:
256,273,225746,5,2,0:0:0:0:
274,228,225845,1,2,0:0:0:0:
318,203,225944,5,2,0:0:0:0:
172,58,226142,1,2,0:0:0:0:
172,58,226240,1,2,0:0:0:0:
220,40,226339,6,0,L|266:28,3,40.000001525879,8|0|0|0,0:0|0:0|0:0|0:0,0:0:0:0:
27,222,226734,1,6,0:0:0:0:
90,86,226931,5,2,0:0:0:0:
87,45,227030,1,2,0:0:0:0:
81,7,227129,1,8,0:0:0:0:
0,138,227326,1,2,0:0:0:0:
38,144,227425,1,2,0:0:0:0:
118,261,227622,1,2,0:0:0:0:
153,247,227721,1,2,0:0:0:0:
188,233,227819,1,2,0:0:0:0:
214,249,227918,5,8,0:0:0:0:
272,239,228016,1,8,0:0:0:0:
318,202,228115,1,8,0:0:0:0:
341,147,228214,1,8,0:0:0:0:
381,134,228313,5,2,0:0:0:0:
473,258,228510,1,2,0:0:0:0:
468,295,228608,1,2,0:0:0:0:
463,333,228707,1,8,0:0:0:0:
458,371,228806,1,2,0:0:0:0:
419,342,228905,5,0,0:0:0:0:
394,340,229004,1,2,0:0:0:0:
361,353,229102,5,2,0:0:0:0:
336,355,229201,1,0,0:0:0:0:
305,335,229300,5,2,0:0:0:0:
280,333,229399,1,2,0:0:0:0:
247,346,229497,5,8,0:0:0:0:
222,348,229596,1,2,0:0:0:0:
190,330,229694,5,2,0:0:0:0:
90,87,229892,5,6,0:0:0:0:
28,236,230089,1,2,0:0:0:0:
19,289,230187,1,2,0:0:0:0:
7,362,230286,1,8,0:0:0:0:
0,144,230484,5,2,0:0:0:0:
46,156,230583,1,2,0:0:0:0:
84,184,230681,5,0,0:0:0:0:
131,174,230780,1,2,0:0:0:0:
165,140,230879,5,2,0:0:0:0:
211,151,230977,1,2,0:0:0:0:
257,147,231076,5,8,0:0:0:0:
272,205,231175,1,2,0:0:0:0:
324,232,231273,1,2,0:0:0:0:
380,210,231372,1,8,0:0:0:0:
459,199,231471,5,2,0:0:0:0:
458,10,231668,5,2,0:0:0:0:
434,16,231767,1,2,0:0:0:0:
398,38,231865,5,8,0:0:0:0:
375,31,231964,1,2,0:0:0:0:
332,32,232062,5,0,0:0:0:0:
316,15,232161,1,2,0:0:0:0:
272,0,232260,5,2,0:0:0:0:
181,128,232457,5,2,0:0:0:0:
198,126,232556,1,2,0:0:0:0:
226,156,232655,5,8,0:0:0:0:
240,146,232754,1,2,0:0:0:0:
273,170,232852,5,2,0:0:0:0:
70,34,233050,1,6,0:0:0:0:
0,242,233247,1,2,0:0:0:0:
0,242,233346,1,2,0:0:0:0:
9,300,233444,1,8,0:0:0:0:
133,384,233642,1,2,0:0:0:0:
133,384,233741,1,2,0:0:0:0:
133,384,233839,5,0,0:0:0:0:
174,367,233937,1,2,0:0:0:0:
218,363,234036,1,2,0:0:0:0:
262,372,234135,1,2,0:0:0:0:
334,384,234234,5,8,0:0:0:0:
399,357,234332,1,8,0:0:0:0:
404,286,234431,1,8,0:0:0:0:
343,250,234530,1,8,0:0:0:0:
284,290,234629,6,0,P|227:196|200:163,1,140.000001335144,6|2,0:0|0:0,0:0:0:0:
154,119,234925,1,2,0:0:0:0:
117,102,235023,1,8,0:0:0:0:
78,109,235122,1,2,0:0:0:0:
49,136,235221,1,0,0:0:0:0:
40,175,235319,1,2,0:0:0:0:
53,211,235418,6,0,L|40:300,1,70.000000667572,2|0,0:0|0:0,0:0:0:0:
135,271,235615,2,0,L|169:354,1,70.000000667572,2|2,0:0|0:0,0:0:0:0:
284,290,235813,2,0,L|237:272,2,46.6666671117147,8|0|0,0:0|0:0|0:0,0:0:0:0:
314,332,236010,1,2,0:0:0:0:
157,118,236208,6,0,P|226:122|295:135,1,140.000001335144,6|2,0:0|0:0,0:0:0:0:
317,146,236504,1,2,0:0:0:0:
331,171,236602,1,8,0:0:0:0:
350,137,236700,1,0,0:0:0:0:
366,101,236799,1,2,0:0:0:0:
378,64,236898,1,2,0:0:0:0:
428,169,237096,5,2,0:0:0:0:
440,206,237195,1,2,0:0:0:0:
456,242,237294,1,2,0:0:0:0:
475,276,237392,2,0,P|492:311|512:335,1,70.000000667572,8|2,0:0|0:0,0:0:0:0:
292,249,237589,2,0,P|257:246|222:251,1,70.000000667572,2|8,0:0|0:0,0:0:0:0:
73,371,237786,6,0,P|92:342|105:309,1,70.000000667572,6|0,0:0|0:0,0:0:0:0:
150,183,237984,1,2,0:0:0:0:
163,133,238082,1,2,0:0:0:0:
147,83,238181,1,8,0:0:0:0:
106,52,238280,1,2,0:0:0:0:
54,47,238379,6,0,L|3:106,1,70.000000667572,0|2,0:0|0:0,0:0:0:0:
40,255,238576,1,0,0:0:0:0:
180,62,238773,1,2,0:0:0:0:
202,57,238872,1,2,0:0:0:0:
221,53,238971,2,0,L|236:107,2,46.6666671117147,8|0|0,0:0|0:0|0:0,0:0:0:0:
250,16,239168,1,2,0:0:0:0:
407,46,239365,1,6,0:0:0:0:
429,37,239563,5,2,0:0:0:0:
439,70,239661,1,2,0:0:0:0:
448,103,239760,1,8,0:0:0:0:
432,225,239958,1,2,0:0:0:0:
422,258,240056,1,2,0:0:0:0:
436,298,240155,5,2,0:0:0:0:
384,290,240253,1,4,0:1:0:0:
332,282,240352,1,4,0:1:0:0:
280,275,240451,1,4,0:1:0:0:
251,309,240550,5,8,0:0:0:0:
183,298,240648,1,2,0:0:0:0:
137,247,240747,1,8,0:0:0:0:
135,178,240846,1,8,0:0:0:0:
178,124,240944,1,6,0:0:0:0:
258,28,241142,5,2,0:0:0:0:
263,67,241240,1,2,0:0:0:0:
269,106,241339,1,8,0:0:0:0:
274,145,241438,1,2,0:0:0:0:
333,275,241635,1,2,0:0:0:0:
338,236,241734,1,2,0:0:0:0:
180,297,241931,5,2,0:0:0:0:
211,272,242030,1,2,0:0:0:0:
265,224,242129,1,8,0:0:0:0:
231,222,242227,1,2,0:0:0:0:
155,216,242326,1,2,0:0:0:0:
33,365,242523,1,6,0:0:0:0:
19,370,242721,5,2,0:0:0:0:
11,330,242820,1,2,0:0:0:0:
0,259,242919,1,8,0:0:0:0:
93,122,243115,1,2,0:0:0:0:
85,162,243214,1,2,0:0:0:0:
74,233,243313,1,0,0:0:0:0:
65,199,243411,1,2,0:0:0:0:
56,164,243510,1,2,0:0:0:0:
47,129,243609,1,2,0:0:0:0:
0,72,243708,5,8,0:0:0:0:
47,42,243806,1,2,0:0:0:0:
102,36,243905,1,2,0:0:0:0:
156,50,244004,1,8,0:0:0:0:
206,108,244102,1,6,0:0:0:0:
341,54,244300,5,2,0:0:0:0:
395,40,244399,1,2,0:0:0:0:
450,46,244498,1,8,0:0:0:0:
435,77,244596,1,2,0:0:0:0:
372,130,244694,1,0,0:0:0:0:
387,160,244793,1,2,0:0:0:0:
450,206,244892,1,2,0:0:0:0:
311,238,245089,5,2,0:0:0:0:
280,263,245188,1,2,0:0:0:0:
226,311,245286,1,8,0:0:0:0:
260,313,245385,1,2,0:0:0:0:
336,319,245484,1,2,0:0:0:0:
512,384,245681,1,6,0:0:0:0:
512,248,245879,5,2,0:0:0:0:
481,219,245977,1,2,0:0:0:0:
440,207,246076,1,8,0:0:0:0:
402,98,246273,5,2,0:0:0:0:
378,119,246372,1,2,0:0:0:0:
323,172,246471,5,2,0:0:0:0:
292,136,246569,1,4,0:1:0:0:
254,109,246668,1,4,0:3:0:0:
211,93,246767,1,4,0:3:0:0:
162,109,246865,5,8,0:0:0:0:
120,161,246963,1,2,0:0:0:0:
53,155,247062,1,8,0:0:0:0:
23,95,247161,1,8,0:0:0:0:
57,37,247260,1,6,0:0:0:0:
216,192,247458,5,2,0:0:0:0:
205,232,247556,1,2,0:0:0:0:
192,272,247655,1,8,0:0:0:0:
178,311,247754,1,2,0:0:0:0:
316,200,247951,5,2,0:0:0:0:
302,239,248050,1,2,0:0:0:0:
512,157,248247,2,0,L|445:179,1,70.000000667572,2|2,0:0|0:0,0:0:0:0:
434,329,248444,2,0,L|367:351,2,46.6666671117147,8|0|0,0:0|0:0|0:0,0:0:0:0:
512,349,248642,1,2,0:0:0:0:
367,105,248839,6,0,B|295:85|295:121|228:104,1,140.000001335144,2|2,0:0|0:0,0:0:0:0:
189,91,249135,1,2,0:0:0:0:
153,68,249234,1,8,0:0:0:0:
56,149,249431,1,2,0:0:0:0:
98,150,249530,1,2,0:0:0:0:
0,264,249727,1,2,0:0:0:0:
36,243,249826,1,2,0:0:0:0:
77,239,249925,1,2,0:0:0:0:
115,255,250023,5,8,0:0:0:0:
166,212,250121,1,4,0:1:0:0:
228,237,250220,1,4,0:1:0:0:
237,303,250319,1,8,0:0:0:0:
184,343,250418,2,0,P|242:330|350:350,1,140.000001335144,6|2,0:0|0:0,0:0:0:0:
362,349,250714,1,2,0:0:0:0:
403,342,250813,1,8,0:0:0:0:
443,351,250911,1,2,0:0:0:0:
342,170,251109,5,2,0:0:0:0:
323,181,251208,2,0,P|336:226|355:258,1,70.000000667572,2|0,0:0|0:0,0:0:0:0:
512,309,251405,1,2,0:0:0:0:
498,295,251504,1,2,0:0:0:0:
488,286,251602,2,0,P|456:273|421:268,2,46.6666671117147,8|0|0,0:0|0:0|0:0,0:0:0:0:
512,384,251800,1,2,0:0:0:0:
310,99,251997,6,0,P|266:51|192:25,1,140.000001335144,2|2,0:0|0:0,0:0:0:0:
154,28,252293,1,2,0:0:0:0:
113,40,252392,1,8,0:0:0:0:
29,123,252589,5,2,0:0:0:0:
70,126,252688,1,2,0:0:0:0:
93,159,252786,1,2,0:0:0:0:
139,152,252884,1,4,0:1:0:0:
185,146,252983,1,4,0:1:0:0:
232,140,253082,1,4,0:1:0:0:
258,107,253181,5,8,0:0:0:0:
342,104,253279,1,8,0:0:0:0:
390,172,253378,1,8,0:0:0:0:
359,250,253477,1,8,0:0:0:0:
277,267,253576,5,6,0:0:0:0:
260,284,253674,1,2,0:0:0:0:
241,297,253773,1,2,0:0:0:0:
220,307,253872,1,2,0:0:0:0:
198,314,253970,1,8,0:0:0:0:
175,316,254069,1,2,0:0:0:0:
152,316,254168,2,0,P|116:318|74:336,1,70.000000667572,2|2,0:0|0:0,0:0:0:0:
348,338,254365,6,0,P|364:305|369:260,1,70.000000667572,2|2,0:0|0:0,0:0:0:0:
455,193,254563,2,0,P|422:176|377:171,1,70.000000667572,2|2,0:0|0:0,0:0:0:0:
310,86,254760,2,0,P|293:118|288:163,1,70.000000667572,8|2,0:0|0:0,0:0:0:0:
203,231,254958,2,0,P|235:247|280:252,1,70.000000667572,2|2,0:0|0:0,0:0:0:0:
52,230,255155,6,0,P|22:249|0:276,1,70.000000667572,2|2,0:0|0:0,0:0:0:0:
142,99,255352,2,0,P|142:64|131:30,1,70.000000667572,2|2,0:0|0:0,0:0:0:0:
263,265,255550,2,0,P|229:256|200:237,1,70.000000667572,8|2,0:0|0:0,0:0:0:0:
55,224,255747,6,0,P|24:240|0:264,1,70.000000667572,2|2,0:0|0:0,0:0:0:0:
156,100,255944,2,0,P|159:65|151:31,1,70.000000667572,2|2,0:0|0:0,0:0:0:0:
202,242,256142,2,0,P|229:264|262:277,1,70.000000667572,2|2,0:0|0:0,0:0:0:0:
401,375,256339,6,0,B|424:297|380:269|416:125,1,210.000002002716,8|8,0:0|0:0,0:0:0:0:
442,50,256734,6,0,L|512:44,1,70.000000667572,6|2,0:0|0:0,0:0:0:0:
512,139,256931,2,0,L|391:151,1,70.000000667572,2|2,0:0|0:0,0:0:0:0:
442,240,257129,2,0,L|512:234,1,70.000000667572,8|2,0:0|0:0,0:0:0:0:
309,326,257326,6,0,P|281:304|261:276,1,70.000000667572,2|2,0:0|0:0,0:0:0:0:
165,309,257523,2,0,P|160:274|166:240,1,70.000000667572,2|2,0:0|0:0,0:0:0:0:
75,195,257721,2,0,P|96:167|124:147,1,70.000000667572,2|2,0:0|0:0,0:0:0:0:
334,164,257918,6,0,P|299:159|267:144,1,70.000000667572,8|2,0:0|0:0,0:0:0:0:
187,17,258115,2,0,L|194:112,1,70.000000667572,2|2,0:0|0:0,0:0:0:0:
0,167,258313,5,12,0:0:0:0:
5,190,258411,2,0,L|74:195,1,70.000000667572,2|2,0:0|0:0,0:0:0:0:
92,342,258609,1,12,0:0:0:0:
111,354,258708,2,0,L|164:308,1,70.000000667572,2|2,0:0|0:0,0:0:0:0:
267,144,258905,2,0,L|261:213,1,70.000000667572,12|2,0:0|0:0,0:0:0:0:
396,384,259102,5,12,0:0:0:0:
408,365,259201,2,0,L|362:311,1,70.000000667572,2|2,0:0|0:0,0:0:0:0:
512,236,259398,1,12,0:0:0:0:
507,214,259497,2,0,L|437:208,1,70.000000667572,2|2,0:0|0:0,0:0:0:0:
489,49,259694,1,12,0:0:0:0:
470,37,259793,1,8,0:0:0:0:
405,0,259892,6,0,L|307:31,1,100,2|4,0:0|0:3,0:0:0:0:
279,28,260188,1,4,0:3:0:0:
279,28,260286,2,0,L|204:51,1,50,8|4,0:0|0:1,0:0:0:0:
148,15,260484,1,4,0:1:0:0:
32,99,260681,6,0,P|100:121|158:128,1,100,2|0,0:0|0:0,0:0:0:0:
149,146,260977,1,2,0:0:0:0:
149,146,261076,2,0,P|187:152|230:149,1,50,8|0,0:0|0:0,0:0:0:0:
288,113,261273,1,2,0:0:0:0:
347,224,261471,5,0,0:0:0:0:
347,224,261569,1,2,0:0:0:0:
347,224,261668,1,8,0:0:0:0:
463,172,261865,1,8,0:0:0:0:
345,316,262063,1,4,0:1:0:0:
298,299,262161,1,4,0:1:0:0:
264,317,262260,5,4,0:3:0:0:
230,312,262358,1,4,0:3:0:0:
197,307,262457,1,2,0:0:0:0:
164,303,262556,1,2,0:0:0:0:
121,328,262655,5,8,0:0:0:0:
77,305,262753,1,2,0:0:0:0:
54,261,262852,1,8,0:0:0:0:
63,213,262951,1,8,0:0:0:0:
98,179,263049,5,4,0:1:0:0:
98,179,263148,1,4,0:1:0:0:
156,195,263247,5,4,0:3:0:0:
156,195,263346,1,4,0:3:0:0:
213,180,263444,5,8,0:0:0:0:
213,180,263543,1,2,0:0:0:0:
255,137,263642,5,4,0:3:0:0:
255,137,263741,1,4,0:3:0:0:
262,77,263839,6,0,P|232:61|181:45,1,70.000000667572,2|2,0:0|0:0,0:0:0:0:
456,159,264037,2,0,P|484:141|524:104,1,70.000000667572,4|4,0:1|0:1,0:0:0:0:
320,202,264234,5,8,0:0:0:0:
298,267,264332,1,8,0:0:0:0:
322,331,264431,1,8,0:0:0:0:
381,366,264530,1,8,0:0:0:0:
449,355,264629,6,0,P|352:337|283:342,1,120.000004577637,6|4,0:0|0:1,0:0:0:0:
251,366,264925,1,4,0:1:0:0:
251,366,265023,2,0,P|191:362|133:347,1,120.000004577637,8|2,0:0|0:0,0:0:0:0:
49,160,265418,2,0,P|41:257|54:329,1,120.000004577637,2|0,0:0|0:0,0:0:0:0:
133,271,265714,1,2,0:0:0:0:
133,271,265813,2,0,P|141:174|128:102,1,120.000004577637,8|0,0:0|0:0,0:0:0:0:
19,13,266208,6,0,L|113:22,1,60.0000022888184,2|0,0:0|0:0,0:0:0:0:
178,67,266405,2,0,L|237:61,1,60.0000022888184,2|2,0:0|0:0,0:0:0:0:
308,9,266602,2,0,L|367:14,1,60.0000022888184,8|0,0:0|0:0,0:0:0:0:
460,174,266800,2,0,P|428:107|375:96,2,120.000004577637,2|2|2,0:0|0:0|0:0,0:0:0:0:
420,247,267293,1,2,0:0:0:0:
420,247,267392,2,0,L|441:326,1,60.0000022888184,8|8,0:0|0:0,0:0:0:0:
277,276,267589,2,0,L|319:318,1,60.0000022888184,2|8,0:0|0:0,0:0:0:0:
75,286,267787,6,0,L|132:270,1,60.0000022888184,6|0,0:0|0:0,0:0:0:0:
322,200,267984,1,2,0:0:0:0:
322,200,268083,1,2,0:0:0:0:
322,200,268181,2,0,L|264:184,1,60.0000022888184,8|0,0:0|0:0,0:0:0:0:
59,165,268379,2,0,P|121:82|172:82,2,120.000004577637,2|2|0,0:0|0:0|0:0,0:0:0:0:
45,206,268872,1,2,0:0:0:0:
45,206,268971,2,0,L|160:175,1,120.000004577637,8|0,0:0|0:0,0:0:0:0:
330,25,269365,6,0,P|341:63|341:136,1,60.0000022888184,2|0,0:0|0:0,0:0:0:0:
475,192,269563,2,0,P|436:182|373:146,1,60.0000022888184,2|2,0:0|0:0,0:0:0:0:
240,69,269760,2,0,P|212:79|182:86,1,60.0000022888184,8|0,0:0|0:0,0:0:0:0:
45,206,269958,2,0,B|10:157|55:112|125:129|117:186|117:186|165:160|198:200,1,240.000009155274,2|2,0:0|0:0,0:0:0:0:
208,204,270451,1,2,0:0:0:0:
225,239,270550,5,8,0:0:0:0:
231,302,270648,1,8,0:0:0:0:
272,354,270747,1,8,0:0:0:0:
333,376,270846,1,8,0:0:0:0:
396,361,270944,2,0,P|385:295|406:236,1,120.000004577637,6|2,0:0|0:0,0:0:0:0:
475,223,271240,1,2,0:0:0:0:
475,223,271339,2,0,L|453:92,1,120.000004577637,8|2,0:0|0:0,0:0:0:0:
348,0,271734,5,4,0:3:0:0:
343,29,271832,1,4,0:1:0:0:
338,59,271931,1,2,0:0:0:0:
333,88,272030,1,2,0:0:0:0:
328,118,272128,1,8,0:0:0:0:
225,239,272326,5,8,0:0:0:0:
196,234,272425,1,8,0:0:0:0:
166,229,272523,2,0,L|112:187,1,60.0000022888184,2|0,0:0|0:0,0:0:0:0:
0,274,272721,2,0,L|55:251,1,60.0000022888184,2|2,0:0|0:0,0:0:0:0:
45,108,272918,2,0,L|35:175,1,60.0000022888184,8|0,0:0|0:0,0:0:0:0:
78,333,273115,1,2,0:0:0:0:
0,384,273313,5,2,0:0:0:0:
39,361,273412,1,8,0:0:0:0:
88,356,273510,2,0,P|122:353|186:325,1,60.0000022888184,2|2,0:0|0:0,0:0:0:0:
275,384,273708,2,0,P|289:353|297:283,1,60.0000022888184,8|2,0:0|0:0,0:0:0:0:
473,354,273905,2,0,P|453:326|397:284,1,60.0000022888184,8|8,0:0|0:0,0:0:0:0:
227,242,274102,6,0,P|286:226|347:221,1,120.000004577637,6|2,0:0|0:0,0:0:0:0:
429,230,274398,1,2,0:0:0:0:
429,230,274497,1,8,0:0:0:0:
512,114,274694,2,0,P|468:93|422:81,1,60.0000022888184,2|0,0:0|0:0,0:0:0:0:
444,89,274892,1,2,0:0:0:0:
273,5,275089,1,0,0:0:0:0:
269,21,275188,1,2,0:0:0:0:
275,46,275286,5,8,0:0:0:0:
230,49,275384,1,2,0:0:0:0:
185,53,275483,1,2,0:0:0:0:
140,57,275582,1,2,0:0:0:0:
102,80,275681,6,0,L|32:69,1,60.0000022888184,8|2,0:0|0:0,0:0:0:0:
86,202,275879,2,0,L|16:191,1,60.0000022888184,4|4,0:1|0:1,0:0:0:0:
70,324,276076,2,0,L|0:313,1,60.0000022888184,4|4,0:3|0:3,0:0:0:0:
275,46,276273,5,8,0:0:0:0:
280,85,276371,1,2,0:0:0:0:
285,124,276470,1,4,0:1:0:0:
290,164,276569,1,8,0:0:0:0:
296,203,276668,2,0,L|238:217,1,60.0000022888184,4|2,0:3|0:0,0:0:0:0:
193,384,276865,5,8,0:0:0:0:
230,319,276964,1,8,0:0:0:0:
293,280,277063,1,8,0:0:0:0:
367,276,277161,1,8,0:0:0:0:
434,328,277259,1,6,0:0:0:0:
484,176,277458,5,2,0:0:0:0:
428,182,277556,1,2,0:0:0:0:
372,190,277655,1,8,0:0:0:0:
165,90,277852,5,2,0:0:0:0:
159,144,277951,1,8,0:0:0:0:
153,198,278049,5,0,0:0:0:0:
209,190,278148,1,8,0:0:0:0:
262,211,278247,1,2,0:0:0:0:
288,27,278444,5,8,0:0:0:0:
256,71,278543,1,2,0:0:0:0:
45,61,278740,5,4,0:3:0:0:
95,39,278839,1,6,0:0:0:0:
94,193,279036,5,2,0:0:0:0:
149,198,279135,1,2,0:0:0:0:
182,232,279234,5,8,0:0:0:0:
237,227,279333,1,2,0:0:0:0:
296,188,279431,5,0,0:0:0:0:
316,231,279530,1,8,0:0:0:0:
322,281,279629,1,2,0:0:0:0:
227,384,279826,5,8,0:0:0:0:
252,340,279925,1,2,0:0:0:0:
365,365,280122,5,8,0:0:0:0:
414,359,280221,1,8,0:0:0:0:
463,353,280319,1,8,0:0:0:0:
504,384,280418,5,6,0:0:0:0:
474,256,280615,5,4,0:3:0:0:
474,246,280681,1,4,0:3:0:0:
474,236,280747,1,4,0:3:0:0:
474,226,280813,1,8,0:0:0:0:
512,115,281010,5,2,0:0:0:0:
463,121,281109,1,8,0:0:0:0:
313,82,281306,5,8,0:0:0:0:
358,101,281405,1,2,0:0:0:0:
372,245,281602,5,8,0:0:0:0:
342,206,281701,1,2,0:0:0:0:
241,290,281898,5,4,0:1:0:0:
247,338,281997,1,6,0:0:0:0:
108,366,282194,5,8,0:0:0:0:
80,321,282292,1,8,0:0:0:0:
90,269,282391,1,8,0:0:0:0:
133,239,282490,1,8,0:0:0:0:
183,247,282589,5,2,0:0:0:0:
214,186,282687,1,8,0:0:0:0:
197,119,282786,1,8,0:0:0:0:
141,80,282885,1,8,0:0:0:0:
73,87,282983,1,8,0:0:0:0:
27,137,283082,1,8,0:0:0:0:
24,205,283181,5,2,0:0:0:0:
93,209,283279,1,8,0:0:0:0:
160,191,283378,1,8,0:0:0:0:
230,186,283477,1,8,0:0:0:0:
299,200,283576,6,0,B|320:210|334:216|384:223,1,70.000000667572,6|2,0:0|0:0,0:0:0:0:
430,73,283773,2,0,B|431:96|433:111|452:158,1,70.000000667572,2|2,0:0|0:0,0:0:0:0:
410,310,283971,2,0,B|390:323|378:332|347:372,1,70.000000667572,8|2,0:0|0:0,0:0:0:0:
211,334,284168,5,2,0:0:0:0:
157,317,284266,1,2,0:0:0:0:
115,281,284365,1,2,0:0:0:0:
90,232,284464,1,2,0:0:0:0:
86,176,284562,1,2,0:0:0:0:
105,124,284661,1,2,0:0:0:0:
143,83,284760,1,8,0:0:0:0:
188,109,284858,1,2,0:0:0:0:
239,121,284957,1,2,0:0:0:0:
291,116,285056,1,2,0:0:0:0:
340,97,285155,6,0,L|421:111,1,70.000000667572,12|2,0:0|0:0,0:0:0:0:
512,210,285352,2,0,L|431:223,1,70.000000667572,2|2,0:0|0:0,0:0:0:0:
319,384,285550,2,0,L|307:314,1,70.000000667572,8|2,0:0|0:0,0:0:0:0:
197,191,285747,5,2,0:0:0:0:
162,191,285845,1,2,0:0:0:0:
128,200,285944,1,2,0:0:0:0:
96,215,286043,1,2,0:0:0:0:
69,237,286142,6,0,P|47:265|28:323,1,70.000000667572,2|2,0:0|0:0,0:0:0:0:
103,113,286339,2,0,P|67:116|13:143,1,70.000000667572,8|2,0:0|0:0,0:0:0:0:
214,48,286536,2,0,P|186:25|128:6,1,70.000000667572,8|8,0:0|0:0,0:0:0:0:
340,97,286734,6,0,L|354:-8,1,70.000000667572,6|2,0:0|0:0,0:0:0:0:
294,239,286931,2,0,L|280:134,1,70.000000667572,2|2,0:0|0:0,0:0:0:0:
208,367,287129,2,0,L|222:262,1,70.000000667572,8|2,0:0|0:0,0:0:0:0:
394,249,287326,5,2,0:0:0:0:
436,231,287424,1,2,0:0:0:0:
455,190,287523,1,2,0:0:0:0:
442,146,287622,1,2,0:0:0:0:
403,123,287720,1,2,0:0:0:0:
358,132,287819,1,2,0:0:0:0:
331,168,287918,1,8,0:0:0:0:
284,169,288016,1,2,0:0:0:0:
239,178,288115,1,8,0:0:0:0:
196,196,288214,1,8,0:0:0:0:
157,222,288313,6,0,P|120:219|76:204,1,70.000000667572,6|0,0:0|0:0,0:0:0:0:
278,53,288510,2,0,P|299:22|334:-8,1,70.000000667572,8|8,0:0|0:0,0:0:0:0:
375,325,288708,2,0,P|366:291|351:259,1,70.000000667572,8|8,0:0|0:0,0:0:0:0:
128,67,288905,1,2,0:0:0:0:
399,180,289102,1,8,0:0:0:0:
399,180,289201,1,8,0:0:0:0:
399,180,289300,6,0,P|365:170|330:167,1,70.000000667572,8|8,0:0|0:0,0:0:0:0:
288,304,289497,5,6,0:0:0:0:
226,336,289595,1,8,0:0:0:0:
157,344,289694,1,8,0:0:0:0:
90,327,289793,1,8,0:0:0:0:
45,260,289892,6,0,P|17:285|-4:324,1,70.000000667572,2|0,0:0|0:0,0:0:0:0:
98,161,290089,2,0,P|62:149|18:150,1,70.000000667572
210,157,290286,2,0,P|202:120|179:82,1,70.000000667572
436,323,290484,6,0,L|354:296,1,70.000000667572,6|0,0:0|0:0,0:0:0:0:
460,124,290681,2,0,L|396:180,1,70.000000667572
304,0,290879,2,0,L|320:82,1,70.000000667572
118,71,291076,2,0,L|196:98,1,70.000000667572
80,264,291273,2,0,L|144:211,1,70.000000667572
229,354,291471,1,4,0:0:0:0:
256,192,291520,12,0,292507,0:0:0:0:
147,94,292655,5,2,0:0:0:0:
148,111,292753,1,2,0:0:0:0:
180,143,292852,1,8,0:0:0:0:
179,161,292951,1,8,0:0:0:0:
156,193,293050,6,0,B|125:224|125:224|112:262|112:262|90:303|90:303|47:325|47:325|80:340|80:340|137:323|194:328|194:328|219:319|219:319|278:333,1,400,2|2,0:0|0:0,0:0:0:0:
360,355,293642,2,0,P|362:317|332:261,1,80,0|2,0:0|0:0,0:0:0:0:
250,194,293839,6,0,B|320:143|449:214|449:214|420:90|478:130|485:8,1,400,2|2,0:0|0:0,0:0:0:0:
389,41,294431,2,0,L|337:50,2,53.3333333333333,2|0|0,0:0|0:0|0:0,0:0:0:0:
512,170,294629,2,0,P|490:284|383:266,1,240,6|2,0:0|0:0,0:0:0:0:
213,314,295023,6,0,L|299:297,1,80,8|0,0:0|0:0,0:0:0:0:
389,41,295221,2,0,B|408:74|408:74|420:126,1,80,2|2,0:0|0:0,0:0:0:0:
446,207,295418,2,0,P|393:184|334:180,1,106.666666666667
255,214,295615,6,0,P|250:190|256:155,1,40,2|2,0:0|0:0,0:0:0:0:
289,46,295813,2,0,L|294:13,2,26.6666666666667,8|0|0,0:0|0:0|0:0,0:0:0:0:
205,94,296010,2,0,L|143:89,1,53.3333333333333,2|0,0:0|0:0,0:0:0:0:
74,37,296208,5,6,0:0:0:0:
78,68,296306,1,2,0:0:0:0:
80,104,296405,1,2,0:0:0:0:
79,144,296504,1,2,0:0:0:0:
73,191,296602,5,8,0:0:0:0:
118,174,296701,1,2,0:0:0:0:
169,184,296800,1,0,0:0:0:0:
210,221,296898,1,2,0:0:0:0:
224,279,296997,1,2,0:0:0:0:
259,332,297096,1,0,0:0:0:0:
324,349,297194,1,2,0:0:0:0:
389,318,297293,1,2,0:0:0:0:
414,250,297392,5,8,0:0:0:0:
372,207,297490,1,2,0:0:0:0:
356,148,297589,1,2,0:0:0:0:
371,89,297688,1,0,0:0:0:0:
415,48,297786,5,6,0:0:0:0:
428,85,297885,1,0,0:0:0:0:
445,120,297984,2,0,L|481:120,2,26.6666666666667,2|0|0,0:0|0:0|0:0,0:0:0:0:
403,190,298181,5,8,0:0:0:0:
372,207,298279,1,0,0:0:0:0:
344,229,298378,1,2,0:0:0:0:
320,256,298477,1,2,0:0:0:0:
309,299,298576,5,0,0:0:0:0:
280,296,298674,1,2,0:0:0:0:
251,294,298773,1,2,0:0:0:0:
222,292,298872,1,2,0:0:0:0:
189,318,298971,6,0,L|141:324,3,40,8|8|8|8,0:0|0:0|0:0|0:0,0:0:0:0:
154,222,299365,6,0,L|243:204,1,80,6|0,0:0|0:0,0:0:0:0:
328,224,299563,1,2,0:0:0:0:
328,224,299661,2,0,P|330:177|288:123,1,80,2|8,0:0|0:0,0:0:0:0:
223,104,299859,1,2,0:0:0:0:
223,104,299958,2,0,P|221:57|263:3,1,80,0|2,0:0|0:0,0:0:0:0:
312,72,300155,5,2,0:0:0:0:
312,72,300254,2,0,L|390:87,1,80,0|2,0:0|0:0,0:0:0:0:
472,154,300451,1,2,0:0:0:0:
448,205,300550,1,8,0:0:0:0:
456,259,300648,1,2,0:0:0:0:
434,310,300747,2,0,L|355:294,1,80,2|0,0:0|0:0,0:0:0:0:
163,373,300944,6,0,P|202:356|255:355,1,80,6|0,0:0|0:0,0:0:0:0:
90,256,301142,2,0,P|132:260|178:286,1,80,0|2,0:0|0:0,0:0:0:0:
261,237,301339,2,0,P|237:204|205:181,1,80,8|0,0:0|0:0,0:0:0:0:
246,100,301536,2,0,P|206:93|167:99,1,80,2|2,0:0|0:0,0:0:0:0:
138,13,301734,2,0,P|105:36|82:68,1,80,0|2,0:0|0:0,0:0:0:0:
0,27,301931,2,0,P|-6:66|0:105,1,80,2|2,0:0|0:0,0:0:0:0:
93,181,302129,6,0,B|190:195|164:153|260:180|260:180|270:175|270:175|305:178|354:170,1,240,8|8,0:0|0:0,0:0:0:0:
406,0,302523,6,0,B|423:25|410:79|410:79|419:89|419:89|407:118|424:164,1,160,6|2,0:0|0:0,0:0:0:0:
471,222,302819,1,2,0:0:0:0:
421,288,302918,1,8,0:0:0:0:
329,258,303017,6,0,L|235:267,1,80,2|2,0:0|0:0,0:0:0:0:
204,335,303313,2,0,L|124:327,1,80,2|2,0:0|0:0,0:0:0:0:
90,338,303609,1,2,0:0:0:0:
84,308,303708,1,8,0:0:0:0:
79,278,303806,1,2,0:0:0:0:
55,254,303905,1,2,0:0:0:0:
59,217,304003,1,0,0:0:0:0:
38,180,304102,6,0,B|110:72|234:138|234:138|229:163|243:143|243:143|284:167|362:148,1,360.000013732911,2|2,0:0|0:0,0:0:0:0:
471,89,304892,2,0,L|414:108,1,60.0000022888184,0|2,0:0|0:0,0:0:0:0:
432,238,305089,2,0,L|373:225,1,60.0000022888184,2|2,0:0|0:0,0:0:0:0:
328,290,305286,5,2,0:0:0:0:
270,274,305384,1,8,0:0:0:0:
211,282,305483,1,8,0:0:0:0:
159,312,305582,1,8,0:0:0:0:
197,361,305681,5,6,0:0:0:0:
90,357,305879,5,2,0:0:0:0:
78,302,305977,1,2,0:0:0:0:
103,251,306076,1,8,0:0:0:0:
155,229,306175,1,2,0:0:0:0:
110,195,306273,5,0,0:0:0:0:
293,177,306471,1,2,0:0:0:0:
193,125,306668,5,2,0:0:0:0:
245,105,306767,1,2,0:0:0:0:
295,82,306865,1,8,0:0:0:0:
350,88,306964,1,4,0:1:0:0:
405,77,307063,5,0,0:0:0:0:
328,290,307260,1,6,0:0:0:0:
396,201,307458,5,2,0:0:0:0:
340,201,307556,1,2,0:0:0:0:
286,183,307655,1,8,0:0:0:0:
230,191,307754,1,0,0:0:0:0:
184,223,307852,1,2,0:0:0:0:
162,275,307951,1,2,0:0:0:0:
166,330,308050,1,0,0:0:0:0:
181,276,308148,1,2,0:0:0:0:
150,228,308247,1,2,0:0:0:0:
93,224,308346,1,2,0:0:0:0:
40,288,308444,5,8,0:0:0:0:
30,214,308543,1,2,0:0:0:0:
0,143,308642,5,2,0:0:0:0:
10,69,308741,1,8,0:0:0:0:
0,0,308839,5,6,0:0:0:0:
99,68,309036,5,2,0:0:0:0:
155,63,309135,1,2,0:0:0:0:
211,60,309234,1,8,0:0:0:0:
267,57,309333,1,2,0:0:0:0:
312,24,309431,5,0,0:0:0:0:
230,191,309629,1,2,0:0:0:0:
318,272,309826,5,2,0:0:0:0:
345,223,309925,1,2,0:0:0:0:
347,167,310023,1,8,0:0:0:0:
323,115,310122,1,2,0:0:0:0:
378,121,310221,5,2,0:0:0:0:
432,352,310418,1,6,0:0:0:0:
318,272,310615,5,2,0:0:0:0:
264,290,310714,1,2,0:0:0:0:
215,319,310813,1,8,0:0:0:0:
162,300,310911,1,0,0:0:0:0:
120,261,311010,1,2,0:0:0:0:
95,210,311109,1,2,0:0:0:0:
90,153,311208,1,0,0:0:0:0:
107,205,311306,1,2,0:0:0:0:
68,246,311405,1,2,0:0:0:0:
12,237,311504,1,2,0:0:0:0:
0,164,311602,5,8,0:0:0:0:
62,128,311701,1,2,0:0:0:0:
133,148,311800,5,8,0:0:0:0:
208,143,311898,1,8,0:0:0:0:
268,93,311997,5,6,0:0:0:0:
401,24,312194,5,2,0:0:0:0:
407,79,312293,1,2,0:0:0:0:
413,134,312392,1,8,0:0:0:0:
420,189,312490,1,2,0:0:0:0:
387,234,312589,5,0,0:0:0:0:
512,366,312786,1,2,0:0:0:0:
403,336,312984,5,2,0:0:0:0:
348,323,313083,1,2,0:0:0:0:
292,324,313181,1,8,0:0:0:0:
239,343,313280,1,2,0:0:0:0:
186,324,313379,5,2,0:0:0:0:
0,384,313576,1,6,0:0:0:0:
67,239,313773,5,2,0:0:0:0:
71,180,313871,1,2,0:0:0:0:
110,136,313970,1,8,0:0:0:0:
134,187,314069,1,0,0:0:0:0:
185,215,314167,1,2,0:0:0:0:
243,206,314266,1,2,0:0:0:0:
283,162,314365,1,0,0:0:0:0:
235,192,314464,1,2,0:0:0:0:
234,248,314563,1,2,0:0:0:0:
278,281,314661,1,2,0:0:0:0:
346,239,314760,5,8,0:0:0:0:
347,311,314859,1,2,0:0:0:0:
300,366,314958,5,2,0:0:0:0:
370,357,315056,1,8,0:0:0:0:
440,375,315155,5,6,0:0:0:0:
490,254,315352,5,2,0:0:0:0:
492,197,315451,1,2,0:0:0:0:
494,140,315550,1,8,0:0:0:0:
497,84,315648,1,2,0:0:0:0:
459,41,315747,5,0,0:0:0:0:
312,158,315944,1,2,0:0:0:0:
234,60,316142,5,2,0:0:0:0:
180,76,316240,1,2,0:0:0:0:
126,93,316339,1,8,0:0:0:0:
72,110,316438,1,2,0:0:0:0:
22,85,316536,5,2,0:0:0:0:
186,188,316734,1,6,0:0:0:0:
87,269,316931,5,2,0:0:0:0:
58,317,317030,1,2,0:0:0:0:
16,354,317129,1,8,0:0:0:0:
67,332,317227,1,0,0:0:0:0:
122,324,317326,1,2,0:0:0:0:
176,337,317425,1,2,0:0:0:0:
221,368,317523,1,0,0:0:0:0:
268,337,317622,1,2,0:0:0:0:
297,289,317721,1,2,0:0:0:0:
304,233,317819,1,2,0:0:0:0:
244,188,317918,5,6,0:0:0:0:
293,240,318017,1,8,0:0:0:0:
360,264,318115,1,8,0:0:0:0:
431,254,318214,1,8,0:0:0:0:
501,273,318313,6,0,L|476:198,2,80,6|0|2,0:0|0:0|0:0,0:0:0:0:
415,85,318609,2,0,L|387:167,2,80,2|8|2,0:0|0:0|0:0,0:0:0:0:
295,10,318905,2,0,L|311:95,1,80,0|2,0:0|0:0,0:0:0:0:
156,160,319102,6,0,L|241:143,2,80,2|0|2,0:0|0:0|0:0,0:0:0:0:
85,108,319398,2,0,P|68:173|93:223,2,80,2|8|4,0:0|0:0|0:1,0:0:0:0:
0,300,319694,2,0,P|64:282|95:235,1,80,4|0,0:1|0:0,0:0:0:0:
217,354,319892,6,0,P|194:322|159:304,2,80,6|0|2,0:0|0:0|0:0,0:0:0:0:
212,228,320188,2,0,L|301:212,2,80,2|8|0,0:0|0:0|0:0,0:0:0:0:
333,284,320484,2,0,L|411:298,1,80,2|2,0:0|0:0,0:0:0:0:
490,364,320681,6,0,L|504:275,2,80,0|2|2,0:0|0:0|0:0,0:0:0:0:
453,208,320977,2,0,L|439:119,2,80,2|8|2,0:0|0:0|0:0,0:0:0:0:
510,68,321273,2,0,P|476:45|423:37,1,80,2|8,0:0|0:0,0:0:0:0:
276,66,321471,6,0,P|308:88|347:97,2,80,6|0|2,0:0|0:0|0:0,0:0:0:0:
157,171,321767,2,0,P|192:153|220:124,2,80,2|8|2,0:0|0:0|0:0,0:0:0:0:
92,25,322063,2,0,P|104:63|101:103,1,80,0|2,0:0|0:0,0:0:0:0:
23,182,322260,6,0,P|19:221|31:259,2,80,2|0|2,0:0|0:0|0:0,0:0:0:0:
0,353,322556,2,0,P|32:375|71:384,2,80,2|8|2,0:0|0:0|0:0,0:0:0:0:
194,254,322852,2,0,P|166:283|130:300,1,80,2|0,0:0|0:0,0:0:0:0:
288,378,323050,6,0,P|291:338|279:300,2,80,6|0|2,0:0|0:0|0:0,0:0:0:0:
421,259,323346,2,0,P|388:236|349:227,2,80,2|8|0,0:0|0:0|0:0,0:0:0:0:
378,120,323642,2,0,L|301:141,1,80,2|2,0:0|0:0,0:0:0:0:
185,119,323839,5,2,0:0:0:0:
185,119,323938,1,4,0:1:0:0:
185,119,324036,2,0,L|86:93,1,80,4|4,0:1|0:1,0:0:0:0:
0,208,324234,5,8,0:0:0:0:
11,242,324332,1,8,0:0:0:0:
48,241,324431,1,8,0:0:0:0:
56,205,324530,1,8,0:0:0:0:
25,186,324629,6,0,L|202:231,1,160,6|2,0:0|0:0,0:0:0:0:
190,304,324925,1,2,0:0:0:0:
190,304,325023,2,0,L|283:289,1,80,8|4,0:0|0:1,0:0:0:0:
333,340,325221,2,0,P|351:290|311:223,1,80,0|2,0:0|0:0,0:0:0:0:
346,184,325418,2,0,P|387:233|483:232,1,160,2|2,0:0|0:0,0:0:0:0:
427,165,325714,1,2,0:0:0:0:
427,165,325813,2,0,P|423:125|440:89,1,80,8|2,0:0|0:0,0:0:0:0:
402,19,326010,2,0,P|369:41|330:44,1,80,2|0,0:0|0:0,0:0:0:0:
258,82,326208,6,0,L|90:54,1,160,6|2,0:0|0:0,0:0:0:0:
42,111,326504,1,2,0:0:0:0:
42,111,326602,2,0,L|20:218,1,80,8|0,0:0|0:0,0:0:0:0:
88,241,326800,2,0,L|104:319,1,80,2|2,0:0|0:0,0:0:0:0:
166,369,326997,2,0,B|218:345|218:345|329:347,1,160,2|2,0:0|0:0,0:0:0:0:
396,321,327293,1,2,0:0:0:0:
396,321,327392,2,0,B|427:280|427:280|442:231,1,80,8|0,0:0|0:0,0:0:0:0:
512,91,327589,2,0,B|481:132|481:132|466:181,1,80,2|8,0:0|0:0,0:0:0:0:
393,181,327786,6,0,B|307:206|303:171|211:179,1,160,6|2,0:0|0:0,0:0:0:0:
156,197,328083,1,2,0:0:0:0:
156,197,328181,2,0,P|107:182|66:159,1,80,8|2,0:0|0:0,0:0:0:0:
61,90,328379,2,0,P|28:112|0:140,1,80,0|2,0:0|0:0,0:0:0:0:
14,219,328576,2,0,P|85:263|216:274,1,160,2|2,0:0|0:0,0:0:0:0:
235,255,328872,1,2,0:0:0:0:
235,255,328971,2,0,L|316:304,1,80,8|2,0:0|0:0,0:0:0:0:
382,252,329168,2,0,L|313:210,1,80,2|0,0:0|0:0,0:0:0:0:
467,247,329365,6,0,B|488:157|488:157|470:55,1,160,6|2,0:0|0:0,0:0:0:0:
422,30,329661,1,2,0:0:0:0:
422,30,329760,2,0,L|319:56,1,80,8|0,0:0|0:0,0:0:0:0:
283,103,329958,2,0,L|205:83,1,80,2|2,0:0|0:0,0:0:0:0:
147,139,330155,1,2,0:0:0:0:
147,139,330254,1,4,0:1:0:0:
147,139,330352,2,0,L|82:48,1,80,2|2,0:0|0:0,0:0:0:0:
30,32,330550,5,8,0:0:0:0:
11,109,330648,1,8,0:0:0:0:
21,188,330747,1,8,0:0:0:0:
60,257,330846,1,8,0:0:0:0:
16,335,330944,6,0,B|69:311|69:311|234:341,1,180.000006866455,6|2,0:0|0:0,0:0:0:0:
264,381,331240,1,0,0:0:0:0:
328,317,331339,2,0,P|377:334|415:373,1,90.0000034332277,8|4,0:0|0:1,0:0:0:0:
451,281,331536,2,0,P|484:320|498:372,1,90.0000034332277,0|2,0:0|0:0,0:0:0:0:
503,205,331734,6,0,B|508:116|508:116|451:23,1,180.000006866455,2|2,0:0|0:0,0:0:0:0:
374,9,332030,1,2,0:0:0:0:
296,55,332129,2,0,P|247:67|150:31,1,90.0000034332277,8|4,0:0|0:1,0:0:0:0:
45,20,332326,2,0,P|88:8|133:11,1,90.0000034332277,2|0,0:0|0:0,0:0:0:0:
157,125,332523,6,0,B|183:170|221:205|221:205|131:225|145:310,1,180.000006866455,6|4,0:0|0:3,0:0:0:0:
126,328,332819,1,4,0:3:0:0:
42,361,332918,2,0,B|0:328|0:328|-3:275,1,90.0000034332277,8|0,0:0|0:0,0:0:0:0:
7,201,333115,2,0,L|20:88,1,90.0000034332277,2|2,0:0|0:0,0:0:0:0:
101,76,333313,6,0,B|153:99|153:99|227:80|349:110,1,180.000006866455,0|2,0:0|0:0,0:0:0:0:
362,71,333609,1,2,0:0:0:0:
418,141,333708,2,0,L|441:270,1,90.0000034332277,8|4,0:0|0:1,0:0:0:0:
363,286,333905,2,0,P|421:319|472:310,1,90.0000034332277,2|8,0:0|0:0,0:0:0:0:
289,356,334102,6,0,P|218:314|87:320,1,180.000006866455,6|2,0:0|0:0,0:0:0:0:
32,318,334398,1,2,0:0:0:0:
76,239,334497,2,0,L|93:130,1,90.0000034332277,8|4,0:0|0:1,0:0:0:0:
158,25,334694,2,0,L|172:114,1,90.0000034332277,0|2,0:0|0:0,0:0:0:0:
243,232,334892,6,0,B|300:236|300:236|351:219|351:219|431:216,1,180.000006866455,2|2,0:0|0:0,0:0:0:0:
495,166,335188,1,2,0:0:0:0:
431,103,335286,2,0,L|325:107,1,90.0000034332277,8|2,0:0|0:0,0:0:0:0:
235,19,335484,2,0,L|325:16,1,90.0000034332277,2|0,0:0|0:0,0:0:0:0:
239,154,335681,6,0,B|226:231|226:231|263:362,1,180.000006866455,6|2,0:0|0:0,0:0:0:0:
336,365,335977,1,2,0:0:0:0:
181,365,336076,2,0,L|156:271,1,90.0000034332277,8|0,0:0|0:0,0:0:0:0:
88,335,336273,2,0,L|63:241,1,90.0000034332277,2|2,0:0|0:0,0:0:0:0:
128,187,336471,5,2,0:0:0:0:
132,142,336569,1,4,0:3:0:0:
136,97,336668,1,4,0:3:0:0:
140,52,336767,1,4,0:3:0:0:
105,19,336865,5,8,0:0:0:0:
171,10,336963,1,8,0:0:0:0:
238,22,337062,1,8,0:0:0:0:
298,51,337161,1,8,0:0:0:0:
336,42,337260,5,6,0:0:0:0:
341,75,337358,1,2,0:0:0:0:
346,108,337457,1,2,0:0:0:0:
351,141,337556,1,2,0:0:0:0:
372,169,337654,1,10,0:0:0:0:
371,205,337753,1,2,0:0:0:0:
367,240,337852,6,0,L|368:341,1,90.0000034332277,2|2,0:0|0:0,0:0:0:0:
280,317,338050,5,2,0:0:0:0:
235,338,338148,1,2,0:0:0:0:
185,341,338247,1,2,0:0:0:0:
139,323,338346,1,2,0:0:0:0:
103,289,338444,1,8,0:0:0:0:
110,253,338543,1,2,0:0:0:0:
115,217,338642,6,0,P|114:169|102:119,1,90.0000034332277,2|2,0:0|0:0,0:0:0:0:
132,19,338839,5,6,0:0:0:0:
178,0,338937,1,2,0:0:0:0:
229,0,339036,1,2,0:0:0:0:
275,19,339135,1,2,0:0:0:0:
307,58,339233,1,8,0:0:0:0:
299,93,339332,1,2,0:0:0:0:
264,126,339431,1,2,0:0:0:0:
265,161,339530,1,2,0:0:0:0:
207,212,339628,5,2,0:0:0:0:
196,262,339727,1,2,0:0:0:0:
208,312,339826,1,2,0:0:0:0:
240,351,339924,1,2,0:0:0:0:
286,373,340023,1,8,0:0:0:0:
319,359,340122,1,2,0:0:0:0:
351,344,340221,6,0,P|403:328|476:351,1,90.0000034332277,2|8,0:0|0:0,0:0:0:0:
446,227,340418,5,6,0:0:0:0:
452,197,340516,1,2,0:0:0:0:
458,168,340615,1,2,0:0:0:0:
462,138,340714,1,2,0:0:0:0:
444,106,340812,1,8,0:0:0:0:
440,70,340911,1,2,0:0:0:0:
433,34,341010,6,0,L|331:24,1,90.0000034332277,2|2,0:0|0:0,0:0:0:0:
308,109,341208,5,2,0:0:0:0:
263,111,341306,1,2,0:0:0:0:
218,114,341405,1,2,0:0:0:0:
173,117,341504,1,2,0:0:0:0:
145,93,341602,1,8,0:0:0:0:
109,87,341701,1,2,0:0:0:0:
72,87,341800,6,0,L|25:218,1,90.0000034332277,2|2,0:0|0:0,0:0:0:0:
39,352,341997,6,0,L|69:267,1,90.0000034332277,12|2,0:0|0:0,0:0:0:0:
192,157,342194,1,2,0:0:0:0:
192,157,342293,2,0,L|161:241,1,90.0000034332277,12|2,0:0|0:0,0:0:0:0:
208,384,342490,1,2,0:0:0:0:
208,384,342589,2,0,L|238:299,1,90.0000034332277,12|2,0:0|0:0,0:0:0:0:
329,162,342786,6,0,P|371:142|447:159,1,90.0000034332277,12|2,0:0|0:0,0:0:0:0:
512,307,342984,1,2,0:0:0:0:
512,307,343083,2,0,P|473:280|450:206,1,90.0000034332277,12|2,0:0|0:0,0:0:0:0:
512,0,343280,1,2,0:0:0:0:
512,0,343379,2,0,P|508:46|455:103,1,90.0000034332277,12|8,0:0|0:0,0:0:0:0:
292,86,343576,6,0,L|177:91,1,80,2|4,0:0|0:1,0:0:0:0:
189,122,343872,1,4,0:1:0:0:
189,122,343971,2,0,L|126:119,1,40,8|4,0:0|0:3,0:0:0:0:
59,93,344168,1,4,0:3:0:0:
10,250,344365,6,0,L|101:239,1,80,2|0,0:0|0:0,0:0:0:0:
119,266,344661,1,2,0:0:0:0:
119,266,344760,2,0,L|170:260,1,40,8|0,0:0|0:0,0:0:0:0:
249,207,344958,1,2,0:0:0:0:
293,352,345155,5,0,0:0:0:0:
293,352,345254,1,2,0:0:0:0:
293,352,345352,1,2,0:0:0:0:
372,227,345550,1,8,0:0:0:0:
466,325,345747,5,4,0:1:0:0:
483,288,345846,1,4,0:1:0:0:
489,248,345944,2,0,L|489:189,1,40,2|4,0:0|0:1,0:0:0:0:
450,109,346142,2,0,L|421:137,1,40,4|4,0:3|0:3,0:0:0:0:
280,131,346339,2,0,L|320:130,1,40,12|2,0:0|0:0,0:0:0:0:
210,39,346536,1,8,0:0:0:0:
150,50,346635,1,8,0:0:0:0:
102,87,346734,5,4,0:1:0:0:
64,73,346833,1,4,0:1:0:0:
26,85,346931,1,4,0:1:0:0:
1,117,347030,1,4,0:1:0:0:
33,140,347129,5,12,0:0:0:0:
36,179,347227,1,4,0:3:0:0:
61,209,347326,1,4,0:3:0:0:
61,249,347425,1,4,0:3:0:0:
22,319,347523,5,6,0:0:0:0:
75,313,347621,1,4,0:3:0:0:
128,307,347720,1,4,0:3:0:0:
181,301,347819,1,4,0:3:0:0:
228,360,347918,5,12,0:0:0:0:
304,344,348016,1,8,0:0:0:0:
348,279,348115,1,8,0:0:0:0:
335,202,348214,1,8,0:0:0:0:
279,144,348313,86,0,B|235:138|235:138|199:100|199:100|194:57|194:57|166:92|166:92|116:104|116:104|76:86|76:86|94:127|94:127|79:178|79:178|43:203|43:203|86:209|86:209|122:246|122:246|128:290|128:290|155:254|155:254|205:241|205:241|245:261|245:261|228:219|228:219|238:187,1,777.066635838218,2|0,0:0|0:0,0:0:0:0:
161,173,351471,1,4,0:3:0:0:
