osu file format v14

[General]
AudioFilename: audio.mp3
AudioLeadIn: 0
PreviewTime: 103122
Countdown: 0
SampleSet: None
StackLeniency: 0.7
Mode: 0
LetterboxInBreaks: 0
WidescreenStoryboard: 0

[Editor]
Bookmarks: 13303,26163,39023,51883,64743,77603,90463,103323,116183
DistanceSpacing: 1
BeatDivisor: 2
GridSize: 8
TimelineZoom: 1.7

[Metadata]
Title:Theme A
TitleUnicode:Theme A
Artist:RichaadEB
ArtistUnicode:RichaadEB
Creator:Night Mare
Version:Easy
Source:Тетрис
Tags:luna tetris Коробе́йники Korobeiniki Nikolay Nekrasov remix cover metal instrumental video game
BeatmapID:2168539
BeatmapSetID:1036732

[Difficulty]
HPDrainRate:2
CircleSize:2.5
OverallDifficulty:2
ApproachRate:3
SliderMultiplier:0.999999999999999
SliderTickRate:1

[Events]
//Background and Video events
0,0,"image.jpg",0,0
//Break Periods
//Storyboard Layer 0 (Background)
//Storyboard Layer 1 (Fail)
//Storyboard Layer 2 (Pass)
//Storyboard Layer 3 (Foreground)
//Storyboard Layer 4 (Overlay)
//Storyboard Sound Samples

[TimingPoints]
443,401.875418620228,4,2,1,50,1,0
11695,-100,4,2,1,30,0,0
12499,-100,4,2,1,40,0,0
12901,-100,4,2,1,50,0,0
13102,-100,4,2,1,60,0,0
13303,-100,4,1,1,70,0,0
26163,-100,4,2,1,60,0,0
32593,-100,4,1,1,70,0,0
39023,-100,4,2,1,60,0,0
49471,-100,4,2,1,65,0,0
50275,-100,4,2,1,70,0,0
51883,-100,4,1,1,80,0,1
64743,-100,4,2,1,60,0,0
77603,-100,4,2,1,65,0,0
80818,-100,4,2,1,70,0,0
84033,-100,4,2,1,65,0,0
87248,-100,4,2,1,70,0,0
90463,-100,4,1,1,70,0,0
103323,-100,4,1,1,80,0,1
109753,-100,4,1,1,85,0,1
112968,-100,4,1,1,90,0,1
114575,-100,4,1,1,80,0,1
116183,-100,4,2,1,80,0,0
116584,-100,4,2,1,50,0,0

[Colours]
Combo1 : 255,128,128
Combo2 : 217,128,255
Combo3 : 255,223,128

[HitObjects]
125,115,443,5,6,1:2:0:0:
50,181,844,2,0,P|22:273|80:350,1,200,2|2,1:2|1:2,0:0:0:0:
179,339,2050,1,6,1:2:0:0:
374,382,2854,2,0,L|391:283,1,99.9999999999999,2|2,1:2|1:2,0:0:0:0:
409,184,3658,5,6,1:2:0:0:
211,152,4461,1,6,1:2:0:0:
391,65,5265,2,0,P|440:60|484:83,2,99.9999999999999,6|2|2,1:2|1:2|1:2,0:0:0:0:
145,15,7073,5,2,0:0:0:0:
3,64,7676,2,0,L|20:162,1,99.9999999999999,2|10,1:2|1:2,0:0:0:0:
41,260,8480,1,6,1:2:0:0:
205,374,9284,2,0,P|253:380|298:358,1,99.9999999999999,2|10,1:2|1:2,0:0:0:0:
348,271,10088,6,0,L|367:160,1,99.9999999999999,2|2,1:2|1:2,0:0:0:0:
431,97,10891,2,0,L|413:-1,2,99.9999999999999,2|10|2,1:2|1:2|0:0,0:0:0:0:
512,277,13303,6,0,B|492:304|492:304|427:316,1,99.9999999999999,6|10,0:2|0:2,0:0:0:0:
342,263,14106,2,0,L|243:280,1,99.9999999999999,2|10,0:2|0:2,0:0:0:0:
144,295,14910,1,2,0:2:0:0:
0,155,15714,2,0,P|-5:105|17:61,1,99.9999999999999,2|10,0:2|0:2,0:0:0:0:
116,67,16518,6,0,L|214:49,1,99.9999999999999,2|10,0:2|0:2,0:0:0:0:
271,131,17321,2,0,L|369:113,1,99.9999999999999,2|10,0:2|0:2,0:0:0:0:
467,91,18125,2,0,P|473:42|451:-1,2,99.9999999999999,2|10|10,0:2|0:2|0:2,0:0:0:0:
298,199,19733,6,0,L|199:216,1,99.9999999999999,0|8,0:2|0:2,0:0:0:0:
100,232,20536,1,2,0:2:0:0:
77,329,20938,1,8,0:3:0:0:
164,377,21340,2,0,L|262:359,1,99.9999999999999,2|8,0:2|0:2,0:0:0:0:
359,334,22144,1,2,0:2:0:0:
495,187,22948,5,2,0:2:0:0:
419,122,23349,1,2,0:2:0:0:
336,178,23751,2,0,L|238:160,1,99.9999999999999,2|2,0:2|0:2,0:0:0:0:
175,80,24555,1,8,0:2:0:0:
81,34,24957,1,8,0:2:0:0:
16,110,25359,2,0,P|-5:154|0:203,1,99.9999999999999,10|0,0:2|0:2,0:0:0:0:
43,294,26163,6,0,B|70:313|70:313|135:301,1,99.9999999999999,6|0,1:2|0:0,0:0:0:0:
233,281,26966,1,8,1:2:0:0:
290,89,27770,2,0,L|392:107,1,99.9999999999999,2|2,0:2|0:0,0:0:0:0:
486,126,28574,1,10,1:2:0:0:
512,324,29378,6,0,B|493:351|493:351|427:362,1,99.9999999999999,2|2,0:2|1:2,0:2:0:0:
327,373,30181,1,10,1:2:0:0:
237,328,30583,1,10,1:2:0:0:
144,365,30985,2,0,B|124:254|124:254|152:184|152:184|131:66,1,300,10|8,1:2|1:2,0:0:0:0:
32,69,32593,6,0,L|49:167,1,99.9999999999999,0|8,0:2|0:2,0:0:0:0:
19,263,33396,1,2,0:2:0:0:
36,361,33798,1,8,0:3:0:0:
133,381,34200,2,0,L|231:363,1,99.9999999999999,2|8,0:2|0:2,0:0:0:0:
328,337,35004,1,2,0:2:0:0:
332,136,35808,5,2,0:2:0:0:
401,64,36209,1,2,0:2:0:0:
495,95,36611,2,0,P|518:138|511:186,1,99.9999999999999,2|2,0:2|0:2,0:0:0:0:
442,268,37415,5,8,0:2:0:0:
343,249,37817,1,8,0:2:0:0:
291,334,38219,2,0,B|271:361|271:361|206:373,1,99.9999999999999,8|8,1:3|1:3,0:0:0:0:
105,368,39023,6,0,P|51:286|74:192,1,200,6|2,1:2|1:2,0:2:0:0:
273,213,40630,2,0,B|414:187|414:187|446:142,1,200,2|2,1:2|1:2,0:2:0:0:
308,0,42238,2,0,B|237:12|237:12|204:58|204:58|134:71,1,200,2|2,1:2|1:2,0:2:0:0:
0,221,43845,2,0,P|-5:269|16:314,1,99.9999999999999,2|0,1:2|1:2,0:2:0:0:
93,378,44649,2,0,L|191:360,1,99.9999999999999,2|8,1:2|1:2,0:2:0:0:
290,374,45453,6,0,P|343:292|320:198,1,200,6|2,1:2|1:2,0:0:0:0:
206,33,47060,2,0,L|402:-1,1,200,2|2,1:2|1:2,0:0:0:0:
512,166,48668,1,6,1:2:0:0:
512,266,49069,1,2,1:2:0:0:
415,291,49471,2,0,L|296:311,1,99.9999999999999,2|0,1:2|1:0,0:0:0:0:
247,380,50275,6,0,B|197:303|246:239|246:239|294:175|246:99,1,300,6|8,1:2|1:2,0:0:0:0:
207,8,51883,6,0,P|165:34|147:79,1,99.9999999999999,6|2,0:2|0:2,0:0:0:0:
175,175,52686,2,0,L|76:192,1,99.9999999999999,2|2,0:2|0:2,0:0:0:0:
3,261,53490,1,2,0:2:0:0:
61,342,53892,1,2,0:2:0:0:
156,311,54294,2,0,L|254:328,1,99.9999999999999,2|2,0:2|0:2,0:0:0:0:
353,342,55098,5,2,0:2:0:0:
503,210,55901,1,2,0:2:0:0:
431,139,56303,1,2,0:2:0:0:
357,207,56705,2,0,L|258:189,2,99.9999999999999,10|10|10,0:2|0:2|0:2,0:0:0:0:
496,62,58313,6,0,P|451:40|402:44,1,99.9999999999999,0|8,0:2|0:2,0:0:0:0:
322,105,59116,1,2,0:2:0:0:
252,33,59518,1,8,0:3:0:0:
191,112,59920,2,0,P|146:133|97:129,1,99.9999999999999,2|8,0:2|0:2,0:0:0:0:
12,77,60724,1,2,0:2:0:0:
0,277,61528,5,2,0:2:0:0:
59,357,61929,1,2,0:2:0:0:
145,306,62331,2,0,L|243:323,1,99.9999999999999,2|2,0:2|0:2,0:0:0:0:
333,367,63135,5,10,0:2:0:0:
410,303,63537,1,2,0:2:0:0:
341,230,63939,2,0,B|321:202|321:202|333:137,1,99.9999999999999,10|8,0:2|0:2,0:0:0:0:
313,39,64743,6,0,P|268:18|218:22,1,99.9999999999999,6|2,0:0|1:2,0:0:0:0:
129,67,65546,1,10,1:2:0:0:
0,217,66350,2,0,L|17:315,1,99.9999999999999,2|2,1:2|0:0,0:0:0:0:
94,379,67154,1,10,1:2:0:0:
172,317,67556,1,2,1:2:0:0:
258,367,67958,6,0,P|307:370|352:349,1,99.9999999999999,2|2,1:2|0:0,0:0:0:0:
370,251,68761,1,10,1:2:0:0:
213,126,69565,1,2,1:2:0:0:
254,34,69967,1,2,1:2:0:0:
353,20,70369,2,0,L|463:39,1,99.9999999999999,2|8,1:2|1:3,0:0:0:0:
512,117,71173,6,0,B|524:182|524:182|504:210,1,99.9999999999999,0|0,1:0|1:0,0:0:0:0:
425,271,71976,1,10,1:2:0:0:
319,100,72780,6,0,P|274:78|224:81,1,99.9999999999999,2|0,1:2|1:0,0:0:0:0:
162,160,73584,1,10,1:2:0:0:
70,120,73986,1,2,1:2:0:0:
0,191,74388,2,0,L|17:289,1,99.9999999999999,2|2,1:2|1:2,1:2:0:0:
59,380,75191,1,10,1:2:0:0:
222,264,75995,6,0,P|267:244|316:250,1,99.9999999999999,2|2,1:2|1:2,0:0:0:0:
407,293,76799,2,0,L|424:194,1,99.9999999999999,10|8,1:2|1:2,0:0:0:0:
495,124,77603,5,6,1:2:0:0:
437,42,78004,1,2,1:2:0:0:
349,90,78406,2,0,P|299:96|254:76,1,99.9999999999999,2|2,1:2|1:2,0:0:0:0:
157,51,79210,2,0,B|122:132|217:148|180:242,1,200,2|2,1:2|1:2,0:0:0:0:
84,267,80416,1,2,1:2:0:0:
41,357,80818,6,0,P|86:377|135:370,1,99.9999999999999,6|2,0:2|0:2,0:0:0:0:
226,330,81621,1,2,1:2:0:0:
322,303,82023,2,0,B|409:290|400:386|500:374,2,200,2|2|10,1:2|1:2|1:2,0:0:0:0:
222,321,84033,6,0,P|157:202|272:128,1,300,6|0,1:2|1:0,0:0:0:0:
356,183,85640,2,0,P|401:203|450:196,1,99.9999999999999,2|0,1:2|1:0,0:0:0:0:
512,117,86444,1,2,1:2:0:0:
349,0,87248,5,6,1:2:0:0:
279,71,87649,1,2,1:2:0:0:
192,21,88051,2,0,P|147:1|98:8,1,99.9999999999999,2|2,1:2|1:2,0:0:0:0:
17,67,88855,6,0,B|-16:121|21:163|21:163|-18:213|1:275|69:300|123:243,1,300,2|2,1:2|1:2,0:0:0:0:
170,178,90463,6,0,L|268:160,1,99.9999999999999,6|10,0:2|0:2,0:0:0:0:
368,160,91266,2,0,P|388:205|381:254,1,99.9999999999999,2|10,0:2|0:2,0:0:0:0:
309,323,92070,1,2,0:2:0:0:
119,384,92874,2,0,L|20:366,1,99.9999999999999,2|10,0:2|0:2,0:0:0:0:
0,268,93678,6,0,P|-3:218|19:175,1,99.9999999999999,2|10,0:2|0:2,0:0:0:0:
119,178,94481,2,0,L|218:160,1,99.9999999999999,2|10,0:2|0:2,0:0:0:0:
290,91,95285,2,0,P|293:41|270:-1,2,99.9999999999999,2|10|10,0:2|0:2|0:2,0:0:0:0:
138,222,96893,6,0,L|157:332,1,99.9999999999999,0|8,0:2|0:2,0:0:0:0:
243,366,97696,1,2,0:2:0:0:
334,325,98098,1,8,0:3:0:0:
338,225,98500,2,0,P|383:205|431:212,1,99.9999999999999,2|8,0:2|0:2,0:0:0:0:
504,282,99304,1,2,0:2:0:0:
512,82,100108,5,2,0:2:0:0:
441,11,100509,1,2,0:2:0:0:
366,77,100911,2,0,L|267:59,1,99.9999999999999,2|2,0:2|0:2,0:0:0:0:
170,32,101715,1,8,0:2:0:0:
114,115,102117,1,8,0:2:0:0:
181,188,102519,2,0,B|200:215|200:215|188:280,1,99.9999999999999,10|0,0:2|0:2,0:0:0:0:
152,374,103323,6,0,P|200:381|245:361,1,99.9999999999999,6|2,0:2|0:2,0:0:0:0:
340,327,104126,2,0,L|357:228,1,99.9999999999999,2|2,0:2|0:2,0:0:0:0:
323,134,104930,1,2,0:2:0:0:
406,78,105332,1,2,0:2:0:0:
325,18,105734,2,0,P|282:-4|233:-1,1,99.9999999999999,2|2,0:2|0:2,0:0:0:0:
149,55,106538,5,2,0:2:0:0:
0,189,107341,1,2,0:2:0:0:
63,265,107743,1,2,0:2:0:0:
147,211,108145,2,0,L|245:228,2,99.9999999999999,10|10|10,0:2|0:2|0:2,0:0:0:0:
112,13,109753,6,0,P|157:-7|206:-1,1,99.9999999999999,0|8,0:2|0:2,0:2:0:0:
277,68,110556,1,10,0:2:0:0:
362,16,110958,1,10,0:2:0:0:
454,55,111360,2,0,L|471:153,1,99.9999999999999,14|8,0:2|0:2,0:0:0:0:
504,248,112164,1,10,0:2:0:0:
426,311,112566,1,10,0:2:0:0:
353,241,112968,5,14,0:2:0:0:
275,304,113369,1,10,0:2:0:0:
184,260,113771,2,0,L|163:141,1,99.9999999999999,10|10,0:2|0:2,0:2:0:0:
89,97,114575,6,0,L|109:-21,2,99.9999999999999,2|2|2,0:2|0:2|0:2,0:0:0:0:
54,294,116183,5,14,1:2:0:0:
