osu file format v14

[General]
AudioFilename: audio.mp3
AudioLeadIn: 0
PreviewTime: 19007
Countdown: 0
SampleSet: Drum
StackLeniency: 0.2
Mode: 0
LetterboxInBreaks: 0
EpilepsyWarning: 1
WidescreenStoryboard: 1

[Editor]
Bookmarks: 60,1323,21533,41744,61954,82165,102375,107428,107744,107902,108060,108375,108691,108849,109007,109323,122586,142796,163007,183217,193323,203428
DistanceSpacing: 1.5
BeatDivisor: 4
GridSize: 8
TimelineZoom: 2.2

[Metadata]
Title:The World Revolving
TitleUnicode:The World Revolving
Artist:RichaadEB
ArtistUnicode:RichaadEB
Creator:K4L1
Version:this-old-diff-will-be-deleted
Source:DELTARUNE
Tags:rensia yshadowxop_ alextroiipsy chapter 1 jevil metal cover undertale instrumental toby fox radiation anointed merit prelude that which will not be contained
BeatmapID:2740381
BeatmapSetID:885821

[Difficulty]
HPDrainRate:5.5
CircleSize:4.2
OverallDifficulty:9.5
ApproachRate:9.6
SliderMultiplier:1.4
SliderTickRate:1

[Events]
//Background and Video events
0,0,"JEVIL.jpg",0,0
//Break Periods
//Storyboard Layer 0 (Background)
//Storyboard Layer 1 (Fail)
//Storyboard Layer 2 (Pass)
//Storyboard Layer 3 (Foreground)
//Storyboard Layer 4 (Overlay)
//Storyboard Sound Samples

[TimingPoints]
60,315.789473684211,4,3,1,85,1,0
1323,-66.6666666666667,4,3,1,85,0,0
3849,-57.1428571428571,4,3,1,85,0,0
5349,-57.1428571428571,4,3,1,5,0,0
5428,-57.1428571428571,4,3,1,85,0,0
5665,-57.1428571428571,4,3,1,5,0,0
5744,-57.1428571428571,4,3,1,85,0,0
6375,-66.6666666666667,4,3,1,85,0,0
8902,-57.1428571428571,4,3,1,85,0,0
11428,-66.6666666666667,4,3,1,85,0,0
13954,-57.1428571428571,4,3,1,85,0,0
15454,-57.1428571428571,4,3,1,5,0,0
15533,-57.1428571428571,4,3,1,85,0,0
15770,-57.1428571428571,4,3,1,5,0,0
15849,-57.1428571428571,4,3,1,85,0,0
16481,-66.6666666666667,4,2,2,85,0,0
16638,-66.6666666666667,4,3,1,85,0,0
19007,-100,4,3,1,85,0,0
19560,-100,4,3,1,5,0,0
19638,-100,4,3,1,85,0,0
20191,-100,4,3,1,5,0,0
20270,-66.6666666666667,4,2,2,85,0,0
20349,-66.6666666666667,4,3,1,85,0,0
21533,-57.1428571428571,4,3,1,85,0,1
41744,-50,4,3,1,85,0,1
60691,-100,4,3,1,85,0,0
61954,-57.1428571428571,4,3,1,85,0,0
71744,-44.4444444444445,4,3,1,85,0,0
71981,-44.4444444444445,4,3,1,5,0,0
72060,-57.1428571428571,4,3,1,85,0,0
80902,-44.4444444444445,4,3,1,85,0,0
80981,-44.4444444444445,4,2,2,85,0,0
81060,-44.4444444444445,4,3,1,85,0,0
82165,-50,4,3,1,85,0,1
101033,-50,4,2,2,85,0,1
101112,-50,4,3,1,85,0,1
102375,-57.1428571428571,4,3,1,85,0,0
104665,-57.1428571428571,4,3,1,5,0,0
104744,-57.1428571428571,4,3,1,85,0,0
120060,-80,4,3,1,85,0,0
121244,-80,4,2,2,85,0,0
121323,-66.6666666666667,4,3,1,85,0,0
121954,-57.1428571428571,4,3,1,85,0,0
122586,-57.1428571428571,4,3,1,85,0,1
142796,-57.1428571428571,4,3,1,85,0,1
152902,-133.333333333333,4,3,1,85,0,1
157954,-57.1428571428571,4,3,1,85,0,1
161744,-100,4,3,1,85,0,0
163007,-57.1428571428571,4,3,1,85,0,0
172796,-44.4444444444445,4,3,1,85,0,0
173033,-44.4444444444445,4,3,1,5,0,0
173112,-57.1428571428571,4,3,1,85,0,0
181954,-44.4444444444445,4,2,2,85,0,0
182033,-44.4444444444445,4,3,1,85,0,0
183217,-200,4,3,1,85,0,0
183612,-200,4,3,1,5,0,0
183691,-200,4,3,1,85,0,0
184244,-200,4,3,1,5,0,0
184323,-200,4,3,1,85,0,0
184875,-200,4,3,1,5,0,0
184954,-200,4,3,1,85,0,0
186138,-200,4,3,1,5,0,0
186217,-200,4,3,1,85,0,0
186770,-200,4,3,1,5,0,0
186849,-200,4,3,1,85,0,0
187402,-200,4,3,1,5,0,0
187481,-200,4,3,1,85,0,0
188270,-80,4,3,1,85,0,0
193323,-57.1428571428571,4,3,1,85,0,1
203428,-200,4,3,1,85,0,0

[Colours]
Combo1 : 83,23,24
Combo2 : 83,83,176
Combo3 : 170,249,6
Combo4 : 255,255,0
SliderBorder : 100,50,150
SliderTrackOverride : 15,0,30

[HitObjects]
174,308,60,5,0,0:0:0:0:
145,311,138,1,0,0:0:0:0:
118,316,217,2,0,L|83:321,1,35,0|0,0:0|0:0,0:0:0:0:
143,232,375,2,0,L|152:192,1,35,0|0,0:0|0:0,0:0:0:0:
257,365,532,5,0,0:0:0:0:
257,365,611,1,0,0:0:0:0:
257,365,691,2,0,L|257:320,1,35,0|0,0:0|0:0,0:0:0:0:
367,204,849,5,0,0:0:0:0:
367,204,928,1,0,0:0:0:0:
367,204,1007,2,0,L|379:236,1,35,0|0,0:0|0:0,0:0:0:0:
463,351,1165,2,0,L|428:345,1,35,0|0,0:0|0:0,0:0:0:0:
284,216,1323,6,0,P|288:164|328:124,1,105.000004005432,0|0,0:0|0:0,0:0:0:0:
446,319,1638,2,0,L|322:303,1,105.000004005432,0|0,0:0|0:0,0:0:0:0:
228,216,1954,6,0,P|223:164|183:124,1,105.000004005432,0|0,0:0|0:0,0:0:0:0:
66,319,2270,2,0,L|190:303,1,105.000004005432,0|0,0:0|0:0,0:0:0:0:
324,127,2586,6,0,P|288:164|284:216,1,105.000004005432,0|0,0:0|0:0,0:0:0:0:
170,305,2902,2,0,L|66:319,1,105.000004005432,0|0,0:0|0:0,0:0:0:0:
187,127,3217,6,0,P|223:164|228:216,1,105.000004005432,0|0,0:0|0:0,0:0:0:0:
341,305,3533,1,0,0:0:0:0:
348,312,3691,1,0,0:0:0:0:
147,198,3849,6,0,P|114:86|218:55,1,245.000002336502,0|0,0:0|0:0,0:0:0:0:
301,171,4323,2,0,L|185:126,1,122.500001168251,0|0,0:0|0:0,0:0:0:0:
73,79,4638,1,0,0:0:0:0:
343,44,4796,1,0,0:0:0:0:
366,36,5112,6,0,B|385:77|373:119|373:119|384:148|384:148|369:192|392:247,1,183.750001752377,0|0,0:0|0:0,0:0:0:0:
394,217,5428,2,0,B|381:194|396:150|396:150|385:121|385:121|397:79|378:38,1,183.750001752377,0|0,0:0|0:0,0:0:0:0:
455,273,5744,5,0,0:0:0:0:
470,192,5902,1,0,0:0:0:0:
347,328,6060,1,0,0:0:0:0:
339,337,6217,6,0,P|365:316|382:294,1,61.2500005841255,0|0,0:0|0:0,0:0:0:0:
249,281,6375,1,0,0:0:0:0:
198,268,6453,1,0,0:0:0:0:
148,283,6533,1,0,0:0:0:0:
112,321,6612,1,0,0:0:0:0:
100,371,6691,2,0,P|74:319|59:265,1,105.000004005432,0|0,0:0|0:0,0:0:0:0:
256,283,7007,6,0,L|201:375,1,105.000004005432,0|0,0:0|0:0,0:0:0:0:
161,178,7323,2,0,P|109:174|57:180,1,105.000004005432,0|0,0:0|0:0,0:0:0:0:
309,192,7638,6,0,L|254:284,1,105.000004005432,0|0,0:0|0:0,0:0:0:0:
110,89,7954,2,0,P|165:83|219:88,1,105.000004005432,0|0,0:0|0:0,0:0:0:0:
256,283,8270,6,0,L|201:375,1,105.000004005432,0|0,0:0|0:0,0:0:0:0:
161,178,8586,1,0,0:0:0:0:
158,167,8744,1,0,0:0:0:0:
295,364,8902,6,0,B|349:371|398:344|398:344|429:360|429:360|453:299|515:296,1,245.000002336502,0|0,0:0|0:0,0:0:0:0:
512,384,9375,1,0,0:0:0:0:
338,288,9533,2,0,P|312:233|326:170,1,122.500001168251,0|0,0:0|0:0,0:0:0:0:
400,223,9849,1,0,0:0:0:0:
409,230,10007,1,0,0:0:0:0:
191,88,10165,6,0,B|171:142|191:193|191:193|180:227|180:227|202:289|179:359|179:359|151:322|161:269,1,367.500003504753,0|0,0:0|0:0,0:0:0:0:
162,268,10717,1,0,0:0:0:0:
266,228,10796,2,0,P|273:289|267:349,1,122.500001168251,0|0,0:0|0:0,0:0:0:0:
266,355,11033,1,0,0:0:0:0:
265,361,11112,1,0,0:0:0:0:
87,196,11270,1,0,0:0:0:0:
351,289,11428,6,0,L|449:335,1,105.000004005432,0|0,0:0|0:0,0:0:0:0:
266,228,11744,2,0,P|258:176|268:125,1,105.000004005432,0|0,0:0|0:0,0:0:0:0:
438,230,12060,6,0,L|351:290,1,105.000004005432,0|0,0:0|0:0,0:0:0:0:
267,125,12375,2,0,P|276:73|268:19,1,105.000004005432,0|0,0:0|0:0,0:0:0:0:
342,185,12691,6,0,L|438:230,1,105.000004005432,0|0,0:0|0:0,0:0:0:0:
163,123,13007,2,0,P|214:115|266:124,1,105.000004005432,0|0,0:0|0:0,0:0:0:0:
428,124,13323,6,0,L|340:186,1,105.000004005432,0|0,0:0|0:0,0:0:0:0:
422,33,13638,1,0,0:0:0:0:
412,38,13796,1,0,0:0:0:0:
99,62,13954,6,0,B|64:110|89:169|89:169|75:201|75:201|100:244|77:295,1,245.000002336502,0|0,0:0|0:0,0:0:0:0:
199,250,14428,2,0,P|204:186|173:132,1,122.500001168251,0|0,0:0|0:0,0:0:0:0:
190,47,14744,1,0,0:0:0:0:
161,339,14902,1,0,0:0:0:0:
155,362,15217,6,0,B|196:361|235:344|235:344|264:358|264:358|306:337|361:338,1,183.750001752377,0|0,0:0|0:0,0:0:0:0:
330,354,15533,2,0,B|305:351|263:372|263:372|234:358|234:358|195:375|154:376,1,183.750001752377,0|0,0:0|0:0,0:0:0:0:
77,293,15849,5,0,0:0:0:0:
54,384,16007,1,0,0:0:0:0:
239,215,16165,1,0,0:0:0:0:
140,208,16323,5,0,0:0:0:0:
140,208,16402,1,0,0:0:0:0:
140,208,16481,2,0,P|151:260|192:300,1,105.000004005432,0|0,0:0|0:0,0:0:0:0:
237,304,16717,1,0,0:0:0:0:
286,285,16796,2,0,L|394:306,1,105.000004005432,0|0,0:0|0:0,0:0:0:0:
443,214,17112,6,0,L|339:193,1,105.000004005432,0|0,0:0|0:0,0:0:0:0:
301,157,17349,1,0,0:0:0:0:
277,110,17428,2,0,L|173:130,1,105.000004005432,0|0,0:0|0:0,0:0:0:0:
378,87,17744,5,0,0:0:0:0:
124,140,17902,1,0,0:0:0:0:
118,88,17980,1,0,0:0:0:0:
145,44,18060,2,0,L|248:23,1,105.000004005432,0|0,0:0|0:0,0:0:0:0:
237,204,18375,5,0,0:0:0:0:
145,44,18533,1,0,0:0:0:0:
145,44,18612,1,0,0:0:0:0:
145,44,18691,5,0,0:0:0:0:
118,88,18770,1,0,0:0:0:0:
124,140,18849,1,0,0:0:0:0:
155,182,18928,1,0,0:0:0:0:
233,213,19007,6,0,B|196:281|122:316|122:316|91:284|92:233,1,245,0|0,0:0|0:0,0:0:0:0:
233,213,19638,6,0,B|269:281|343:316|343:316|374:284|373:233,1,245,0|0,0:0|0:0,0:0:0:0:
237,204,20270,5,0,0:0:0:0:
241,152,20349,1,0,0:0:0:0:
273,111,20428,1,0,0:0:0:0:
322,95,20507,1,0,0:0:0:0:
372,109,20586,1,0,0:0:0:0:
421,122,20664,1,0,0:0:0:0:
471,106,20743,1,0,0:0:0:0:
502,66,20822,1,0,0:0:0:0:
507,14,20902,5,0,0:0:0:0:
438,50,20980,1,0,0:0:0:0:
397,116,21059,1,0,0:0:0:0:
395,193,21138,1,0,0:0:0:0:
435,261,21217,5,0,0:0:0:0:
371,211,21295,1,0,0:0:0:0:
294,188,21374,1,0,0:0:0:0:
214,195,21453,1,0,0:0:0:0:
143,232,21533,6,0,L|93:278,1,61.2500005841255,0|0,0:0|0:0,0:0:0:0:
264,321,21691,2,0,L|314:367,1,61.2500005841255,0|0,0:0|0:0,0:0:0:0:
53,313,21849,5,0,0:0:0:0:
15,264,21928,1,0,0:0:0:0:
42,213,22007,2,0,L|57:146,1,61.2500005841255,0|0,0:0|0:0,0:0:0:0:
178,81,22165,2,0,P|147:81|119:93,1,61.2500005841255,0|0,0:0|0:0,0:0:0:0:
0,20,22323,2,0,P|22:40|36:67,1,61.2500005841255,0|0,0:0|0:0,0:0:0:0:
174,212,22481,5,0,0:0:0:0:
174,212,22560,1,0,0:0:0:0:
174,212,22638,1,0,0:0:0:0:
174,212,22717,1,0,0:0:0:0:
174,212,22796,2,0,L|126:164,1,61.2500005841255,0|0,0:0|0:0,0:0:0:0:
282,225,22954,6,0,P|310:234|341:233,1,61.2500005841255,0|0,0:0|0:0,0:0:0:0:
242,328,23112,2,0,P|255:355|277:375,1,61.2500005841255,0|0,0:0|0:0,0:0:0:0:
285,217,23270,2,0,P|313:226|344:225,1,61.2500005841255,0|0,0:0|0:0,0:0:0:0:
398,348,23428,2,0,P|448:317|475:250,1,122.500001168251,0|0,0:0|0:0,0:0:0:0:
428,106,23744,5,0,0:0:0:0:
398,98,23823,1,0,0:0:0:0:
367,104,23902,1,0,0:0:0:0:
340,119,23981,1,0,0:0:0:0:
318,141,24060,2,0,P|252:131|204:92,1,122.500001168251,0|0,0:0|0:0,0:0:0:0:
305,33,24375,5,0,0:0:0:0:
305,33,24454,1,0,0:0:0:0:
305,33,24533,1,0,0:0:0:0:
99,54,24691,2,0,P|165:64|213:103,1,122.500001168251,0|0,0:0|0:0,0:0:0:0:
82,213,25007,5,0,0:0:0:0:
93,198,25086,1,0,0:0:0:0:
103,182,25165,1,0,0:0:0:0:
114,167,25244,1,0,0:0:0:0:
126,153,25323,1,0,0:0:0:0:
167,300,25481,6,0,L|108:285,1,61.2500005841255,0|0,0:0|0:0,0:0:0:0:
208,191,25638,2,0,L|234:247,1,61.2500005841255,0|0,0:0|0:0,0:0:0:0:
160,308,25796,2,0,L|102:291,1,61.2500005841255,0|0,0:0|0:0,0:0:0:0:
328,250,25954,2,0,L|370:134,1,122.500001168251,0|0,0:0|0:0,0:0:0:0:
268,339,26270,5,0,0:0:0:0:
277,322,26349,1,0,0:0:0:0:
295,322,26428,1,0,0:0:0:0:
301,339,26507,1,0,0:0:0:0:
288,352,26586,2,0,P|220:367|159:390,1,122.500001168251,0|0,0:0|0:0,0:0:0:0:
480,328,26902,5,0,0:0:0:0:
512,308,26981,1,0,0:0:0:0:
480,289,27060,1,0,0:0:0:0:
365,384,27217,1,0,0:0:0:0:
411,156,27375,1,0,0:0:0:0:
208,272,27533,5,0,0:0:0:0:
198,299,27612,1,0,0:0:0:0:
188,326,27691,2,0,L|168:392,1,61.2500005841255,0|0,0:0|0:0,0:0:0:0:
172,181,27849,2,0,P|240:196|301:219,1,122.500001168251,0|0,0:0|0:0,0:0:0:0:
116,311,28165,5,0,0:0:0:0:
84,291,28244,1,0,0:0:0:0:
116,272,28323,1,0,0:0:0:0:
0,246,28481,1,0,0:0:0:0:
170,384,28638,1,0,0:0:0:0:
35,147,28796,5,0,0:0:0:0:
60,91,28874,1,0,0:0:0:0:
106,52,28953,1,0,0:0:0:0:
164,35,29032,1,0,0:0:0:0:
224,45,29112,2,0,L|188:174,1,122.500001168251,0|0,0:0|0:0,0:0:0:0:
307,52,29428,5,0,0:0:0:0:
321,111,29507,1,0,0:0:0:0:
335,170,29586,1,0,0:0:0:0:
379,16,29744,2,0,L|463:104,1,122.500001168251,0|0,0:0|0:0,0:0:0:0:
208,104,30060,6,0,L|224:45,1,61.2500005841255,0|0,0:0|0:0,0:0:0:0:
335,170,30217,1,0,0:0:0:0:
349,229,30296,1,0,0:0:0:0:
363,288,30375,2,0,L|378:349,1,61.2500005841255,0|0,0:0|0:0,0:0:0:0:
284,266,30533,2,0,L|223:248,1,61.2500005841255,0|0,0:0|0:0,0:0:0:0:
422,232,30691,2,0,L|467:188,1,61.2500005841255,0|0,0:0|0:0,0:0:0:0:
298,361,30849,5,0,0:0:0:0:
298,361,30928,1,0,0:0:0:0:
298,361,31007,2,0,L|226:338,1,61.2500005841255,0|0,0:0|0:0,0:0:0:0:
458,313,31165,2,0,L|503:269,1,61.2500005841255,0|0,0:0|0:0,0:0:0:0:
320,111,31323,2,0,L|335:172,1,61.2500005841255,0|0,0:0|0:0,0:0:0:0:
152,307,31481,5,0,0:0:0:0:
152,307,31560,1,0,0:0:0:0:
152,307,31638,2,0,L|137:247,1,61.2500005841255,0|0,0:0|0:0,0:0:0:0:
106,127,31796,5,0,0:0:0:0:
166,123,31874,1,0,0:0:0:0:
220,150,31953,1,0,0:0:0:0:
253,201,32032,1,0,0:0:0:0:
287,250,32111,1,0,0:0:0:0:
343,272,32190,1,0,0:0:0:0:
402,257,32270,2,0,L|448:217,1,61.2500005841255,0|0,0:0|0:0,0:0:0:0:
436,93,32428,5,0,0:0:0:0:
431,62,32507,1,0,0:0:0:0:
426,31,32586,1,0,0:0:0:0:
368,49,32664,1,0,0:0:0:0:
308,39,32743,1,0,0:0:0:0:
248,30,32822,1,0,0:0:0:0:
190,48,32902,2,0,P|160:51|126:41,1,61.2500005841255,0|0,0:0|0:0,0:0:0:0:
326,118,33060,6,0,L|341:179,1,61.2500005841255,0|0,0:0|0:0,0:0:0:0:
91,186,33217,2,0,L|105:126,1,61.2500005841255,0|0,0:0|0:0,0:0:0:0:
353,110,33375,2,0,L|372:185,1,61.2500005841255,0|0,0:0|0:0,0:0:0:0:
63,193,33533,2,0,L|78:134,1,61.2500005841255,0|0,0:0|0:0,0:0:0:0:
257,187,33691,5,0,0:0:0:0:
257,187,33770,1,0,0:0:0:0:
257,187,33849,2,0,L|197:172,1,61.2500005841255,0|0,0:0|0:0,0:0:0:0:
0,44,34007,2,0,L|59:58,1,61.2500005841255,0|0,0:0|0:0,0:0:0:0:
154,245,34165,5,0,0:0:0:0:
123,295,34243,1,0,0:0:0:0:
145,351,34322,1,0,0:0:0:0:
201,368,34402,1,0,0:0:0:0:
250,335,34481,1,0,0:0:0:0:
296,296,34559,1,0,0:0:0:0:
356,286,34638,1,0,0:0:0:0:
412,309,34717,1,0,0:0:0:0:
449,356,34796,5,0,0:0:0:0:
470,299,34874,1,0,0:0:0:0:
458,240,34953,1,0,0:0:0:0:
417,195,35032,1,0,0:0:0:0:
359,178,35111,1,0,0:0:0:0:
301,162,35190,1,0,0:0:0:0:
261,116,35269,1,0,0:0:0:0:
249,57,35348,1,0,0:0:0:0:
269,0,35428,2,0,P|291:25|296:53,1,61.2500005841255,0|0,0:0|0:0,0:0:0:0:
101,117,35586,6,0,L|160:102,1,61.2500005841255,0|0,0:0|0:0,0:0:0:0:
355,67,35744,2,0,L|295:52,1,61.2500005841255,0|0,0:0|0:0,0:0:0:0:
128,142,35902,2,0,L|187:127,1,61.2500005841255,0|0,0:0|0:0,0:0:0:0:
414,81,36060,2,0,L|354:66,1,61.2500005841255,0|0,0:0|0:0,0:0:0:0:
115,8,36217,5,0,0:0:0:0:
115,8,36296,1,0,0:0:0:0:
115,8,36375,1,0,0:0:0:0:
63,39,36453,1,0,0:0:0:0:
33,92,36532,1,0,0:0:0:0:
31,152,36611,1,0,0:0:0:0:
59,206,36691,6,0,L|73:265,1,61.2500005841255,0|0,0:0|0:0,0:0:0:0:
245,189,36849,2,0,L|213:241,1,61.2500005841255,0|0,0:0|0:0,0:0:0:0:
88,324,37007,2,0,L|73:264,1,61.2500005841255,0|0,0:0|0:0,0:0:0:0:
276,136,37165,2,0,L|245:189,1,61.2500005841255,0|0,0:0|0:0,0:0:0:0:
198,350,37323,5,0,0:0:0:0:
216,345,37401,1,0,0:0:0:0:
234,340,37480,1,0,0:0:0:0:
253,336,37559,1,0,0:0:0:0:
271,331,37638,1,0,0:0:0:0:
290,327,37717,1,0,0:0:0:0:
308,322,37796,2,0,L|367:307,1,61.2500005841255,0|0,0:0|0:0,0:0:0:0:
500,227,37954,2,0,L|440:212,1,61.2500005841255,0|0,0:0|0:0,0:0:0:0:
309,129,38112,5,0,0:0:0:0:
328,125,38191,1,0,0:0:0:0:
345,119,38270,2,0,L|404:104,1,61.2500005841255,0|0,0:0|0:0,0:0:0:0:
215,76,38428,2,0,L|155:61,3,61.2500005841255,0|0|0|0,0:0|0:0|0:0|0:0,0:0:0:0:
233,134,38744,5,0,0:0:0:0:
233,134,38822,1,0,0:0:0:0:
233,134,38902,1,0,0:0:0:0:
200,170,38980,1,0,0:0:0:0:
194,218,39059,1,0,0:0:0:0:
207,265,39138,1,0,0:0:0:0:
247,302,39217,5,0,0:0:0:0:
197,336,39295,1,0,0:0:0:0:
137,338,39374,1,0,0:0:0:0:
86,306,39453,1,0,0:0:0:0:
61,251,39532,1,0,0:0:0:0:
71,191,39611,1,0,0:0:0:0:
113,148,39691,2,0,L|125:211,1,61.2500005841255,0|0,0:0|0:0,0:0:0:0:
219,206,39849,5,0,0:0:0:0:
222,188,39928,1,0,0:0:0:0:
226,170,40006,1,0,0:0:0:0:
229,152,40086,1,0,0:0:0:0:
233,134,40165,5,0,0:0:0:0:
274,147,40244,1,0,0:0:0:0:
309,174,40322,1,0,0:0:0:0:
332,211,40401,1,0,0:0:0:0:
341,254,40481,5,0,0:0:0:0:
317,215,40559,1,0,0:0:0:0:
307,171,40638,1,0,0:0:0:0:
310,125,40717,1,0,0:0:0:0:
328,83,40796,1,0,0:0:0:0:
357,48,40875,1,0,0:0:0:0:
396,24,40954,1,0,0:0:0:0:
440,12,41033,1,0,0:0:0:0:
486,15,41112,5,0,0:0:0:0:
429,37,41190,1,0,0:0:0:0:
369,51,41269,1,0,0:0:0:0:
309,60,41348,1,0,0:0:0:0:
247,62,41427,1,0,0:0:0:0:
186,58,41506,1,0,0:0:0:0:
126,47,41585,1,0,0:0:0:0:
67,30,41664,1,0,0:0:0:0:
11,6,41744,6,0,L|101:-1,1,70,0|0,0:0|0:0,0:0:0:0:
213,132,41902,6,0,P|212:168|193:202,1,70,0|0,0:0|0:0,0:0:0:0:
78,116,42060,2,0,L|137:158,1,70,0|0,0:0|0:0,0:0:0:0:
142,237,42217,2,0,P|173:222|197:196,1,70,0|0,0:0|0:0,0:0:0:0:
247,64,42375,6,0,L|221:-1,1,70,0|0,0:0|0:0,0:0:0:0:
278,242,42533,6,0,P|278:205|297:171,1,70,0|0,0:0|0:0,0:0:0:0:
349,136,42691,2,0,P|317:150|293:176,1,70,0|0,0:0|0:0,0:0:0:0:
413,258,42849,2,0,L|356:217,1,70,0|0,0:0|0:0,0:0:0:0:
332,64,43007,6,0,L|358:-1,1,70,0|0,0:0|0:0,0:0:0:0:
339,290,43165,6,0,P|312:312|278:319,1,70,0|0,0:0|0:0,0:0:0:0:
431,183,43323,2,0,L|452:113,1,70,0|0,0:0|0:0,0:0:0:0:
459,321,43481,2,0,P|464:355|483:383,1,70,0|0,0:0|0:0,0:0:0:0:
501,64,43638,6,0,L|475:-1,1,70,0|0,0:0|0:0,0:0:0:0:
355,219,43796,6,0,P|320:212|293:190,1,70,0|0,0:0|0:0,0:0:0:0:
202,90,43954,2,0,L|184:23,1,70,0|0,0:0|0:0,0:0:0:0:
149,284,44112,2,0,P|168:255|173:221,1,70,0|0,0:0|0:0,0:0:0:0:
332,64,44270,6,0,L|358:-1,1,70,0|0,0:0|0:0,0:0:0:0:
130,155,44428,5,0,0:0:0:0:
130,155,44507,1,0,0:0:0:0:
130,155,44586,2,0,L|62:137,1,70,0|0,0:0|0:0,0:0:0:0:
282,113,44744,2,0,L|331:63,1,70,0|0,0:0|0:0,0:0:0:0:
266,324,44902,6,0,L|248:257,1,70,0|0,0:0|0:0,0:0:0:0:
184,23,45060,6,0,L|202:90,1,70,0|0,0:0|0:0,0:0:0:0:
149,284,45217,2,0,P|168:255|173:221,1,70,0|0,0:0|0:0,0:0:0:0:
355,219,45375,2,0,P|320:212|293:190,1,70,0|0,0:0|0:0,0:0:0:0:
93,226,45533,6,0,L|26:209,1,70,0|0,0:0|0:0,0:0:0:0:
357,137,45691,2,0,L|406:87,1,70,0|0,0:0|0:0,0:0:0:0:
93,226,45849,2,0,L|26:209,1,70,0|0,0:0|0:0,0:0:0:0:
357,137,46007,2,0,L|406:87,1,70,0|0,0:0|0:0,0:0:0:0:
108,130,46165,6,0,L|58:80,1,70,0|0,0:0|0:0,0:0:0:0:
371,226,46323,2,0,L|438:208,1,70,0|0,0:0|0:0,0:0:0:0:
108,130,46481,2,0,L|58:80,1,70,0|0,0:0|0:0,0:0:0:0:
371,226,46639,2,0,L|438:208,1,70,0|0,0:0|0:0,0:0:0:0:
304,8,46796,6,0,P|273:25|255:54,1,70,0|0,0:0|0:0,0:0:0:0:
136,189,46954,5,0,0:0:0:0:
136,189,47033,1,0,0:0:0:0:
136,189,47112,2,0,L|164:252,1,70,0|0,0:0|0:0,0:0:0:0:
229,367,47270,2,0,L|257:303,1,70,0|0,0:0|0:0,0:0:0:0:
353,109,47428,6,0,L|324:172,1,70,0|0,0:0|0:0,0:0:0:0:
213,371,47586,6,0,L|241:307,1,70,0|0,0:0|0:0,0:0:0:0:
237,130,47744,2,0,L|209:67,1,70,0|0,0:0|0:0,0:0:0:0:
338,315,47902,2,0,L|367:379,1,70,0|0,0:0|0:0,0:0:0:0:
163,1,48060,6,0,P|139:26|131:60,1,70,0|0,0:0|0:0,0:0:0:0:
324,172,48217,6,0,L|376:219,1,70,0|0,0:0|0:0,0:0:0:0:
77,111,48375,2,0,P|61:79|60:45,1,70,0|0,0:0|0:0,0:0:0:0:
375,218,48533,2,0,L|427:265,1,70,0|0,0:0|0:0,0:0:0:0:
71,187,48691,6,0,P|38:175|14:151,3,70,0|0|0|0,0:0|0:0|0:0|0:0,0:0:0:0:
186,204,49007,1,0,0:0:0:0:
186,204,49086,1,0,0:0:0:0:
204,185,49165,5,0,0:0:0:0:
256,139,49244,1,0,0:0:0:0:
310,92,49323,6,0,L|361:45,1,70,0|0,0:0|0:0,0:0:0:0:
270,246,49481,2,0,P|271:280|286:311,1,70,0|0,0:0|0:0,0:0:0:0:
240,66,49638,2,0,L|261:0,1,70,0|0,0:0|0:0,0:0:0:0:
239,263,49796,2,0,P|257:292|286:311,1,70,0|0,0:0|0:0,0:0:0:0:
153,19,49954,6,0,L|168:88,1,70,0|0,0:0|0:0,0:0:0:0:
221,293,50112,2,0,P|251:309|286:311,1,70,0|0,0:0|0:0,0:0:0:0:
66,89,50270,2,0,L|112:140,3,70,0|0|0|0,0:0|0:0|0:0|0:0,0:0:0:0:
105,253,50586,5,0,0:0:0:0:
152,202,50664,1,0,0:0:0:0:
216,176,50743,1,0,0:0:0:0:
286,178,50822,1,0,0:0:0:0:
348,210,50902,1,0,0:0:0:0:
411,233,50980,1,0,0:0:0:0:
472,202,51059,1,0,0:0:0:0:
490,137,51138,1,0,0:0:0:0:
454,79,51217,5,0,0:0:0:0:
417,138,51295,1,0,0:0:0:0:
410,207,51374,1,0,0:0:0:0:
434,272,51454,1,0,0:0:0:0:
434,339,51532,1,0,0:0:0:0:
378,376,51611,1,0,0:0:0:0:
316,349,51691,1,0,0:0:0:0:
256,315,51769,1,0,0:0:0:0:
187,310,51849,6,0,P|150:311|116:325,1,70,0|0,0:0|0:0,0:0:0:0:
366,259,52007,6,0,P|403:260|437:274,1,70,0|0,0:0|0:0,0:0:0:0:
369,130,52165,2,0,P|388:98|417:76,1,70,0|0,0:0|0:0,0:0:0:0:
259,63,52323,2,0,P|241:30|236:-5,1,70,0|0,0:0|0:0,0:0:0:0:
252,320,52481,6,0,P|270:353|275:389,1,70,0|0,0:0|0:0,0:0:0:0:
139,230,52638,6,0,L|71:244,1,70,0|0,0:0|0:0,0:0:0:0:
108,132,52796,2,0,L|40:146,1,70,0|0,0:0|0:0,0:0:0:0:
77,34,52954,2,0,L|9:48,1,70,0|0,0:0|0:0,0:0:0:0:
102,342,53112,6,0,L|172:328,1,70,0|0,0:0|0:0,0:0:0:0:
369,130,53270,6,0,P|388:98|417:76,1,70,0|0,0:0|0:0,0:0:0:0:
214,135,53428,2,0,P|246:147|281:147,1,70,0|0,0:0|0:0,0:0:0:0:
364,279,53586,2,0,P|358:244|341:214,1,70,0|0,0:0|0:0,0:0:0:0:
236,0,53744,6,0,P|242:32|259:63,1,70,0|0,0:0|0:0,0:0:0:0:
250,278,53902,6,0,L|255:347,1,70,0|0,0:0|0:0,0:0:0:0:
81,269,54060,2,0,L|138:229,1,70,0|0,0:0|0:0,0:0:0:0:
129,107,54217,2,0,L|65:76,1,70,0|0,0:0|0:0,0:0:0:0:
341,214,54375,6,0,P|357:244|363:278,1,70,0|0,0:0|0:0,0:0:0:0:
353,384,54533,5,0,0:0:0:0:
353,384,54612,1,0,0:0:0:0:
353,384,54691,2,0,L|426:383,1,70,0|0,0:0|0:0,0:0:0:0:
433,277,54849,2,0,L|363:277,1,70,0|0,0:0|0:0,0:0:0:0:
383,63,55007,6,0,L|453:63,1,70,0|0,0:0|0:0,0:0:0:0:
138,229,55165,6,0,L|68:229,1,70,0|0,0:0|0:0,0:0:0:0:
277,275,55323,2,0,L|242:215,1,70,0|0,0:0|0:0,0:0:0:0:
211,69,55481,2,0,L|177:131,1,70,0|0,0:0|0:0,0:0:0:0:
210,350,55638,6,0,L|174:289,1,70,0|0,0:0|0:0,0:0:0:0:
284,112,55796,2,0,L|318:50,1,70,0|0,0:0|0:0,0:0:0:0:
138,229,55954,2,0,L|173:289,1,70,0|0,0:0|0:0,0:0:0:0:
329,95,56112,2,0,L|363:33,1,70,0|0,0:0|0:0,0:0:0:0:
353,384,56270,6,0,L|389:323,1,70,0|0,0:0|0:0,0:0:0:0:
104,167,56428,2,0,L|138:229,1,70,0|0,0:0|0:0,0:0:0:0:
425,263,56586,2,0,L|390:323,1,70,0|0,0:0|0:0,0:0:0:0:
59,150,56744,2,0,L|93:212,1,70,0|0,0:0|0:0,0:0:0:0:
200,384,56902,6,0,L|235:324,1,70,0|0,0:0|0:0,0:0:0:0:
366,205,57060,5,0,0:0:0:0:
366,205,57138,1,0,0:0:0:0:
366,205,57217,2,0,P|331:205|298:193,1,70,0|0,0:0|0:0,0:0:0:0:
192,83,57375,2,0,P|209:112|216:147,1,70,0|0,0:0|0:0,0:0:0:0:
173,289,57533,6,0,P|190:258|216:235,1,70,0|0,0:0|0:0,0:0:0:0:
327,50,57691,6,0,L|292:111,1,70,0|0,0:0|0:0,0:0:0:0:
326,337,57849,2,0,L|290:276,1,70,0|0,0:0|0:0,0:0:0:0:
74,189,58007,2,0,L|143:188,1,70,0|0,0:0|0:0,0:0:0:0:
386,129,58165,6,0,P|416:146|439:172,1,70,0|0,0:0|0:0,0:0:0:0:
144,289,58323,6,0,L|74:289,1,70,0|0,0:0|0:0,0:0:0:0:
379,285,58481,2,0,P|409:267|432:241,1,70,0|0,0:0|0:0,0:0:0:0:
144,83,58638,2,0,L|74:83,1,70,0|0,0:0|0:0,0:0:0:0:
366,205,58796,6,0,P|331:205|298:193,3,70,0|0|0|0,0:0|0:0|0:0|0:0,0:0:0:0:
232,95,59112,1,0,0:0:0:0:
232,95,59190,1,0,0:0:0:0:
238,124,59270,5,0,0:0:0:0:
231,171,59348,1,0,0:0:0:0:
204,212,59428,5,0,0:0:0:0:
239,249,59506,1,0,0:0:0:0:
243,299,59585,1,0,0:0:0:0:
216,343,59664,1,0,0:0:0:0:
167,359,59744,1,0,0:0:0:0:
119,342,59822,1,0,0:0:0:0:
91,299,59902,1,0,0:0:0:0:
96,248,59980,1,0,0:0:0:0:
138,210,60060,5,0,0:0:0:0:
187,166,60139,1,0,0:0:0:0:
200,100,60218,1,0,0:0:0:0:
172,41,60297,1,0,0:0:0:0:
112,11,60376,1,0,0:0:0:0:
48,25,60455,1,0,0:0:0:0:
5,76,60534,1,0,0:0:0:0:
4,142,60612,1,0,0:0:0:0:
31,201,60691,6,0,B|87:174|96:120|96:120|97:176|146:217,1,210,0|0,0:0|0:0,0:0:0:0:
160,234,61244,1,0,0:0:0:0:
177,264,61323,2,0,B|208:305|197:360|197:360|217:308|278:296,1,210,0|0,0:0|0:0,0:0:0:0:
105,329,61954,5,0,0:0:0:0:
323,115,62112,1,0,0:0:0:0:
244,224,62270,1,0,0:0:0:0:
314,193,62349,1,0,0:0:0:0:
252,146,62428,1,0,0:0:0:0:
464,295,62586,2,0,B|421:291|421:291|385:272|385:272|348:266,1,122.500001168251,0|0,0:0|0:0,0:0:0:0:
110,212,62902,1,0,0:0:0:0:
181,179,62981,1,0,0:0:0:0:
252,147,63060,1,0,0:0:0:0:
38,174,63217,5,0,0:0:0:0:
235,301,63375,1,0,0:0:0:0:
259,70,63533,1,0,0:0:0:0:
188,103,63612,1,0,0:0:0:0:
252,147,63691,1,0,0:0:0:0:
78,6,63849,2,0,P|138:0|196:20,1,122.500001168251,0|0,0:0|0:0,0:0:0:0:
394,83,64165,1,0,0:0:0:0:
323,115,64244,1,0,0:0:0:0:
252,147,64323,1,0,0:0:0:0:
382,2,64481,6,0,P|353:12|329:31,2,61.2500005841255,0|0|0,0:0|0:0|0:0,0:0:0:0:
466,163,64796,1,0,0:0:0:0:
476,108,64875,1,0,0:0:0:0:
486,53,64953,1,0,0:0:0:0:
264,230,65112,2,0,P|292:219|316:200,2,61.2500005841255,0|0|0,0:0|0:0|0:0,0:0:0:0:
418,326,65427,1,0,0:0:0:0:
408,271,65507,1,0,0:0:0:0:
398,216,65586,1,0,0:0:0:0:
252,147,65744,5,0,0:0:0:0:
428,381,65902,1,0,0:0:0:0:
264,230,66060,1,0,0:0:0:0:
190,202,66139,1,0,0:0:0:0:
204,282,66218,1,0,0:0:0:0:
120,78,66375,2,0,B|158:77|158:77|196:62|196:62|240:64,1,122.500001168251,0|0,0:0|0:0,0:0:0:0:
30,26,66691,1,0,0:0:0:0:
9,63,66770,1,0,0:0:0:0:
18,119,66849,1,0,0:0:0:0:
66,170,66928,1,0,0:0:0:0:
83,251,67007,6,0,P|95:312|77:374,1,122.500001168251,0|0,0:0|0:0,0:0:0:0:
0,308,67323,2,0,L|68:307,1,61.2500005841255,0|0,0:0|0:0,0:0:0:0:
263,169,67481,2,0,L|209:139,1,61.2500005841255,0|0,0:0|0:0,0:0:0:0:
168,184,67638,2,0,P|184:125|224:79,1,122.500001168251,0|0,0:0|0:0,0:0:0:0:
230,269,67954,1,0,0:0:0:0:
296,306,68033,1,0,0:0:0:0:
362,343,68112,1,0,0:0:0:0:
178,329,68270,5,0,0:0:0:0:
378,201,68428,1,0,0:0:0:0:
168,184,68586,1,0,0:0:0:0:
93,204,68665,1,0,0:0:0:0:
146,259,68744,1,0,0:0:0:0:
56,19,68902,2,0,B|69:60|69:60|97:90|97:90|112:125,1,122.500001168251,0|0,0:0|0:0,0:0:0:0:
248,22,69217,2,0,L|224:79,1,61.2500005841255,0|0,0:0|0:0,0:0:0:0:
279,229,69375,2,0,L|255:172,1,61.2500005841255,0|0,0:0|0:0,0:0:0:0:
330,89,69533,5,0,0:0:0:0:
354,145,69611,1,0,0:0:0:0:
378,201,69690,1,0,0:0:0:0:
492,148,69849,1,0,0:0:0:0:
468,204,69927,1,0,0:0:0:0:
444,260,70006,1,0,0:0:0:0:
272,229,70165,1,0,0:0:0:0:
216,253,70243,1,0,0:0:0:0:
160,277,70322,1,0,0:0:0:0:
202,384,70481,1,0,0:0:0:0:
146,360,70559,1,0,0:0:0:0:
90,336,70638,2,0,L|33:311,1,61.2500005841255,0|0,0:0|0:0,0:0:0:0:
272,323,70796,6,0,L|329:348,1,61.2500005841255,0|0,0:0|0:0,0:0:0:0:
117,194,70954,2,0,P|87:201|62:217,1,61.2500005841255,0|0,0:0|0:0,0:0:0:0:
313,306,71112,6,0,L|349:356,1,61.2500005841255,0|0,0:0|0:0,0:0:0:0:
160,127,71270,2,0,P|131:118|101:119,1,61.2500005841255,0|0,0:0|0:0,0:0:0:0:
358,313,71428,6,0,L|364:374,1,61.2500005841255,0|0,0:0|0:0,0:0:0:0:
227,90,71586,2,0,P|206:68|180:54,1,61.2500005841255,0|0,0:0|0:0,0:0:0:0:
133,271,71744,6,0,B|168:247|219:251|219:251|265:227|265:227|307:234|355:205,1,236.250009012223,0|0,0:0|0:0,0:0:0:0:
506,79,72060,5,0,0:0:0:0:
447,254,72217,1,0,0:0:0:0:
292,6,72375,1,0,0:0:0:0:
292,6,72454,1,0,0:0:0:0:
292,6,72532,1,0,0:0:0:0:
112,144,72691,1,0,0:0:0:0:
306,118,72848,1,0,0:0:0:0:
171,379,73007,5,0,0:0:0:0:
207,330,73085,1,0,0:0:0:0:
228,272,73164,1,0,0:0:0:0:
232,212,73243,1,0,0:0:0:0:
218,152,73322,1,0,0:0:0:0:
284,327,73480,1,0,0:0:0:0:
159,197,73638,1,0,0:0:0:0:
138,255,73717,1,0,0:0:0:0:
134,315,73796,1,0,0:0:0:0:
347,384,73954,2,0,B|366:351|366:351|361:259,1,122.500001168251,0|0,0:0|0:0,0:0:0:0:
357,99,74270,5,0,0:0:0:0:
410,84,74349,1,0,0:0:0:0:
440,131,74428,1,0,0:0:0:0:
404,175,74506,1,0,0:0:0:0:
351,154,74586,2,0,P|295:173|255:223,1,122.500001168251,0|0,0:0|0:0,0:0:0:0:
143,242,74902,1,0,0:0:0:0:
162,299,74980,1,0,0:0:0:0:
209,337,75059,1,0,0:0:0:0:
185,154,75217,2,0,P|165:98|115:58,1,122.500001168251,0|0,0:0|0:0,0:0:0:0:
91,313,75533,5,0,0:0:0:0:
58,358,75612,1,0,0:0:0:0:
5,341,75691,1,0,0:0:0:0:
5,286,75769,1,0,0:0:0:0:
58,268,75849,2,0,P|88:216|88:156,1,122.500001168251,0|0,0:0|0:0,0:0:0:0:
6,79,76165,1,0,0:0:0:0:
6,79,76244,1,0,0:0:0:0:
6,79,76323,1,0,0:0:0:0:
252,0,76481,5,0,0:0:0:0:
282,2,76560,1,0,0:0:0:0:
296,28,76638,1,0,0:0:0:0:
273,49,76717,1,0,0:0:0:0:
237,32,76796,5,0,0:0:0:0:
214,88,76874,1,0,0:0:0:0:
224,148,76953,1,0,0:0:0:0:
262,194,77032,1,0,0:0:0:0:
319,215,77112,2,0,P|368:247|405:302,1,122.500001168251,0|0,0:0|0:0,0:0:0:0:
461,221,77428,6,0,L|497:169,1,61.2500005841255,0|0,0:0|0:0,0:0:0:0:
310,309,77586,2,0,L|275:359,1,61.2500005841255,0|0,0:0|0:0,0:0:0:0:
396,128,77744,2,0,B|405:48|391:64|401:5,1,122.500001168251,0|0,0:0|0:0,0:0:0:0:
319,215,78060,1,0,0:0:0:0:
262,194,78138,1,0,0:0:0:0:
224,148,78217,1,0,0:0:0:0:
182,188,78296,1,0,0:0:0:0:
129,205,78375,1,0,0:0:0:0:
99,43,78533,6,0,L|132:103,1,61.2500005841255,0|0,0:0|0:0,0:0:0:0:
208,321,78691,2,0,L|215:258,1,61.2500005841255,0|0,0:0|0:0,0:0:0:0:
343,61,78849,2,0,L|313:114,1,61.2500005841255,0|0,0:0|0:0,0:0:0:0:
42,310,79007,2,0,B|52:226|52:226|77:197,1,122.500001168251,0|0,0:0|0:0,0:0:0:0:
304,323,79323,2,0,L|298:384,1,61.2500005841255,0|0,0:0|0:0,0:0:0:0:
117,384,79481,2,0,L|124:321,1,61.2500005841255,0|0,0:0|0:0,0:0:0:0:
407,187,79638,6,0,L|394:312,1,122.500001168251,0|0,0:0|0:0,0:0:0:0:
208,321,79954,2,0,L|214:260,2,61.2500005841255,0|0|0,0:0|0:0|0:0,0:0:0:0:
313,112,80270,2,0,L|300:237,1,122.500001168251,0|0,0:0|0:0,0:0:0:0:
116,383,80586,2,0,L|123:323,2,61.2500005841255,0|0|0,0:0|0:0|0:0,0:0:0:0:
86,95,80902,6,0,L|94:175,1,78.7500030040742,0|0,0:0|0:0,0:0:0:0:
0,262,81060,2,0,L|80:254,1,78.7500030040742,0|0,0:0|0:0,0:0:0:0:
160,48,81217,6,0,L|168:128,1,78.7500030040742,0|0,0:0|0:0,0:0:0:0:
78,254,81375,2,0,L|158:246,1,78.7500030040742,0|0,0:0|0:0,0:0:0:0:
235,0,81533,6,0,L|243:80,1,78.7500030040742,0|0,0:0|0:0,0:0:0:0:
156,246,81691,2,0,L|236:238,1,78.7500030040742,0|0,0:0|0:0,0:0:0:0:
323,28,81849,5,0,0:0:0:0:
325,47,81927,1,0,0:0:0:0:
327,67,82006,1,0,0:0:0:0:
329,86,82085,1,0,0:0:0:0:
333,105,82165,5,0,0:0:0:0:
395,133,82243,1,0,0:0:0:0:
424,195,82322,1,0,0:0:0:0:
405,261,82401,1,0,0:0:0:0:
348,299,82480,1,0,0:0:0:0:
280,290,82559,1,0,0:0:0:0:
234,239,82638,1,0,0:0:0:0:
188,188,82716,1,0,0:0:0:0:
120,179,82795,1,0,0:0:0:0:
62,217,82874,1,0,0:0:0:0:
44,283,82953,1,0,0:0:0:0:
73,345,83032,1,0,0:0:0:0:
135,373,83111,5,0,0:0:0:0:
171,335,83190,1,0,0:0:0:0:
194,288,83269,1,0,0:0:0:0:
199,236,83348,1,0,0:0:0:0:
187,186,83428,5,0,0:0:0:0:
200,236,83507,1,0,0:0:0:0:
230,279,83586,1,0,0:0:0:0:
272,310,83665,1,0,0:0:0:0:
322,324,83744,5,0,0:0:0:0:
360,288,83823,1,0,0:0:0:0:
407,267,83902,1,0,0:0:0:0:
460,263,83981,1,0,0:0:0:0:
509,276,84060,5,0,0:0:0:0:
457,282,84138,1,0,0:0:0:0:
407,267,84217,1,0,0:0:0:0:
368,232,84296,1,0,0:0:0:0:
347,185,84375,1,0,0:0:0:0:
326,138,84454,1,0,0:0:0:0:
287,103,84533,6,0,P|244:88|215:91,1,70,0|0,0:0|0:0,0:0:0:0:
95,219,84691,5,0,0:0:0:0:
75,285,84769,1,0,0:0:0:0:
104,347,84848,1,0,0:0:0:0:
167,374,84927,1,0,0:0:0:0:
232,356,85006,1,0,0:0:0:0:
269,297,85085,1,0,0:0:0:0:
260,229,85164,1,0,0:0:0:0:
250,162,85244,1,0,0:0:0:0:
287,103,85323,1,0,0:0:0:0:
353,84,85402,1,0,0:0:0:0:
416,112,85481,1,0,0:0:0:0:
444,174,85560,1,0,0:0:0:0:
424,240,85638,5,0,0:0:0:0:
379,213,85716,1,0,0:0:0:0:
327,216,85795,1,0,0:0:0:0:
286,246,85874,1,0,0:0:0:0:
268,295,85954,5,0,0:0:0:0:
217,303,86033,1,0,0:0:0:0:
169,282,86112,1,0,0:0:0:0:
141,238,86191,1,0,0:0:0:0:
142,187,86269,5,0,0:0:0:0:
186,162,86349,1,0,0:0:0:0:
210,116,86428,1,0,0:0:0:0:
204,64,86507,1,0,0:0:0:0:
172,23,86586,6,0,P|138:8|94:13,1,70,0|0,0:0|0:0,0:0:0:0:
323,134,86744,6,0,P|336:112|315:126,1,70,0|0,0:0|0:0,0:0:0:0:
135,99,86902,2,0,P|112:88|129:108,1,70,0|0,0:0|0:0,0:0:0:0:
169,282,87060,2,0,P|180:304|162:286,1,70,0|0,0:0|0:0,0:0:0:0:
294,35,87217,5,0,0:0:0:0:
361,40,87295,1,0,0:0:0:0:
410,88,87374,1,0,0:0:0:0:
415,156,87453,1,0,0:0:0:0:
374,212,87532,1,0,0:0:0:0:
307,226,87611,1,0,0:0:0:0:
246,194,87690,1,0,0:0:0:0:
186,162,87770,1,0,0:0:0:0:
119,177,87849,1,0,0:0:0:0:
77,232,87928,1,0,0:0:0:0:
83,301,88007,1,0,0:0:0:0:
131,349,88086,1,0,0:0:0:0:
200,348,88165,5,0,0:0:0:0:
190,297,88243,1,0,0:0:0:0:
211,249,88322,1,0,0:0:0:0:
255,222,88401,1,0,0:0:0:0:
307,224,88481,5,0,0:0:0:0:
316,173,88559,1,0,0:0:0:0:
295,125,88638,1,0,0:0:0:0:
251,98,88717,1,0,0:0:0:0:
200,100,88796,5,0,0:0:0:0:
245,125,88874,1,0,0:0:0:0:
297,131,88953,1,0,0:0:0:0:
347,118,89032,1,0,0:0:0:0:
389,86,89112,5,0,0:0:0:0:
425,124,89190,1,0,0:0:0:0:
442,173,89269,1,0,0:0:0:0:
439,225,89348,1,0,0:0:0:0:
415,271,89427,1,0,0:0:0:0:
374,304,89506,1,0,0:0:0:0:
324,318,89586,6,0,P|288:317|253:298,1,70,0|0,0:0|0:0,0:0:0:0:
119,182,89744,5,0,0:0:0:0:
61,217,89822,1,0,0:0:0:0:
42,283,89901,1,0,0:0:0:0:
74,344,89980,1,0,0:0:0:0:
138,367,90059,1,0,0:0:0:0:
201,340,90138,1,0,0:0:0:0:
228,277,90217,1,0,0:0:0:0:
256,214,90295,1,0,0:0:0:0:
319,187,90374,1,0,0:0:0:0:
383,210,90453,1,0,0:0:0:0:
415,271,90532,1,0,0:0:0:0:
396,337,90611,1,0,0:0:0:0:
333,382,90691,5,0,0:0:0:0:
276,342,90769,1,0,0:0:0:0:
310,279,90849,2,0,P|333:267|317:287,1,70,0|0,0:0|0:0,0:0:0:0:
236,74,91007,5,0,0:0:0:0:
171,96,91085,1,0,0:0:0:0:
119,139,91165,2,0,P|101:169|88:206,1,70,0|0,0:0|0:0,0:0:0:0:
327,76,91323,2,0,P|340:43|348:9,1,70,0|0,0:0|0:0,0:0:0:0:
139,279,91482,5,0,0:0:0:0:
203,258,91560,1,0,0:0:0:0:
256,214,91638,2,0,P|273:183|286:146,1,70,0|0,0:0|0:0,0:0:0:0:
48,272,91796,2,0,P|37:306|20:341,1,70,0|0,0:0|0:0,0:0:0:0:
119,139,91954,5,0,0:0:0:0:
66,87,92033,1,0,0:0:0:0:
97,19,92112,1,0,0:0:0:0:
170,28,92191,1,0,0:0:0:0:
184,101,92270,5,0,0:0:0:0:
223,43,92348,1,0,0:0:0:0:
284,11,92427,1,0,0:0:0:0:
354,13,92506,1,0,0:0:0:0:
413,48,92585,1,0,0:0:0:0:
449,107,92664,1,0,0:0:0:0:
451,177,92743,1,0,0:0:0:0:
425,240,92822,1,0,0:0:0:0:
363,269,92901,1,0,0:0:0:0:
297,249,92980,1,0,0:0:0:0:
262,191,93059,1,0,0:0:0:0:
276,123,93138,1,0,0:0:0:0:
330,83,93217,5,0,0:0:0:0:
320,134,93295,1,0,0:0:0:0:
289,175,93374,1,0,0:0:0:0:
242,200,93453,1,0,0:0:0:0:
190,202,93532,5,0,0:0:0:0:
180,253,93612,1,0,0:0:0:0:
149,294,93691,1,0,0:0:0:0:
102,319,93770,1,0,0:0:0:0:
50,321,93849,5,0,0:0:0:0:
95,296,93928,1,0,0:0:0:0:
148,294,94007,1,0,0:0:0:0:
196,314,94086,1,0,0:0:0:0:
229,353,94166,5,0,0:0:0:0:
262,314,94244,1,0,0:0:0:0:
310,294,94323,1,0,0:0:0:0:
363,296,94402,1,0,0:0:0:0:
412,294,94481,1,0,0:0:0:0:
459,270,94560,1,0,0:0:0:0:
488,228,94638,6,0,P|456:214|420:219,1,70,0|0,0:0|0:0,0:0:0:0:
231,265,94796,5,0,0:0:0:0:
200,325,94875,1,0,0:0:0:0:
133,335,94954,1,0,0:0:0:0:
74,298,95034,1,0,0:0:0:0:
54,233,95113,1,0,0:0:0:0:
79,168,95192,1,0,0:0:0:0:
130,121,95271,1,0,0:0:0:0:
197,104,95350,1,0,0:0:0:0:
265,117,95429,1,0,0:0:0:0:
334,129,95508,1,0,0:0:0:0:
401,111,95587,1,0,0:0:0:0:
452,64,95666,1,0,0:0:0:0:
475,0,95744,5,0,0:0:0:0:
428,22,95822,1,0,0:0:0:0:
400,65,95901,1,0,0:0:0:0:
400,117,95980,1,0,0:0:0:0:
428,161,96059,5,0,0:0:0:0:
404,207,96138,1,0,0:0:0:0:
359,233,96217,1,0,0:0:0:0:
307,231,96296,1,0,0:0:0:0:
264,201,96374,5,0,0:0:0:0:
268,149,96454,1,0,0:0:0:0:
244,103,96533,1,0,0:0:0:0:
199,77,96612,1,0,0:0:0:0:
147,80,96691,6,0,P|113:98|92:124,1,70,0|0,0:0|0:0,0:0:0:0:
301,34,96849,6,0,P|317:14|311:38,1,70,0|0,0:0|0:0,0:0:0:0:
479,87,97007,2,0,P|504:81|484:98,1,70,0|0,0:0|0:0,0:0:0:0:
183,171,97165,2,0,P|158:177|177:160,1,70,0|0,0:0|0:0,0:0:0:0:
373,198,97323,5,0,0:0:0:0:
370,265,97401,1,0,0:0:0:0:
339,327,97480,1,0,0:0:0:0:
282,370,97559,1,0,0:0:0:0:
216,382,97638,1,0,0:0:0:0:
148,363,97717,1,0,0:0:0:0:
96,317,97796,1,0,0:0:0:0:
70,253,97875,1,0,0:0:0:0:
75,183,97954,1,0,0:0:0:0:
110,124,98033,1,0,0:0:0:0:
167,85,98112,1,0,0:0:0:0:
236,76,98191,1,0,0:0:0:0:
303,104,98270,5,0,0:0:0:0:
306,51,98349,1,0,0:0:0:0:
349,24,98428,1,0,0:0:0:0:
397,39,98507,1,0,0:0:0:0:
417,87,98585,5,0,0:0:0:0:
459,117,98665,1,0,0:0:0:0:
461,168,98744,1,0,0:0:0:0:
424,202,98823,1,0,0:0:0:0:
373,195,98901,5,0,0:0:0:0:
326,216,98981,1,0,0:0:0:0:
281,193,99060,1,0,0:0:0:0:
271,143,99139,1,0,0:0:0:0:
303,104,99217,5,0,0:0:0:0:
255,83,99295,1,0,0:0:0:0:
202,79,99374,1,0,0:0:0:0:
152,94,99453,1,0,0:0:0:0:
110,124,99532,1,0,0:0:0:0:
80,167,99611,1,0,0:0:0:0:
67,218,99691,6,0,P|103:214|147:194,1,70,0|0,0:0|0:0,0:0:0:0:
370,164,99849,5,0,0:0:0:0:
370,230,99927,1,0,0:0:0:0:
347,296,100006,1,0,0:0:0:0:
301,349,100085,1,0,0:0:0:0:
237,380,100164,1,0,0:0:0:0:
167,384,100243,1,0,0:0:0:0:
102,362,100322,1,0,0:0:0:0:
48,317,100401,1,0,0:0:0:0:
18,257,100480,1,0,0:0:0:0:
12,187,100559,1,0,0:0:0:0:
32,120,100638,1,0,0:0:0:0:
75,65,100717,1,0,0:0:0:0:
136,34,100796,5,0,0:0:0:0:
135,107,100874,1,0,0:0:0:0:
134,180,100954,2,0,L|133:256,1,70,0|0,0:0|0:0,0:0:0:0:
203,71,101112,5,0,0:0:0:0:
225,64,101191,1,0,0:0:0:0:
225,82,101270,5,0,0:0:0:0:
251,89,101348,1,0,0:0:0:0:
252,53,101428,5,0,0:0:0:0:
277,45,101507,1,0,0:0:0:0:
276,99,101586,5,0,0:0:0:0:
301,106,101664,1,0,0:0:0:0:
327,28,101744,5,0,0:0:0:0:
203,71,102060,5,0,0:0:0:0:
431,311,102375,5,0,0:0:0:0:
389,322,102454,1,0,0:0:0:0:
327,320,102533,1,0,0:0:0:0:
254,287,102612,1,0,0:0:0:0:
195,208,102691,2,0,P|185:177|181:141,1,61.2500005841255,0|0,0:0|0:0,0:0:0:0:
156,299,102849,1,0,0:0:0:0:
290,199,103007,5,0,0:0:0:0:
216,368,103165,1,0,0:0:0:0:
258,114,103323,1,0,0:0:0:0:
431,311,103481,1,0,0:0:0:0:
181,148,103638,6,0,P|174:97|182:45,1,91.8750008761883,0|0,0:0|0:0,0:0:0:0:
166,74,103796,2,0,P|154:104|118:137,1,61.2500005841255,0|0,0:0|0:0,0:0:0:0:
350,121,103954,2,0,P|399:76|453:51,1,122.500001168251,0|0,0:0|0:0,0:0:0:0:
290,199,104270,6,0,P|226:179|177:144,1,122.500001168251,0|0,0:0|0:0,0:0:0:0:
388,199,104586,2,0,P|402:263|402:299,1,61.2500005841255,0|0,0:0|0:0,0:0:0:0:
395,382,104744,1,0,0:0:0:0:
204,304,104902,6,0,P|292:290|345:260,1,122.500001168251,0|0,0:0|0:0,0:0:0:0:
78,249,105217,2,0,P|46:332|45:393,1,122.500001168251,0|0,0:0|0:0,0:0:0:0:
180,147,105533,2,0,P|123:77|71:46,1,122.500001168251,0|0,0:0|0:0,0:0:0:0:
281,140,105849,2,0,L|264:217,2,61.2500005841255,0|0|0,0:0|0:0|0:0,0:0:0:0:
383,133,106165,6,0,L|353:14,1,122.500001168251,0|0,0:0|0:0,0:0:0:0:
455,246,106481,2,0,L|484:127,1,122.500001168251,0|0,0:0|0:0,0:0:0:0:
378,378,106796,2,0,L|364:318,1,61.2500005841255,0|0,0:0|0:0,0:0:0:0:
340,196,106954,1,0,0:0:0:0:
152,377,107112,1,0,0:0:0:0:
140,380,107270,6,0,L|126:320,1,61.2500005841255,0|0,0:0|0:0,0:0:0:0:
75,100,107428,1,0,0:0:0:0:
102,112,107507,1,0,0:0:0:0:
123,146,107586,1,0,0:0:0:0:
114,193,107665,1,0,0:0:0:0:
62,221,107744,5,0,0:0:0:0:
128,166,107823,1,0,0:0:0:0:
212,152,107902,1,0,0:0:0:0:
291,180,107981,1,0,0:0:0:0:
346,244,108060,5,0,0:0:0:0:
367,207,108138,1,0,0:0:0:0:
368,158,108217,1,0,0:0:0:0:
335,113,108296,1,0,0:0:0:0:
276,96,108375,5,0,0:0:0:0:
249,177,108454,1,0,0:0:0:0:
266,261,108533,1,0,0:0:0:0:
322,325,108612,1,0,0:0:0:0:
402,352,108691,5,0,0:0:0:0:
440,275,108770,1,0,0:0:0:0:
449,189,108849,1,0,0:0:0:0:
428,105,108928,1,0,0:0:0:0:
379,33,109007,6,0,L|326:2,1,61.2500005841255,0|0,0:0|0:0,0:0:0:0:
346,244,109165,2,0,L|318:189,1,61.2500005841255,0|0,0:0|0:0,0:0:0:0:
239,339,109323,1,0,0:0:0:0:
115,85,109481,6,0,L|117:146,1,61.2500005841255,0|0,0:0|0:0,0:0:0:0:
229,346,109638,2,0,L|231:284,1,61.2500005841255,0|0,0:0|0:0,0:0:0:0:
307,149,109796,1,0,0:0:0:0:
0,209,109954,6,0,B|49:251|49:251|110:263,1,122.500001168251,0|0,0:0|0:0,0:0:0:0:
215,5,110270,2,0,B|155:30|155:30|115:71,1,122.500001168251,0|0,0:0|0:0,0:0:0:0:
237,276,110586,2,0,B|244:207|244:207|228:146,1,122.500001168251,0|0,0:0|0:0,0:0:0:0:
0,105,110902,1,0,0:0:0:0:
0,105,111060,1,0,0:0:0:0:
296,80,111217,6,0,P|324:133|320:194,1,122.500001168251,0|0,0:0|0:0,0:0:0:0:
150,353,111533,2,0,P|182:301|236:275,1,122.500001168251,0|0,0:0|0:0,0:0:0:0:
466,155,111849,1,0,0:0:0:0:
512,292,112007,1,0,0:0:0:0:
512,292,112086,1,0,0:0:0:0:
453,362,112165,2,0,P|394:347|348:307,1,122.500001168251,0|0,0:0|0:0,0:0:0:0:
53,112,112481,5,0,0:0:0:0:
31,75,112559,1,0,0:0:0:0:
27,32,112638,1,0,0:0:0:0:
4,103,112716,1,0,0:0:0:0:
4,177,112796,2,0,B|3:223|3:223|14:268,1,91.8750008761883,0|0,0:0|0:0,0:0:0:0:
146,384,113033,5,0,0:0:0:0:
176,219,113112,2,0,B|80:218|80:218|106:240,1,122.500001168251,0|0,0:0|0:0,0:0:0:0:
233,329,113349,5,0,0:0:0:0:
250,202,113428,2,0,B|154:201|154:201|179:221,1,122.500001168251,0|0,0:0|0:0,0:0:0:0:
316,277,113665,5,0,0:0:0:0:
323,132,113744,2,0,P|290:107|251:100,2,81.6666674455007,0|0|0,0:0|0:0|0:0,0:0:0:0:
344,373,114060,5,0,0:0:0:0:
392,219,114165,1,0,0:0:0:0:
500,341,114270,1,0,0:0:0:0:
340,285,114375,5,0,0:0:0:0:
424,384,114480,1,0,0:0:0:0:
466,260,114585,1,0,0:0:0:0:
368,349,114691,5,0,0:0:0:0:
399,252,114796,1,0,0:0:0:0:
466,332,114901,1,0,0:0:0:0:
249,317,115007,6,0,P|243:270|257:221,1,81.6666674455007,0|0,0:0|0:0,0:0:0:0:
349,149,115217,1,0,0:0:0:0:
184,165,115323,6,0,P|159:203|152:254,1,81.6666674455007,0|0,0:0|0:0,0:0:0:0:
161,359,115533,1,0,0:0:0:0:
262,215,115638,6,0,P|270:175|265:135,1,81.6666674455007,0|0,0:0|0:0,0:0:0:0:
213,8,115848,1,0,0:0:0:0:
12,144,115954,6,0,P|46:165|85:174,1,81.6666674455007,0|0,0:0|0:0,0:0:0:0:
209,89,116164,1,0,0:0:0:0:
420,220,116270,5,0,0:0:0:0:
340,285,116375,1,0,0:0:0:0:
323,182,116480,1,0,0:0:0:0:
425,254,116585,5,0,0:0:0:0:
309,272,116691,1,0,0:0:0:0:
352,162,116796,1,0,0:0:0:0:
403,327,116901,5,0,0:0:0:0:
493,182,117006,1,0,0:0:0:0:
482,307,117112,1,0,0:0:0:0:
424,145,117217,5,0,0:0:0:0:
395,341,117323,1,0,0:0:0:0:
255,218,117428,1,0,0:0:0:0:
95,352,117533,6,0,P|94:292|135:248,1,122.500001168251,0|0,0:0|0:0,0:0:0:0:
243,229,117770,1,0,0:0:0:0:
188,115,117849,2,0,B|146:134|146:134|111:136|111:136|74:153,1,122.500001168251,0|0,0:0|0:0,0:0:0:0:
67,160,118165,6,0,P|118:190|134:247,1,122.500001168251,0|0,0:0|0:0,0:0:0:0:
95,352,118375,1,0,0:0:0:0:
231,359,118481,2,0,B|231:313|231:313|245:281|245:281|245:239,1,122.500001168251,0|0,0:0|0:0,0:0:0:0:
244,230,118796,6,0,P|192:260|133:246,1,122.500001168251,0|0,0:0|0:0,0:0:0:0:
67,156,119007,1,0,0:0:0:0:
0,266,119112,2,0,B|32:289|32:289|51:319|51:319|88:346,1,122.500001168251,0|0,0:0|0:0,0:0:0:0:
301,136,119428,5,0,0:0:0:0:
494,114,119586,5,0,0:0:0:0:
512,112,119665,1,0,0:0:0:0:
408,76,119744,1,0,0:0:0:0:
397,61,119823,1,0,0:0:0:0:
421,161,119902,1,0,0:0:0:0:
413,177,119981,1,0,0:0:0:0:
489,0,120060,6,0,L|474:42,3,43.75,0|0|0|0,0:0|0:0|0:0|0:0,0:0:0:0:
239,185,120375,2,0,L|198:168,3,43.75,0|0|0|0,0:0|0:0|0:0|0:0,0:0:0:0:
308,24,120691,6,0,L|326:65,3,43.75,0|0|0|0,0:0|0:0|0:0|0:0,0:0:0:0:
262,331,121007,2,0,L|221:348,3,43.75,0|0|0|0,0:0|0:0|0:0|0:0,0:0:0:0:
155,241,121323,6,0,P|134:226|122:203,1,52.5000020027161,0|0,0:0|0:0,0:0:0:0:
309,265,121481,2,0,P|330:280|342:303,1,52.5000020027161,0|0,0:0|0:0,0:0:0:0:
111,346,121638,6,0,P|85:350|60:342,1,52.5000020027161,0|0,0:0|0:0,0:0:0:0:
355,160,121796,2,0,P|380:155|405:163,1,52.5000020027161,0|0,0:0|0:0,0:0:0:0:
217,343,121954,5,0,0:0:0:0:
220,306,122033,1,0,0:0:0:0:
229,257,122112,1,0,0:0:0:0:
250,199,122191,1,0,0:0:0:0:
285,134,122270,5,0,0:0:0:0:
237,77,122349,1,0,0:0:0:0:
167,53,122428,1,0,0:0:0:0:
95,68,122507,1,0,0:0:0:0:
40,117,122586,2,0,B|7:173|28:241,1,122.500001168251,0|0,0:0|0:0,0:0:0:0:
212,252,122902,5,0,0:0:0:0:
185,235,122981,1,0,0:0:0:0:
158,218,123060,2,0,L|106:186,1,61.2500005841255,0|0,0:0|0:0,0:0:0:0:
217,343,123217,2,0,B|279:362|335:329,1,122.500001168251,0|0,0:0|0:0,0:0:0:0:
391,192,123533,5,0,0:0:0:0:
382,211,123612,1,0,0:0:0:0:
375,231,123691,1,0,0:0:0:0:
366,252,123770,1,0,0:0:0:0:
357,273,123849,1,0,0:0:0:0:
337,130,124007,6,0,B|362:112|362:112|394:104,1,61.2500005841255,0|0,0:0|0:0,0:0:0:0:
282,209,124165,2,0,B|284:240|284:240|275:271,1,61.2500005841255,0|0,0:0|0:0,0:0:0:0:
241,120,124323,2,0,B|212:106|212:106|189:83,1,61.2500005841255,0|0,0:0|0:0,0:0:0:0:
272,283,124481,2,0,B|279:254|279:254|277:222,1,61.2500005841255,0|0,0:0|0:0,0:0:0:0:
296,40,124638,1,0,0:0:0:0:
110,144,124797,5,0,0:0:0:0:
95,117,124876,1,0,0:0:0:0:
89,86,124955,1,0,0:0:0:0:
97,56,125034,1,0,0:0:0:0:
117,33,125112,2,0,B|53:34|53:34|1:1,1,122.500001168251,0|0,0:0|0:0,0:0:0:0:
126,163,125428,5,0,0:0:0:0:
141,190,125507,1,0,0:0:0:0:
147,221,125586,1,0,0:0:0:0:
25,330,125744,2,0,B|24:266|24:266|55:216,1,122.500001168251,0|0,0:0|0:0,0:0:0:0:
204,327,126060,5,0,0:0:0:0:
177,317,126138,1,0,0:0:0:0:
150,307,126217,1,0,0:0:0:0:
124,298,126296,1,0,0:0:0:0:
97,289,126375,1,0,0:0:0:0:
269,281,126533,6,0,P|281:309|282:340,1,61.2500005841255,0|0,0:0|0:0,0:0:0:0:
381,258,126691,2,0,P|359:237|331:226,1,61.2500005841255,0|0,0:0|0:0,0:0:0:0:
332,144,126849,2,0,P|360:132|390:131,1,61.2500005841255,0|0,0:0|0:0,0:0:0:0:
309,29,127007,2,0,P|288:51|277:80,1,61.2500005841255,0|0,0:0|0:0,0:0:0:0:
198,176,127165,5,0,0:0:0:0:
225,166,127243,1,0,0:0:0:0:
241,159,127323,1,0,0:0:0:0:
200,121,127401,1,0,0:0:0:0:
145,127,127480,1,0,0:0:0:0:
116,172,127559,1,0,0:0:0:0:
132,224,127638,2,0,P|121:285|80:331,1,122.500001168251,0|0,0:0|0:0,0:0:0:0:
0,230,127954,5,0,0:0:0:0:
27,240,128033,1,0,0:0:0:0:
54,250,128111,1,0,0:0:0:0:
0,384,128270,1,0,0:0:0:0:
42,155,128428,1,0,0:0:0:0:
273,268,128586,5,0,0:0:0:0:
246,278,128665,1,0,0:0:0:0:
219,288,128744,2,0,L|153:308,1,61.2500005841255,0|0,0:0|0:0,0:0:0:0:
366,301,128902,2,0,P|369:236|332:190,1,122.500001168251,0|0,0:0|0:0,0:0:0:0:
127,139,129217,5,0,0:0:0:0:
154,149,129296,1,0,0:0:0:0:
181,159,129375,2,0,L|247:179,1,61.2500005841255,0|0,0:0|0:0,0:0:0:0:
148,311,129534,1,0,0:0:0:0:
297,123,129691,1,0,0:0:0:0:
512,271,129849,5,0,0:0:0:0:
485,326,129927,1,0,0:0:0:0:
437,362,130006,1,0,0:0:0:0:
379,376,130085,1,0,0:0:0:0:
319,363,130165,2,0,L|361:236,1,122.500001168251,0|0,0:0|0:0,0:0:0:0:
236,352,130481,5,0,0:0:0:0:
225,292,130560,1,0,0:0:0:0:
213,232,130638,1,0,0:0:0:0:
162,384,130797,2,0,L|75:283,1,122.500001168251,0|0,0:0|0:0,0:0:0:0:
338,304,131112,6,0,L|318:362,1,61.2500005841255,0|0,0:0|0:0,0:0:0:0:
213,232,131270,1,0,0:0:0:0:
202,172,131349,1,0,0:0:0:0:
192,113,131428,2,0,L|180:51,1,61.2500005841255,0|0,0:0|0:0,0:0:0:0:
270,139,131586,2,0,L|329:160,1,61.2500005841255,0|0,0:0|0:0,0:0:0:0:
130,165,131744,2,0,L|82:206,1,61.2500005841255,0|0,0:0|0:0,0:0:0:0:
261,43,131902,5,0,0:0:0:0:
261,43,131981,1,0,0:0:0:0:
261,43,132060,2,0,L|331:69,1,61.2500005841255,0|0,0:0|0:0,0:0:0:0:
99,83,132218,2,0,L|51:124,1,61.2500005841255,0|0,0:0|0:0,0:0:0:0:
226,292,132376,2,0,L|214:230,1,61.2500005841255,0|0,0:0|0:0,0:0:0:0:
403,105,132534,5,0,0:0:0:0:
403,105,132613,1,0,0:0:0:0:
403,105,132691,2,0,L|414:165,1,61.2500005841255,0|0,0:0|0:0,0:0:0:0:
450,344,132849,5,0,0:0:0:0:
404,302,132927,1,0,0:0:0:0:
344,289,133006,1,0,0:0:0:0:
287,307,133085,1,0,0:0:0:0:
230,325,133164,1,0,0:0:0:0:
172,306,133243,1,0,0:0:0:0:
136,257,133323,2,0,L|125:196,1,61.2500005841255,0|0,0:0|0:0,0:0:0:0:
266,91,133481,5,0,0:0:0:0:
255,149,133559,1,0,0:0:0:0:
205,181,133638,1,0,0:0:0:0:
147,166,133717,1,0,0:0:0:0:
119,113,133796,1,0,0:0:0:0:
139,57,133875,1,0,0:0:0:0:
194,33,133954,2,0,P|227:29|268:10,1,61.2500005841255,0|0,0:0|0:0,0:0:0:0:
125,196,134112,6,0,L|136:259,1,61.2500005841255,0|0,0:0|0:0,0:0:0:0:
332,43,134270,2,0,P|342:71|345:102,1,61.2500005841255,0|0,0:0|0:0,0:0:0:0:
114,285,134428,2,0,L|104:225,1,61.2500005841255,0|0,0:0|0:0,0:0:0:0:
358,4,134586,2,0,P|368:33|372:64,1,61.2500005841255,0|0,0:0|0:0,0:0:0:0:
336,187,134744,5,0,0:0:0:0:
336,187,134823,1,0,0:0:0:0:
336,187,134902,2,0,B|314:210|314:210|286:223,1,61.2500005841255,0|0,0:0|0:0,0:0:0:0:
108,382,135060,2,0,B|130:359|130:359|158:346,1,61.2500005841255,0|0,0:0|0:0,0:0:0:0:
362,299,135217,5,0,0:0:0:0:
308,326,135295,1,0,0:0:0:0:
248,321,135374,1,0,0:0:0:0:
200,284,135453,1,0,0:0:0:0:
181,227,135532,1,0,0:0:0:0:
161,169,135611,1,0,0:0:0:0:
113,132,135690,1,0,0:0:0:0:
53,127,135769,1,0,0:0:0:0:
0,155,135849,5,0,0:0:0:0:
59,168,135927,1,0,0:0:0:0:
120,164,136006,1,0,0:0:0:0:
177,142,136085,1,0,0:0:0:0:
225,105,136164,1,0,0:0:0:0:
273,67,136243,1,0,0:0:0:0:
331,49,136323,1,0,0:0:0:0:
390,55,136402,1,0,0:0:0:0:
441,83,136481,2,0,P|471:87|501:85,1,61.2500005841255,0|0,0:0|0:0,0:0:0:0:
221,244,136638,6,0,L|279:225,1,61.2500005841255,0|0,0:0|0:0,0:0:0:0:
360,137,136796,2,0,L|378:195,1,61.2500005841255,0|0,0:0|0:0,0:0:0:0:
162,262,136954,2,0,L|220:243,1,61.2500005841255,0|0,0:0|0:0,0:0:0:0:
416,215,137112,2,0,L|397:156,1,61.2500005841255,0|0,0:0|0:0,0:0:0:0:
330,312,137270,5,0,0:0:0:0:
330,312,137349,1,0,0:0:0:0:
330,312,137428,1,0,0:0:0:0:
292,360,137506,1,0,0:0:0:0:
237,384,137585,1,0,0:0:0:0:
177,380,137664,1,0,0:0:0:0:
126,346,137744,6,0,L|68:325,1,61.2500005841255,0|0,0:0|0:0,0:0:0:0:
220,243,137902,2,0,L|162:262,1,61.2500005841255,0|0,0:0|0:0,0:0:0:0:
87,365,138060,2,0,L|29:344,1,61.2500005841255,0|0,0:0|0:0,0:0:0:0:
184,214,138217,2,0,L|242:195,1,61.2500005841255,0|0,0:0|0:0,0:0:0:0:
44,79,138376,5,0,0:0:0:0:
49,97,138454,1,0,0:0:0:0:
54,115,138533,1,0,0:0:0:0:
58,134,138612,1,0,0:0:0:0:
63,152,138691,1,0,0:0:0:0:
67,171,138770,1,0,0:0:0:0:
72,189,138849,2,0,L|87:248,1,61.2500005841255,0|0,0:0|0:0,0:0:0:0:
377,186,139007,2,0,L|317:171,1,61.2500005841255,0|0,0:0|0:0,0:0:0:0:
132,90,139165,5,0,0:0:0:0:
151,94,139244,1,0,0:0:0:0:
168,100,139323,2,0,L|227:115,1,61.2500005841255,0|0,0:0|0:0,0:0:0:0:
175,378,139481,2,0,L|160:318,3,61.2500005841255,0|0|0|0,0:0|0:0|0:0|0:0,0:0:0:0:
238,191,139796,5,0,0:0:0:0:
243,217,139875,1,0,0:0:0:0:
231,241,139954,1,0,0:0:0:0:
205,250,140033,1,0,0:0:0:0:
179,238,140112,1,0,0:0:0:0:
169,213,140191,1,0,0:0:0:0:
178,188,140270,5,0,0:0:0:0:
131,185,140348,1,0,0:0:0:0:
86,199,140427,1,0,0:0:0:0:
50,229,140506,1,0,0:0:0:0:
27,270,140585,1,0,0:0:0:0:
20,316,140664,1,0,0:0:0:0:
30,362,140744,5,0,0:0:0:0:
62,323,140822,1,0,0:0:0:0:
82,277,140902,1,0,0:0:0:0:
88,228,140980,1,0,0:0:0:0:
79,178,141059,1,0,0:0:0:0:
58,133,141138,1,0,0:0:0:0:
24,96,141217,5,0,0:0:0:0:
50,106,141295,1,0,0:0:0:0:
78,110,141374,1,0,0:0:0:0:
106,107,141453,1,0,0:0:0:0:
133,99,141532,5,0,0:0:0:0:
155,154,141611,1,0,0:0:0:0:
195,200,141690,1,0,0:0:0:0:
248,231,141769,1,0,0:0:0:0:
308,243,141848,1,0,0:0:0:0:
368,234,141927,1,0,0:0:0:0:
423,207,142006,1,0,0:0:0:0:
465,163,142085,1,0,0:0:0:0:
491,108,142164,5,0,0:0:0:0:
426,72,142243,1,0,0:0:0:0:
354,59,142322,1,0,0:0:0:0:
282,68,142401,1,0,0:0:0:0:
216,100,142480,1,0,0:0:0:0:
162,150,142559,1,0,0:0:0:0:
127,214,142638,1,0,0:0:0:0:
114,286,142717,1,0,0:0:0:0:
123,359,142796,6,0,P|155:347|177:319,1,61.2500005841255,0|0,0:0|0:0,0:0:0:0:
90,127,142954,6,0,L|41:164,1,61.2500005841255,0|0,0:0|0:0,0:0:0:0:
204,223,143112,2,0,L|261:245,1,61.2500005841255,0|0,0:0|0:0,0:0:0:0:
227,75,143270,2,0,L|220:13,1,61.2500005841255,0|0,0:0|0:0,0:0:0:0:
114,286,143428,6,0,L|106:224,1,61.2500005841255,0|0,0:0|0:0,0:0:0:0:
135,39,143586,6,0,L|78:17,1,61.2500005841255,0|0,0:0|0:0,0:0:0:0:
278,158,143744,2,0,L|327:121,1,61.2500005841255,0|0,0:0|0:0,0:0:0:0:
106,225,143902,2,0,L|112:286,1,61.2500005841255,0|0,0:0|0:0,0:0:0:0:
220,14,144060,6,0,L|227:75,1,61.2500005841255,0|0,0:0|0:0,0:0:0:0:
203,223,144217,6,0,L|266:246,1,61.2500005841255,0|0,0:0|0:0,0:0:0:0:
376,84,144375,2,0,L|326:120,1,61.2500005841255,0|0,0:0|0:0,0:0:0:0:
409,303,144533,2,0,L|402:242,1,61.2500005841255,0|0,0:0|0:0,0:0:0:0:
425,47,144691,6,0,L|376:83,1,61.2500005841255,0|0,0:0|0:0,0:0:0:0:
267,356,144849,6,0,L|317:320,1,61.2500005841255,0|0,0:0|0:0,0:0:0:0:
496,179,145007,2,0,L|440:155,1,61.2500005841255,0|0,0:0|0:0,0:0:0:0:
233,135,145165,2,0,L|226:74,1,61.2500005841255,0|0,0:0|0:0,0:0:0:0:
415,363,145323,6,0,L|408:302,1,61.2500005841255,0|0,0:0|0:0,0:0:0:0:
15,315,145481,5,0,0:0:0:0:
15,315,145560,1,0,0:0:0:0:
15,315,145638,2,0,P|35:292|64:282,1,61.2500005841255,0|0,0:0|0:0,0:0:0:0:
74,178,145796,2,0,P|45:173|16:183,1,61.2500005841255,0|0,0:0|0:0,0:0:0:0:
82,70,145954,6,0,P|111:76|135:96,1,61.2500005841255,0|0,0:0|0:0,0:0:0:0:
161,320,146112,6,0,P|185:339|215:346,1,61.2500005841255,0|0,0:0|0:0,0:0:0:0:
221,236,146270,2,0,P|251:241|281:233,1,61.2500005841255,0|0,0:0|0:0,0:0:0:0:
232,135,146428,2,0,P|261:124|282:102,1,61.2500005841255,0|0,0:0|0:0,0:0:0:0:
501,168,146586,6,0,P|484:142|458:127,1,61.2500005841255,0|0,0:0|0:0,0:0:0:0:
139,231,146744,2,0,P|145:201|163:176,1,61.2500005841255,0|0,0:0|0:0,0:0:0:0:
93,135,146902,2,0,P|114:113|142:102,1,61.2500005841255,0|0,0:0|0:0,0:0:0:0:
439,261,147060,2,0,P|437:229|423:202,1,61.2500005841255,0|0,0:0|0:0,0:0:0:0:
506,55,147217,6,0,P|478:41|447:41,1,61.2500005841255,0|0,0:0|0:0,0:0:0:0:
228,297,147375,2,0,P|219:267|222:237,1,61.2500005841255,0|0,0:0|0:0,0:0:0:0:
110,24,147533,2,0,P|138:16|169:20,1,61.2500005841255,0|0,0:0|0:0,0:0:0:0:
341,310,147691,2,0,P|355:283|357:253,1,61.2500005841255,0|0,0:0|0:0,0:0:0:0:
35,88,147849,6,0,L|17:29,1,61.2500005841255,0|0,0:0|0:0,0:0:0:0:
274,88,148007,5,0,0:0:0:0:
274,88,148085,1,0,0:0:0:0:
274,88,148165,2,0,L|246:176,1,61.2500005841255,0|0,0:0|0:0,0:0:0:0:
113,96,148323,2,0,L|96:38,1,61.2500005841255,0|0,0:0|0:0,0:0:0:0:
440,118,148481,6,0,L|382:137,1,61.2500005841255,0|0,0:0|0:0,0:0:0:0:
181,276,148638,6,0,L|153:187,1,61.2500005841255,0|0,0:0|0:0,0:0:0:0:
440,118,148796,2,0,L|528:90,1,61.2500005841255,0|0,0:0|0:0,0:0:0:0:
199,334,148954,2,0,L|171:245,1,61.2500005841255,0|0,0:0|0:0,0:0:0:0:
187,11,149112,6,0,P|199:38|199:69,1,61.2500005841255,0|0,0:0|0:0,0:0:0:0:
279,322,149270,6,0,P|296:347|323:362,1,61.2500005841255,0|0,0:0|0:0,0:0:0:0:
58,169,149428,2,0,P|30:160|0:163,1,61.2500005841255,0|0,0:0|0:0,0:0:0:0:
330,166,149586,2,0,P|359:156|382:137,1,61.2500005841255,0|0,0:0|0:0,0:0:0:0:
87,382,149744,6,0,P|94:352|112:328,3,61.2500005841255,0|0|0|0,0:0|0:0|0:0|0:0,0:0:0:0:
170,247,150059,1,0,0:0:0:0:
170,247,150138,1,0,0:0:0:0:
184,271,150218,5,0,0:0:0:0:
243,235,150297,1,0,0:0:0:0:
312,247,150375,6,0,P|344:267|367:307,1,61.2500005841255,0|0,0:0|0:0,0:0:0:0:
148,148,150533,2,0,L|92:123,1,61.2500005841255,0|0,0:0|0:0,0:0:0:0:
287,322,150691,2,0,P|285:360|262:400,1,61.2500005841255,0|0,0:0|0:0,0:0:0:0:
240,76,150849,2,0,L|233:15,1,61.2500005841255,0|0,0:0|0:0,0:0:0:0:
151,362,151007,6,0,P|181:356|207:341,1,61.2500005841255,0|0,0:0|0:0,0:0:0:0:
397,84,151165,2,0,L|347:119,1,61.2500005841255,0|0,0:0|0:0,0:0:0:0:
107,244,151323,2,0,P|126:267|153:282,3,61.2500005841255,0|0|0|0,0:0|0:0|0:0|0:0,0:0:0:0:
25,285,151638,5,0,0:0:0:0:
17,225,151716,1,0,0:0:0:0:
48,173,151795,1,0,0:0:0:0:
104,152,151874,1,0,0:0:0:0:
162,170,151954,1,0,0:0:0:0:
219,187,152032,1,0,0:0:0:0:
275,166,152111,1,0,0:0:0:0:
306,114,152190,1,0,0:0:0:0:
299,55,152270,5,0,0:0:0:0:
266,115,152348,1,0,0:0:0:0:
255,183,152427,1,0,0:0:0:0:
267,251,152506,1,0,0:0:0:0:
301,310,152586,5,0,0:0:0:0:
374,258,152664,1,0,0:0:0:0:
414,177,152743,1,0,0:0:0:0:
409,86,152822,1,0,0:0:0:0:
361,10,152901,1,0,0:0:0:0:
460,181,153060,6,0,L|487:184,1,26.2500010013581,0|0,0:0|0:0,0:0:0:0:
409,289,153217,2,0,L|431:308,1,26.2500010013581,0|0,0:0|0:0,0:0:0:0:
307,357,153375,2,0,L|309:383,1,26.2500010013581,0|0,0:0|0:0,0:0:0:0:
67,273,153533,6,0,L|58:301,1,26.2500010013581,0|0,0:0|0:0,0:0:0:0:
186,282,153691,2,0,L|193:317,1,26.2500010013581,0|0,0:0|0:0,0:0:0:0:
295,228,153849,2,0,L|314:248,1,26.2500010013581,0|0,0:0|0:0,0:0:0:0:
366,130,154007,2,0,L|394:142,1,26.2500010013581,0|0,0:0|0:0,0:0:0:0:
106,60,154165,6,0,L|79:56,1,26.2500010013581,0|0,0:0|0:0,0:0:0:0:
119,181,154323,2,0,L|93:188,1,26.2500010013581,0|0,0:0|0:0,0:0:0:0:
186,282,154481,2,0,L|168:301,1,26.2500010013581,0|0,0:0|0:0,0:0:0:0:
294,334,154639,2,0,L|288:359,1,26.2500010013581,0|0,0:0|0:0,0:0:0:0:
360,108,154796,6,0,L|367:82,1,26.2500010013581,0|0,0:0|0:0,0:0:0:0:
237,99,154954,2,0,L|234:72,1,26.2500010013581,0|0,0:0|0:0,0:0:0:0:
126,148,155112,2,0,L|109:127,1,26.2500010013581,0|0,0:0|0:0,0:0:0:0:
56,245,155270,2,0,L|31:235,1,26.2500010013581,0|0,0:0|0:0,0:0:0:0:
145,0,155428,6,0,L|144:33,1,26.2500010013581,0|0,0:0|0:0,0:0:0:0:
205,212,155586,1,0,0:0:0:0:
204,202,155665,1,0,0:0:0:0:
203,193,155744,2,0,L|199:155,1,26.2500010013581,0|0,0:0|0:0,0:0:0:0:
358,107,155902,2,0,L|355:133,1,26.2500010013581,0|0,0:0|0:0,0:0:0:0:
446,346,156060,6,0,L|399:331,1,26.2500010013581,0|0,0:0|0:0,0:0:0:0:
128,313,156217,2,0,L|139:361,1,26.2500010013581,0|0,0:0|0:0,0:0:0:0:
225,311,156375,2,0,L|236:359,1,26.2500010013581,0|0,0:0|0:0,0:0:0:0:
322,309,156533,2,0,L|333:357,1,26.2500010013581,0|0,0:0|0:0,0:0:0:0:
366,82,156691,6,0,L|352:127,1,26.2500010013581,0|0,0:0|0:0,0:0:0:0:
128,313,156849,2,0,L|82:299,1,26.2500010013581,0|0,0:0|0:0,0:0:0:0:
108,82,157007,2,0,L|137:115,1,26.2500010013581,0|0,0:0|0:0,0:0:0:0:
388,328,157165,2,0,L|424:294,1,26.2500010013581,0|0,0:0|0:0,0:0:0:0:
392,116,157323,6,0,L|370:150,1,26.2500010013581,0|0,0:0|0:0,0:0:0:0:
102,278,157481,2,0,L|59:252,1,26.2500010013581,0|0,0:0|0:0,0:0:0:0:
95,128,157639,2,0,L|134:154,1,26.2500010013581,0|0,0:0|0:0,0:0:0:0:
398,279,157797,2,0,L|424:239,1,26.2500010013581,0|0,0:0|0:0,0:0:0:0:
253,80,157954,6,0,L|257:3,1,61.2500005841255,0|0,0:0|0:0,0:0:0:0:
244,197,158112,5,0,0:0:0:0:
240,258,158191,1,0,0:0:0:0:
236,319,158270,2,0,L|232:380,1,61.2500005841255,0|0,0:0|0:0,0:0:0:0:
402,357,158428,2,0,L|341:354,1,61.2500005841255,0|0,0:0|0:0,0:0:0:0:
67,341,158586,6,0,L|128:345,1,61.2500005841255,0|0,0:0|0:0,0:0:0:0:
401,356,158744,6,0,L|463:360,1,61.2500005841255,0|0,0:0|0:0,0:0:0:0:
67,341,158902,2,0,L|6:338,1,61.2500005841255,0|0,0:0|0:0,0:0:0:0:
249,141,159060,2,0,L|253:64,1,61.2500005841255,0|0,0:0|0:0,0:0:0:0:
232,380,159217,6,0,L|236:319,1,61.2500005841255,0|0,0:0|0:0,0:0:0:0:
249,141,159375,6,0,L|245:202,1,61.2500005841255,0|0,0:0|0:0,0:0:0:0:
407,262,159533,2,0,L|348:243,1,61.2500005841255,0|0,0:0|0:0,0:0:0:0:
88,262,159691,2,0,L|146:243,1,61.2500005841255,0|0,0:0|0:0,0:0:0:0:
413,125,159849,6,0,L|354:143,3,61.2500005841255,0|0|0|0,0:0|0:0|0:0|0:0,0:0:0:0:
252,79,160165,1,0,0:0:0:0:
252,79,160244,1,0,0:0:0:0:
252,79,160323,6,0,L|311:61,1,61.2500005841255,0|0,0:0|0:0,0:0:0:0:
72,133,160481,5,0,0:0:0:0:
36,166,160559,1,0,0:0:0:0:
17,211,160639,1,0,0:0:0:0:
16,259,160717,1,0,0:0:0:0:
35,304,160797,1,0,0:0:0:0:
70,338,160875,1,0,0:0:0:0:
115,356,160955,1,0,0:0:0:0:
164,355,161033,1,0,0:0:0:0:
208,334,161113,5,0,0:0:0:0:
256,276,161190,1,0,0:0:0:0:
329,255,161270,1,0,0:0:0:0:
400,280,161348,1,0,0:0:0:0:
445,340,161428,5,0,0:0:0:0:
357,319,161506,1,0,0:0:0:0:
288,261,161585,1,0,0:0:0:0:
252,178,161664,1,0,0:0:0:0:
257,88,161744,6,0,P|361:121|383:214,1,210,0|0,0:0|0:0,0:0:0:0:
378,237,162296,1,0,0:0:0:0:
394,198,162375,2,0,P|364:101|267:76,1,210,0|0,0:0|0:0,0:0:0:0:
399,77,163007,5,0,0:0:0:0:
176,282,163165,1,0,0:0:0:0:
269,159,163323,1,0,0:0:0:0:
198,190,163402,1,0,0:0:0:0:
260,237,163481,1,0,0:0:0:0:
48,89,163639,2,0,B|91:93|91:93|127:112|127:112|164:118,1,122.500001168251,0|0,0:0|0:0,0:0:0:0:
404,173,163955,1,0,0:0:0:0:
332,205,164034,1,0,0:0:0:0:
260,237,164113,1,0,0:0:0:0:
468,207,164270,5,0,0:0:0:0:
269,75,164428,1,0,0:0:0:0:
251,314,164586,1,0,0:0:0:0:
323,283,164665,1,0,0:0:0:0:
260,237,164744,1,0,0:0:0:0:
433,374,164902,2,0,P|373:381|316:361,1,122.500001168251,0|0,0:0|0:0,0:0:0:0:
116,297,165218,1,0,0:0:0:0:
188,267,165297,1,0,0:0:0:0:
260,237,165376,1,0,0:0:0:0:
130,382,165534,6,0,P|159:372|183:353,2,61.2500005841255,0|0|0,0:0|0:0|0:0,0:0:0:0:
46,221,165849,1,0,0:0:0:0:
36,276,165928,1,0,0:0:0:0:
26,331,166006,1,0,0:0:0:0:
248,154,166165,2,0,P|220:165|196:184,2,61.2500005841255,0|0|0,0:0|0:0|0:0,0:0:0:0:
94,58,166480,1,0,0:0:0:0:
104,113,166560,1,0,0:0:0:0:
114,168,166639,1,0,0:0:0:0:
260,237,166797,5,0,0:0:0:0:
84,3,166955,1,0,0:0:0:0:
248,154,167113,1,0,0:0:0:0:
322,182,167192,1,0,0:0:0:0:
308,102,167271,1,0,0:0:0:0:
392,306,167428,2,0,B|354:307|354:307|316:322|316:322|272:320,1,122.500001168251,0|0,0:0|0:0,0:0:0:0:
482,358,167744,1,0,0:0:0:0:
503,321,167823,1,0,0:0:0:0:
494,265,167902,1,0,0:0:0:0:
446,214,167981,1,0,0:0:0:0:
429,133,168060,6,0,P|417:72|435:10,1,122.500001168251,0|0,0:0|0:0,0:0:0:0:
512,76,168376,2,0,L|444:77,1,61.2500005841255,0|0,0:0|0:0,0:0:0:0:
249,215,168534,2,0,L|303:245,1,61.2500005841255,0|0,0:0|0:0,0:0:0:0:
344,200,168691,2,0,P|328:259|288:305,1,122.500001168251,0|0,0:0|0:0,0:0:0:0:
282,115,169007,1,0,0:0:0:0:
216,78,169086,1,0,0:0:0:0:
152,41,169165,1,0,0:0:0:0:
334,55,169323,5,0,0:0:0:0:
134,183,169481,1,0,0:0:0:0:
344,200,169639,1,0,0:0:0:0:
419,186,169718,1,0,0:0:0:0:
368,126,169797,1,0,0:0:0:0:
450,368,169955,2,0,B|437:327|437:327|409:297|409:297|394:262,1,122.500001168251,0|0,0:0|0:0,0:0:0:0:
264,362,170270,2,0,L|288:305,1,61.2500005841255,0|0,0:0|0:0,0:0:0:0:
233,155,170428,2,0,L|257:212,1,61.2500005841255,0|0,0:0|0:0,0:0:0:0:
182,295,170586,5,0,0:0:0:0:
158,239,170664,1,0,0:0:0:0:
134,183,170743,1,0,0:0:0:0:
20,236,170902,1,0,0:0:0:0:
44,180,170980,1,0,0:0:0:0:
68,124,171059,1,0,0:0:0:0:
240,155,171218,1,0,0:0:0:0:
296,131,171296,1,0,0:0:0:0:
352,107,171375,1,0,0:0:0:0:
310,0,171533,1,0,0:0:0:0:
366,24,171612,1,0,0:0:0:0:
422,48,171691,2,0,L|479:73,1,61.2500005841255,0|0,0:0|0:0,0:0:0:0:
240,61,171849,6,0,L|183:36,1,61.2500005841255,0|0,0:0|0:0,0:0:0:0:
395,190,172007,2,0,P|425:183|450:167,1,61.2500005841255,0|0,0:0|0:0,0:0:0:0:
199,78,172165,6,0,L|163:28,1,61.2500005841255,0|0,0:0|0:0,0:0:0:0:
352,257,172323,2,0,P|381:266|411:265,1,61.2500005841255,0|0,0:0|0:0,0:0:0:0:
154,71,172481,2,0,L|148:10,1,61.2500005841255,0|0,0:0|0:0,0:0:0:0:
285,294,172639,2,0,P|306:316|332:330,1,61.2500005841255,0|0,0:0|0:0,0:0:0:0:
379,113,172796,6,0,B|344:137|293:133|293:133|247:157|247:157|205:150|157:179,1,236.250009012223,0|0,0:0|0:0,0:0:0:0:
6,305,173113,5,0,0:0:0:0:
65,130,173270,1,0,0:0:0:0:
220,378,173428,1,0,0:0:0:0:
220,378,173507,1,0,0:0:0:0:
220,378,173586,1,0,0:0:0:0:
394,229,173744,1,0,0:0:0:0:
206,266,173901,1,0,0:0:0:0:
341,5,174060,5,0,0:0:0:0:
305,54,174138,1,0,0:0:0:0:
284,112,174217,1,0,0:0:0:0:
280,172,174296,1,0,0:0:0:0:
294,232,174375,1,0,0:0:0:0:
228,57,174533,1,0,0:0:0:0:
353,187,174691,1,0,0:0:0:0:
374,129,174770,1,0,0:0:0:0:
378,69,174849,1,0,0:0:0:0:
165,0,175007,2,0,B|146:33|146:33|151:125,1,122.500001168251,0|0,0:0|0:0,0:0:0:0:
157,288,175323,5,0,0:0:0:0:
101,301,175402,1,0,0:0:0:0:
71,252,175481,1,0,0:0:0:0:
108,209,175559,1,0,0:0:0:0:
161,230,175638,2,0,P|217:211|257:161,1,122.500001168251,0|0,0:0|0:0,0:0:0:0:
369,142,175955,1,0,0:0:0:0:
350,85,176033,1,0,0:0:0:0:
303,47,176112,1,0,0:0:0:0:
327,230,176270,2,0,P|347:286|397:326,1,122.500001168251,0|0,0:0|0:0,0:0:0:0:
427,60,176586,5,0,0:0:0:0:
460,16,176664,1,0,0:0:0:0:
512,34,176743,1,0,0:0:0:0:
512,90,176822,1,0,0:0:0:0:
458,107,176902,2,0,P|428:158|429:222,1,122.500001168251,0|0,0:0|0:0,0:0:0:0:
506,305,177218,1,0,0:0:0:0:
506,305,177297,1,0,0:0:0:0:
506,305,177376,1,0,0:0:0:0:
260,384,177534,5,0,0:0:0:0:
230,382,177613,1,0,0:0:0:0:
216,356,177691,1,0,0:0:0:0:
239,335,177770,1,0,0:0:0:0:
275,352,177849,5,0,0:0:0:0:
298,296,177927,1,0,0:0:0:0:
288,236,178006,1,0,0:0:0:0:
250,190,178085,1,0,0:0:0:0:
193,169,178165,2,0,P|144:137|107:82,1,122.500001168251,0|0,0:0|0:0,0:0:0:0:
51,163,178481,6,0,L|15:215,1,61.2500005841255,0|0,0:0|0:0,0:0:0:0:
202,75,178639,2,0,L|237:25,1,61.2500005841255,0|0,0:0|0:0,0:0:0:0:
116,256,178797,2,0,B|107:336|121:320|111:379,1,122.500001168251,0|0,0:0|0:0,0:0:0:0:
193,169,179113,1,0,0:0:0:0:
250,190,179191,1,0,0:0:0:0:
288,236,179270,1,0,0:0:0:0:
330,196,179349,1,0,0:0:0:0:
383,179,179428,1,0,0:0:0:0:
413,341,179586,6,0,L|380:281,1,61.2500005841255,0|0,0:0|0:0,0:0:0:0:
304,63,179744,2,0,L|297:126,1,61.2500005841255,0|0,0:0|0:0,0:0:0:0:
169,323,179902,2,0,L|199:270,1,61.2500005841255,0|0,0:0|0:0,0:0:0:0:
470,74,180060,2,0,B|460:158|460:158|435:187,1,122.500001168251,0|0,0:0|0:0,0:0:0:0:
208,61,180376,2,0,L|214:0,1,61.2500005841255,0|0,0:0|0:0,0:0:0:0:
395,0,180533,2,0,L|388:63,1,61.2500005841255,0|0,0:0|0:0,0:0:0:0:
105,197,180691,6,0,L|118:72,1,122.500001168251,0|0,0:0|0:0,0:0:0:0:
304,63,181007,2,0,L|298:124,2,61.2500005841255,0|0|0,0:0|0:0|0:0,0:0:0:0:
199,272,181323,2,0,L|212:147,1,122.500001168251,0|0,0:0|0:0,0:0:0:0:
396,1,181639,2,0,L|389:61,2,61.2500005841255,0|0|0,0:0|0:0|0:0,0:0:0:0:
426,289,181954,6,0,L|418:209,1,78.7500030040742,0|0,0:0|0:0,0:0:0:0:
512,122,182112,2,0,L|432:130,1,78.7500030040742,0|0,0:0|0:0,0:0:0:0:
352,336,182270,6,0,L|344:256,1,78.7500030040742,0|0,0:0|0:0,0:0:0:0:
434,130,182428,2,0,L|354:138,1,78.7500030040742,0|0,0:0|0:0,0:0:0:0:
277,384,182586,6,0,L|269:304,1,78.7500030040742,0|0,0:0|0:0,0:0:0:0:
356,138,182744,2,0,L|276:146,1,78.7500030040742,0|0,0:0|0:0,0:0:0:0:
189,356,182902,6,0,L|181:276,3,78.7500030040742,0|0|0|0,0:0|0:0|0:0|0:0,0:0:0:0:
269,305,183217,5,0,0:0:0:0:
344,257,183296,1,0,0:0:0:0:
418,210,183375,2,0,L|474:173,1,52.5,0|0,0:0|0:0,0:0:0:0:
492,163,183691,5,0,0:0:0:0:
470,78,183770,1,0,0:0:0:0:
382,72,183849,1,0,0:0:0:0:
349,153,183928,1,0,0:0:0:0:
418,210,184007,2,0,L|461:238,1,52.5,0|0,0:0|0:0,0:0:0:0:
492,257,184323,5,0,0:0:0:0:
417,305,184402,1,0,0:0:0:0:
343,352,184481,1,0,0:0:0:0:
269,305,184560,1,0,0:0:0:0:
195,258,184638,2,0,L|151:229,1,52.5,0|0,0:0|0:0,0:0:0:0:
122,211,184954,5,0,0:0:0:0:
98,126,185033,1,0,0:0:0:0:
173,77,185112,2,0,L|200:62,1,17.5,0|0,0:0|0:0,0:0:0:0:
270,20,185270,5,0,0:0:0:0:
294,105,185349,1,0,0:0:0:0:
219,154,185428,2,0,L|191:168,1,17.5,0|0,0:0|0:0,0:0:0:0:
122,211,185586,5,0,0:0:0:0:
47,258,185665,1,0,0:0:0:0:
69,343,185744,1,0,0:0:0:0:
156,350,185823,1,0,0:0:0:0:
189,266,185902,2,0,L|202:215,1,52.5,0|0,0:0|0:0,0:0:0:0:
213,182,186217,5,0,0:0:0:0:
287,232,186296,1,0,0:0:0:0:
356,176,186375,1,0,0:0:0:0:
430,225,186454,1,0,0:0:0:0:
499,169,186533,2,0,L|455:140,1,52.5,0|0,0:0|0:0,0:0:0:0:
426,119,186849,5,0,0:0:0:0:
352,69,186928,1,0,0:0:0:0:
278,19,187007,1,0,0:0:0:0:
209,76,187086,1,0,0:0:0:0:
140,132,187165,2,0,L|102:168,1,52.5,0|0,0:0|0:0,0:0:0:0:
75,191,187481,5,0,0:0:0:0:
6,248,187560,1,0,0:0:0:0:
89,279,187638,2,0,L|117:292,1,17.5,0|0,0:0|0:0,0:0:0:0:
172,310,187796,5,0,0:0:0:0:
255,341,187875,1,0,0:0:0:0:
242,253,187954,2,0,L|214:240,1,17.5,0|0,0:0|0:0,0:0:0:0:
159,222,188112,5,0,0:0:0:0:
228,165,188191,1,0,0:0:0:0:
311,196,188270,5,0,0:0:0:0:
314,217,188349,1,0,0:0:0:0:
317,238,188428,1,0,0:0:0:0:
381,90,188744,5,0,0:0:0:0:
384,111,188823,1,0,0:0:0:0:
387,132,188902,1,0,0:0:0:0:
390,153,188981,1,0,0:0:0:0:
393,174,189060,1,0,0:0:0:0:
213,60,189375,5,0,0:0:0:0:
216,81,189454,1,0,0:0:0:0:
219,102,189533,1,0,0:0:0:0:
222,123,189612,1,0,0:0:0:0:
225,144,189691,1,0,0:0:0:0:
175,331,190007,5,0,0:0:0:0:
172,310,190086,1,0,0:0:0:0:
170,289,190165,2,0,L|164:243,1,43.75,0|0,0:0|0:0,0:0:0:0:
311,196,190323,5,0,0:0:0:0:
308,175,190402,1,0,0:0:0:0:
306,154,190481,2,0,L|300:108,1,43.75,0|0,0:0|0:0,0:0:0:0:
289,24,190638,5,0,0:0:0:0:
213,60,190717,1,0,0:0:0:0:
137,24,190796,5,0,0:0:0:0:
134,45,190875,1,0,0:0:0:0:
131,66,190954,1,0,0:0:0:0:
164,245,191270,5,0,0:0:0:0:
167,224,191349,1,0,0:0:0:0:
170,203,191428,1,0,0:0:0:0:
173,182,191507,1,0,0:0:0:0:
176,161,191586,1,0,0:0:0:0:
48,233,191902,5,0,0:0:0:0:
51,212,191981,1,0,0:0:0:0:
54,191,192060,1,0,0:0:0:0:
57,170,192139,1,0,0:0:0:0:
60,149,192218,1,0,0:0:0:0:
164,245,192533,5,0,0:0:0:0:
161,266,192612,1,0,0:0:0:0:
159,287,192691,2,0,L|153:333,1,43.75,0|0,0:0|0:0,0:0:0:0:
300,110,192849,5,0,0:0:0:0:
297,131,192928,1,0,0:0:0:0:
295,152,193007,2,0,L|289:198,1,43.75,0|0,0:0|0:0,0:0:0:0:
278,280,193165,5,0,0:0:0:0:
354,244,193244,1,0,0:0:0:0:
430,208,193323,5,0,0:0:0:0:
457,270,193402,1,0,0:0:0:0:
437,336,193481,1,0,0:0:0:0:
380,373,193560,1,0,0:0:0:0:
311,362,193639,1,0,0:0:0:0:
267,310,193718,1,0,0:0:0:0:
267,241,193796,1,0,0:0:0:0:
267,172,193875,1,0,0:0:0:0:
222,120,193954,1,0,0:0:0:0:
154,110,194033,1,0,0:0:0:0:
96,147,194112,1,0,0:0:0:0:
76,212,194191,1,0,0:0:0:0:
104,275,194269,5,0,0:0:0:0:
125,234,194348,1,0,0:0:0:0:
134,189,194427,1,0,0:0:0:0:
130,143,194506,1,0,0:0:0:0:
115,100,194585,5,0,0:0:0:0:
139,139,194665,1,0,0:0:0:0:
173,169,194744,1,0,0:0:0:0:
215,189,194823,1,0,0:0:0:0:
260,197,194902,5,0,0:0:0:0:
305,205,194981,1,0,0:0:0:0:
347,225,195060,1,0,0:0:0:0:
381,255,195139,1,0,0:0:0:0:
404,293,195217,5,0,0:0:0:0:
389,250,195296,1,0,0:0:0:0:
385,205,195375,1,0,0:0:0:0:
394,160,195454,1,0,0:0:0:0:
415,119,195533,1,0,0:0:0:0:
422,69,195612,1,0,0:0:0:0:
418,24,195691,6,0,P|390:46|376:77,1,61.2500005841255,0|0,0:0|0:0,0:0:0:0:
305,205,195849,5,0,0:0:0:0:
266,263,195927,1,0,0:0:0:0:
205,295,196006,1,0,0:0:0:0:
135,293,196085,1,0,0:0:0:0:
76,258,196164,1,0,0:0:0:0:
40,199,196243,1,0,0:0:0:0:
38,129,196322,1,0,0:0:0:0:
64,66,196401,1,0,0:0:0:0:
126,37,196480,1,0,0:0:0:0:
192,57,196559,1,0,0:0:0:0:
227,115,196638,1,0,0:0:0:0:
213,183,196717,1,0,0:0:0:0:
159,223,196796,5,0,0:0:0:0:
126,191,196874,1,0,0:0:0:0:
106,149,196953,1,0,0:0:0:0:
101,104,197032,1,0,0:0:0:0:
113,60,197112,5,0,0:0:0:0:
72,82,197191,1,0,0:0:0:0:
43,118,197270,1,0,0:0:0:0:
28,162,197349,1,0,0:0:0:0:
30,208,197427,5,0,0:0:0:0:
76,210,197507,1,0,0:0:0:0:
120,195,197586,1,0,0:0:0:0:
156,166,197665,1,0,0:0:0:0:
178,125,197744,6,0,P|191:97|193:55,1,61.2500005841255,0|0,0:0|0:0,0:0:0:0:
240,258,197902,6,0,P|252:278|250:255,1,61.2500005841255,0|0,0:0|0:0,0:0:0:0:
192,31,198060,2,0,P|197:8|182:26,1,61.2500005841255,0|0,0:0|0:0,0:0:0:0:
30,208,198217,2,0,P|7:214|26:199,1,61.2500005841255,0|0,0:0|0:0,0:0:0:0:
317,190,198375,5,0,0:0:0:0:
382,173,198454,1,0,0:0:0:0:
407,110,198533,1,0,0:0:0:0:
384,44,198613,1,0,0:0:0:0:
325,10,198692,1,0,0:0:0:0:
256,20,198771,1,0,0:0:0:0:
199,59,198850,1,0,0:0:0:0:
167,120,198929,1,0,0:0:0:0:
165,189,199008,1,0,0:0:0:0:
161,259,199087,1,0,0:0:0:0:
128,321,199166,1,0,0:0:0:0:
71,360,199245,1,0,0:0:0:0:
3,368,199323,5,0,0:0:0:0:
35,327,199401,1,0,0:0:0:0:
84,309,199480,1,0,0:0:0:0:
134,321,199559,1,0,0:0:0:0:
171,358,199638,5,0,0:0:0:0:
221,345,199717,1,0,0:0:0:0:
257,307,199796,1,0,0:0:0:0:
266,256,199875,1,0,0:0:0:0:
247,207,199953,5,0,0:0:0:0:
195,199,200033,1,0,0:0:0:0:
156,166,200112,1,0,0:0:0:0:
141,116,200191,1,0,0:0:0:0:
155,66,200270,5,0,0:0:0:0:
204,47,200348,1,0,0:0:0:0:
255,56,200427,1,0,0:0:0:0:
293,92,200506,1,0,0:0:0:0:
306,142,200585,1,0,0:0:0:0:
319,192,200665,1,0,0:0:0:0:
357,228,200744,6,0,P|385:240|418:239,1,61.2500005841255,0|0,0:0|0:0,0:0:0:0:
141,116,200902,5,0,0:0:0:0:
121,186,200981,1,0,0:0:0:0:
101,256,201060,2,0,L|81:323,1,61.2500005841255,0|0,0:0|0:0,0:0:0:0:
179,238,201217,1,0,0:0:0:0:
197,167,201296,1,0,0:0:0:0:
217,97,201375,2,0,L|237:30,1,61.2500005841255,0|0,0:0|0:0,0:0:0:0:
273,152,201533,1,0,0:0:0:0:
255,223,201612,1,0,0:0:0:0:
235,293,201691,2,0,L|215:360,1,61.2500005841255,0|0,0:0|0:0,0:0:0:0:
313,276,201849,5,0,0:0:0:0:
340,269,201927,1,0,0:0:0:0:
367,262,202006,1,0,0:0:0:0:
395,255,202085,1,0,0:0:0:0:
422,249,202165,2,0,L|482:234,1,61.2500005841255,0|0,0:0|0:0,0:0:0:0:
293,83,202323,5,0,0:0:0:0:
299,110,202402,1,0,0:0:0:0:
306,137,202482,2,0,L|321:197,1,61.2500005841255,0|0,0:0|0:0,0:0:0:0:
217,351,202638,2,0,L|235:293,1,61.2500005841255,0|0,0:0|0:0,0:0:0:0:
77,169,202796,5,0,0:0:0:0:
104,175,202874,1,0,0:0:0:0:
131,182,202953,1,0,0:0:0:0:
159,189,203032,1,0,0:0:0:0:
186,196,203112,2,0,L|246:211,1,61.2500005841255,0|0,0:0|0:0,0:0:0:0:
481,234,203270,2,0,L|421:249,1,61.2500005841255,0|0,0:0|0:0,0:0:0:0:
217,351,203428,6,0,L|239:281,1,70,0|0,0:0|0:0,0:0:0:0:
