osu file format v14

[General]
AudioFilename: audio.mp3
AudioLeadIn: 0
PreviewTime: 85393
Countdown: 0
SampleSet: Soft
StackLeniency: 0.2
Mode: 0
LetterboxInBreaks: 0
WidescreenStoryboard: 0

[Editor]
DistanceSpacing: 1.1
BeatDivisor: 4
GridSize: 8
TimelineZoom: 1

[Metadata]
Title:Pierrot of the Star-Spangled Banner
TitleUnicode:Pierrot of the Star-Spangled Banner
Artist:RichaadEB
ArtistUnicode:RichaadEB
Creator:MintyBusiness
Version:Piece of Lunacy
Source:東方紺珠伝 ~ Legacy of Lunatic Kingdom
Tags:LoLK Touhou Project 15 東方 ZUN Metal Cover Clownpiece Moon American Flag
BeatmapID:2208618
BeatmapSetID:1056654

[Difficulty]
HPDrainRate:5
CircleSize:4
OverallDifficulty:9.2
ApproachRate:9.4
SliderMultiplier:2.1
SliderTickRate:1

[Events]
//Background and Video events
0,0,"clownpiecemoon.jpg",0,0
//Break Periods
//Storyboard Layer 0 (Background)
//Storyboard Layer 1 (Fail)
//Storyboard Layer 2 (Pass)
//Storyboard Layer 3 (Foreground)
//Storyboard Layer 4 (Overlay)
//Storyboard Sound Samples

[TimingPoints]
60,333.333333333333,4,2,0,60,1,0
60,-133.333333333333,4,2,0,60,0,0
5393,-100,4,2,0,60,0,0
16059,-100,4,2,0,60,0,1
21393,-133.333333333333,4,2,0,60,0,0
32059,-100,4,2,0,60,0,0
64059,-133.333333333333,4,2,0,60,0,0
74726,-100,4,2,0,60,0,0
82726,-133.333333333333,4,2,0,60,0,0
85393,-166.666666666667,4,2,0,60,0,1
88059,-166.666666666667,4,2,0,60,0,0
89726,-100,4,2,0,60,0,1
90059,-125,4,2,0,60,0,1
90393,-166.666666666667,4,2,0,60,0,1
95059,-100,4,2,0,60,0,1
95393,-125,4,2,0,60,0,1
95726,-133.333333333333,4,2,0,60,0,1
117393,-100,4,2,0,60,0,1
120059,-133.333333333333,4,2,0,60,0,1
121726,-125,4,2,0,60,0,1
122059,-111.111111111111,4,2,0,60,0,1
122393,-100,4,2,0,60,0,1
125393,-125,4,2,0,60,0,0
128059,-133.333333333333,4,2,0,60,0,0
138726,-100,4,2,0,60,0,0
151393,-100,4,2,0,70,0,1
160059,-100,4,2,0,70,0,0
170726,-80,4,2,0,70,0,1
181393,-80,4,2,0,70,0,0
192059,-80,4,2,0,70,0,1
213393,-80,4,2,0,70,0,0

[Colours]
Combo1 : 78,78,78
Combo2 : 210,210,210
Combo3 : 255,17,17
Combo4 : 0,0,255

[HitObjects]
61,98,60,6,0,L|220:84,1,157.500006008148
370,141,560,1,0,0:0:0:0:
350,140,643,1,0,0:0:0:0:
330,139,726,1,0,0:0:0:0:
465,146,1226,5,0,0:0:0:0:
268,317,1393,2,0,P|233:280|263:181,1,157.500006008148
404,221,1893,1,0,0:0:0:0:
312,249,2059,1,0,0:0:0:0:
404,221,2393,1,0,0:0:0:0:
222,336,2726,6,0,L|136:328,1,78.7500030040742
23,319,3059,1,0,0:0:0:0:
325,346,3393,1,0,0:0:0:0:
118,39,3726,5,0,0:0:0:0:
86,119,3893,1,0,0:0:0:0:
165,219,4059,1,0,0:0:0:0:
118,39,4226,5,0,0:0:0:0:
86,119,4392,1,0,0:0:0:0:
275,75,4559,1,0,0:0:0:0:
251,227,4726,5,0,0:0:0:0:
219,147,4892,1,0,0:0:0:0:
361,104,5060,1,8,3:0:0:0:
388,99,5143,1,8,3:0:0:0:
416,102,5226,1,8,3:0:0:0:
441,113,5309,1,8,3:0:0:0:
463,130,5393,6,8,L|446:249,1,105,8|8,3:0|3:0,3:0:0:0:
260,331,5726,2,0,L|250:226,1,105
315,38,6059,5,0,0:0:0:0:
343,203,6226,1,0,0:0:0:0:
184,17,6393,1,0,0:0:0:0:
156,182,6560,1,0,0:0:0:0:
315,38,6726,5,0,0:0:0:0:
116,95,6893,1,0,0:0:0:0:
384,140,7059,1,0,0:0:0:0:
160,277,7226,1,0,0:0:0:0:
184,17,7393,1,0,0:0:0:0:
383,242,7560,1,0,0:0:0:0:
383,242,7643,1,0,0:0:0:0:
383,242,7726,1,0,0:0:0:0:
79,171,7893,1,0,0:0:0:0:
262,54,8059,5,0,0:0:0:0:
232,310,8226,1,0,0:0:0:0:
403,41,8393,5,0,0:0:0:0:
133,103,8559,1,0,0:0:0:0:
400,324,8726,5,0,0:0:0:0:
329,4,8893,1,0,0:0:0:0:
132,262,9059,5,0,0:0:0:0:
479,188,9226,1,0,0:0:0:0:
479,188,9309,1,0,0:0:0:0:
479,188,9393,5,0,0:0:0:0:
272,135,9559,1,0,0:0:0:0:
262,132,9726,1,0,0:0:0:0:
335,322,9893,5,0,0:0:0:0:
128,269,10059,1,0,0:0:0:0:
118,266,10226,1,0,0:0:0:0:
8,141,10393,5,0,0:0:0:0:
36,97,10476,1,0,0:0:0:0:
80,70,10559,1,0,0:0:0:0:
132,64,10643,1,0,0:0:0:0:
181,81,10726,6,0,P|264:112|403:54,1,210
489,14,11226,2,0,B|467:39|467:39|485:136|485:228,1,210
400,328,11726,2,0,P|376:274|387:206,1,105
383,377,12059,2,0,P|339:317|354:179,1,210
239,301,12559,2,0,B|223:324|223:324|32:345,1,210
0,238,13059,2,0,L|115:245,1,105
255,204,13393,5,0,0:0:0:0:
48,140,13559,1,0,0:0:0:0:
338,127,13726,5,0,0:0:0:0:
110,198,13893,1,0,0:0:0:0:
251,32,14059,5,0,0:0:0:0:
339,293,14226,1,0,0:0:0:0:
358,19,14393,5,0,0:0:0:0:
251,338,14559,1,0,0:0:0:0:
251,338,14643,1,0,0:0:0:0:
251,338,14726,5,0,0:0:0:0:
142,66,14893,1,0,0:0:0:0:
138,51,15059,1,0,0:0:0:0:
461,266,15226,5,0,0:0:0:0:
260,218,15393,1,0,0:0:0:0:
272,208,15559,1,0,0:0:0:0:
284,346,15726,5,0,0:0:0:0:
231,350,15809,1,0,0:0:0:0:
179,355,15892,1,0,0:0:0:0:
127,359,15976,1,0,0:0:0:0:
74,364,16059,6,0,P|57:315|58:291,1,52.5
66,207,16226,1,0,0:0:0:0:
159,283,16393,6,0,P|176:234|175:210,1,52.5
161,116,16560,1,0,0:0:0:0:
287,223,16726,5,0,0:0:0:0:
388,13,16893,2,0,L|383:65,1,52.5
361,307,17060,1,0,0:0:0:0:
512,243,17226,1,0,0:0:0:0:
383,65,17393,5,0,0:0:0:0:
361,307,17560,1,0,0:0:0:0:
392,53,17726,5,0,0:0:0:0:
458,335,17893,1,0,0:0:0:0:
245,108,18060,5,0,0:0:0:0:
472,151,18226,1,0,0:0:0:0:
474,177,18309,1,0,0:0:0:0:
477,204,18393,1,0,0:0:0:0:
430,180,18476,1,0,0:0:0:0:
378,173,18559,1,0,0:0:0:0:
327,183,18642,1,0,0:0:0:0:
281,209,18726,2,0,P|248:215|208:210,1,52.5
126,124,18893,5,0,0:0:0:0:
80,147,18976,1,0,0:0:0:0:
53,191,19059,1,0,0:0:0:0:
53,243,19142,1,0,0:0:0:0:
79,288,19226,2,0,P|101:254|97:216,1,52.5
152,48,19393,5,0,0:0:0:0:
201,30,19476,1,0,0:0:0:0:
253,24,19559,1,0,0:0:0:0:
305,29,19642,1,0,0:0:0:0:
355,45,19726,2,0,L|447:50,1,52.5
495,145,19892,2,0,L|403:150,1,52.5
219,153,20059,5,0,0:0:0:0:
441,265,20226,1,0,0:0:0:0:
441,265,20309,1,0,0:0:0:0:
441,265,20393,1,0,0:0:0:0:
188,305,20559,1,0,0:0:0:0:
365,127,20726,1,0,0:0:0:0:
323,360,20893,1,0,0:0:0:0:
81,208,21059,5,0,0:0:0:0:
79,181,21142,1,0,0:0:0:0:
78,155,21225,1,0,0:0:0:0:
77,129,21308,1,0,0:0:0:0:
76,103,21392,5,0,0:0:0:0:
161,154,21559,1,0,0:0:0:0:
226,26,21726,1,0,0:0:0:0:
150,68,21893,1,0,0:0:0:0:
244,189,22059,2,0,L|233:80,1,78.7500030040742
343,8,22393,2,0,L|336:138,1,118.125004506111
354,156,22726,5,0,0:0:0:0:
510,140,22893,1,0,0:0:0:0:
367,268,23059,1,0,0:0:0:0:
435,347,23226,2,0,P|467:285|437:191,1,157.500006008148
303,354,23726,5,0,0:0:0:0:
199,360,23893,1,0,0:0:0:0:
85,269,24059,2,0,L|182:277,1,78.7500030040742
2,262,24393,1,0,0:0:0:0:
216,184,24559,2,0,L|118:192,1,78.7500030040742,0|0,1:0|1:0,1:0:0:0:
299,176,24893,1,0,0:0:0:0:
122,14,25059,1,0,0:0:0:0:
5,172,25226,1,0,0:0:0:0:
190,79,25393,2,0,L|273:72,1,78.7500030040742
426,61,25726,5,0,0:0:0:0:
251,160,25893,1,0,0:0:0:0:
504,100,26059,5,0,0:0:0:0:
258,15,26226,1,0,0:0:0:0:
337,167,26393,5,0,0:0:0:0:
376,170,26476,1,0,0:0:0:0:
415,173,26559,1,0,0:0:0:0:
454,176,26642,1,0,0:0:0:0:
493,180,26726,5,0,0:0:0:0:
337,348,26893,1,0,0:0:0:0:
512,275,27059,1,0,0:0:0:0:
376,170,27226,1,0,0:0:0:0:
276,270,27393,2,0,P|233:283|183:277,1,78.7500030040742
65,202,27643,1,0,0:0:0:0:
77,192,27726,2,0,B|97:192|97:192|114:185|114:185|136:193|136:193|148:189|148:189|214:189,1,118.125004506111
212,174,28059,5,0,0:0:0:0:
137,33,28226,1,0,0:0:0:0:
9,129,28393,1,0,0:0:0:0:
16,117,28559,1,0,0:0:0:0:
233,56,28726,5,0,0:0:0:0:
242,70,28809,2,0,L|298:74,1,39.3750015020371
490,113,29059,1,0,0:0:0:0:
246,208,29226,5,0,0:0:0:0:
252,197,29309,1,0,0:0:0:0:
256,187,29393,2,0,L|306:183,1,39.3750015020371
472,125,29559,1,0,0:0:0:0:
219,297,29726,5,0,0:0:0:0:
179,271,29809,1,0,0:0:0:0:
155,231,29892,1,0,0:0:0:0:
153,184,29975,1,0,0:0:0:0:
172,142,30059,2,0,P|192:93|188:43,1,78.7500030040742
8,142,30393,5,0,0:0:0:0:
13,188,30476,1,0,0:0:0:0:
19,235,30559,1,0,0:0:0:0:
25,282,30642,1,0,0:0:0:0:
31,329,30726,1,0,0:0:0:0:
91,81,30893,1,0,0:0:0:0:
91,99,30976,2,0,L|89:158,1,39.3750015020371
157,328,31226,1,0,0:0:0:0:
241,49,31393,5,0,0:0:0:0:
243,60,31476,1,0,0:0:0:0:
245,70,31559,1,0,0:0:0:0:
480,213,31726,5,0,0:0:0:0:
438,183,31809,1,0,0:0:0:0:
388,172,31892,1,0,0:0:0:0:
338,180,31975,1,0,0:0:0:0:
294,206,32059,1,0,0:0:0:0:
388,310,32226,5,0,0:0:0:0:
397,50,32393,1,0,0:0:0:0:
397,50,32476,1,0,0:0:0:0:
397,50,32559,1,0,0:0:0:0:
239,150,32726,1,0,0:0:0:0:
469,106,32893,1,0,0:0:0:0:
241,16,33059,1,0,0:0:0:0:
241,16,33143,1,0,0:0:0:0:
241,16,33226,1,0,0:0:0:0:
143,194,33393,6,0,L|32:203,1,105
60,84,33726,2,0,L|142:91,2,52.5
198,290,34059,2,0,L|308:299,1,105
281,180,34392,2,0,L|198:187,2,52.5
423,283,34726,5,0,0:0:0:0:
483,168,34893,1,0,0:0:0:0:
374,44,35059,2,0,L|386:102,1,52.5
426,302,35226,5,0,0:0:0:0:
508,153,35393,1,0,0:0:0:0:
360,28,35559,1,0,0:0:0:0:
287,188,35726,1,0,0:0:0:0:
261,191,35809,1,0,0:0:0:0:
235,195,35893,1,0,0:0:0:0:
34,170,36059,5,0,0:0:0:0:
196,117,36226,1,0,0:0:0:0:
110,330,36393,1,0,0:0:0:0:
104,304,36476,1,0,0:0:0:0:
98,278,36559,1,0,0:0:0:0:
120,70,36726,5,0,0:0:0:0:
146,44,36809,1,0,0:0:0:0:
180,31,36892,1,0,0:0:0:0:
216,32,36976,1,0,0:0:0:0:
250,47,37059,1,0,0:0:0:0:
275,74,37142,1,0,0:0:0:0:
287,108,37226,1,0,0:0:0:0:
286,145,37309,1,0,0:0:0:0:
271,178,37392,5,0,0:0:0:0:
251,226,37476,1,0,0:0:0:0:
255,278,37559,1,0,0:0:0:0:
281,323,37643,1,0,0:0:0:0:
324,352,37726,1,0,0:0:0:0:
376,359,37809,1,0,0:0:0:0:
425,342,37893,1,0,0:0:0:0:
462,306,37976,1,0,0:0:0:0:
480,257,38059,1,0,0:0:0:0:
474,205,38143,1,0,0:0:0:0:
446,161,38226,1,0,0:0:0:0:
401,134,38309,1,0,0:0:0:0:
349,130,38393,1,0,0:0:0:0:
301,148,38476,1,0,0:0:0:0:
266,186,38559,1,0,0:0:0:0:
215,192,38642,1,0,0:0:0:0:
173,162,38726,5,0,0:0:0:0:
161,112,38809,1,0,0:0:0:0:
186,67,38892,1,0,0:0:0:0:
234,49,38976,1,0,0:0:0:0:
282,68,39059,1,0,0:0:0:0:
305,113,39143,1,0,0:0:0:0:
291,163,39226,1,0,0:0:0:0:
252,196,39309,1,0,0:0:0:0:
200,201,39393,1,0,0:0:0:0:
155,176,39476,1,0,0:0:0:0:
106,161,39559,1,0,0:0:0:0:
56,177,39642,1,0,0:0:0:0:
24,217,39726,6,0,L|36:295,1,52.5
124,360,39893,2,0,L|117:309,1,52.5
70,82,40059,5,0,0:0:0:0:
121,72,40142,1,0,0:0:0:0:
172,82,40225,1,0,0:0:0:0:
216,109,40309,1,0,0:0:0:0:
251,147,40393,1,0,0:0:0:0:
302,151,40476,1,0,0:0:0:0:
343,120,40560,1,0,0:0:0:0:
351,69,40643,1,0,0:0:0:0:
323,26,40726,1,0,0:0:0:0:
274,13,40810,1,0,0:0:0:0:
228,37,40893,1,0,0:0:0:0:
212,86,40976,1,0,0:0:0:0:
237,130,41059,1,0,0:0:0:0:
284,152,41142,1,0,0:0:0:0:
335,144,41226,1,0,0:0:0:0:
383,124,41309,1,0,0:0:0:0:
433,136,41392,5,0,0:0:0:0:
476,188,41476,1,0,0:0:0:0:
483,255,41559,1,0,0:0:0:0:
453,315,41643,1,0,0:0:0:0:
394,348,41726,1,0,0:0:0:0:
327,344,41809,1,0,0:0:0:0:
273,304,41893,5,0,0:0:0:0:
221,346,41976,1,0,0:0:0:0:
154,351,42059,1,0,0:0:0:0:
97,316,42143,1,0,0:0:0:0:
69,255,42226,1,0,0:0:0:0:
82,189,42309,1,0,0:0:0:0:
131,143,42393,2,0,L|218:150,1,52.5
204,245,42559,2,0,L|151:240,1,52.5
49,112,42726,5,0,0:0:0:0:
258,65,42893,1,0,0:0:0:0:
204,245,43059,2,0,L|151:240,1,52.5
49,112,43226,1,0,0:0:0:0:
272,165,43393,1,0,0:0:0:0:
196,362,43559,1,0,0:0:0:0:
160,146,43726,1,0,0:0:0:0:
160,146,43809,1,0,0:0:0:0:
160,146,43893,1,0,0:0:0:0:
289,301,44059,6,0,L|403:291,1,105
491,191,44393,2,0,L|410:183,2,52.5
272,165,44726,1,0,0:0:0:0:
394,292,44893,1,0,0:0:0:0:
462,72,45059,5,0,0:0:0:0:
425,75,45142,1,0,0:0:0:0:
388,78,45225,1,0,0:0:0:0:
352,81,45309,1,0,0:0:0:0:
315,84,45392,1,0,0:0:0:0:
70,102,45559,1,0,0:0:0:0:
210,10,45726,2,0,L|202:90,2,52.5
168,311,46059,5,0,0:0:0:0:
147,153,46226,1,0,0:0:0:0:
318,291,46393,2,0,L|252:286,1,52.5
333,315,46559,2,0,L|267:309,1,52.5
66,263,46726,6,0,P|57:210|65:181,1,52.5
135,212,46893,2,0,P|153:161|175:140,1,52.5
220,202,47059,2,0,P|261:167|290:160,1,52.5
347,338,47226,2,0,L|281:332,1,52.5
254,74,47393,6,0,P|295:39|324:32,1,52.5
332,108,47560,2,0,P|385:99|414:106,1,52.5
383,176,47726,2,0,P|433:194|454:216,1,52.5
392,260,47893,2,0,P|426:301|433:330,1,52.5
215,365,48059,5,0,0:0:0:0:
168,165,48226,1,0,0:0:0:0:
59,347,48393,1,0,0:0:0:0:
59,347,48476,1,0,0:0:0:0:
59,347,48559,1,0,0:0:0:0:
306,182,48726,5,0,0:0:0:0:
18,217,48893,1,0,0:0:0:0:
301,346,49059,1,0,0:0:0:0:
301,346,49143,1,0,0:0:0:0:
301,346,49226,1,0,0:0:0:0:
173,68,49393,5,0,0:0:0:0:
144,343,49559,1,0,0:0:0:0:
146,86,49726,2,0,L|140:151,1,52.5
110,357,49893,1,0,0:0:0:0:
317,142,50059,1,0,0:0:0:0:
8,204,50226,1,0,0:0:0:0:
365,268,50393,2,0,L|294:257,1,52.5
118,181,50559,2,0,L|190:168,1,52.5
471,60,50726,5,0,0:0:0:0:
503,122,50809,1,0,0:0:0:0:
482,191,50892,1,0,0:0:0:0:
420,225,50976,1,0,0:0:0:0:
351,204,51059,1,0,0:0:0:0:
317,142,51143,1,0,0:0:0:0:
280,79,51226,1,0,0:0:0:0:
213,51,51309,1,0,0:0:0:0:
143,66,51393,1,0,0:0:0:0:
95,120,51476,1,0,0:0:0:0:
88,192,51559,1,0,0:0:0:0:
125,255,51643,1,0,0:0:0:0:
191,283,51726,2,0,P|206:220|205:186,3,52.5
72,358,52059,6,0,L|145:367,1,52.5
313,323,52226,2,0,L|240:332,1,52.5
33,261,52393,6,0,L|120:271,1,52.5
321,218,52560,2,0,L|233:228,1,52.5
33,170,52726,5,0,0:0:0:0:
23,93,52809,1,0,0:0:0:0:
70,33,52892,1,0,0:0:0:0:
146,23,52976,1,0,0:0:0:0:
208,69,53060,1,0,0:0:0:0:
275,109,53143,1,0,0:0:0:0:
353,118,53226,1,0,0:0:0:0:
427,94,53310,1,0,0:0:0:0:
486,43,53393,5,0,0:0:0:0:
437,25,53476,1,0,0:0:0:0:
387,36,53559,1,0,0:0:0:0:
350,73,53643,1,0,0:0:0:0:
339,123,53726,1,0,0:0:0:0:
356,172,53809,1,0,0:0:0:0:
397,203,53893,1,0,0:0:0:0:
443,229,53976,1,0,0:0:0:0:
466,275,54059,1,0,0:0:0:0:
459,326,54143,1,0,0:0:0:0:
424,364,54226,1,0,0:0:0:0:
374,377,54309,1,0,0:0:0:0:
326,358,54393,5,0,0:0:0:0:
276,376,54476,1,0,0:0:0:0:
224,382,54559,1,0,0:0:0:0:
172,377,54643,1,0,0:0:0:0:
122,361,54726,5,0,0:0:0:0:
72,374,54809,1,0,0:0:0:0:
27,350,54892,1,0,0:0:0:0:
8,302,54976,1,0,0:0:0:0:
26,254,55059,1,0,0:0:0:0:
72,230,55142,1,0,0:0:0:0:
122,241,55226,5,0,0:0:0:0:
171,225,55309,1,0,0:0:0:0:
199,182,55392,1,0,0:0:0:0:
195,131,55476,1,0,0:0:0:0:
160,93,55559,1,0,0:0:0:0:
110,85,55642,1,0,0:0:0:0:
64,109,55726,5,0,0:0:0:0:
109,137,55809,1,0,0:0:0:0:
160,146,55892,1,0,0:0:0:0:
211,134,55976,1,0,0:0:0:0:
253,103,56059,2,0,P|257:47|253:29,3,52.5
330,167,56393,2,0,L|336:93,3,52.5
406,224,56726,2,0,L|412:150,3,52.5
472,276,57059,2,0,L|476:328,3,52.5
509,183,57393,5,0,0:0:0:0:
483,115,57476,1,0,0:0:0:0:
421,78,57559,1,0,0:0:0:0:
350,89,57643,1,0,0:0:0:0:
301,142,57727,1,0,0:0:0:0:
238,179,57810,1,0,0:0:0:0:
166,186,57893,1,0,0:0:0:0:
97,161,57977,1,0,0:0:0:0:
45,110,58059,6,0,L|38:34,1,52.5
204,27,58226,2,0,L|200:80,1,52.5
28,131,58393,2,0,L|34:55,1,52.5
236,13,58560,2,0,L|240:65,1,52.5
203,306,58726,1,0,0:0:0:0:
141,308,58809,1,0,0:0:0:0:
95,268,58892,1,0,0:0:0:0:
88,207,58976,1,0,0:0:0:0:
126,158,59059,1,0,0:0:0:0:
186,148,59142,1,0,0:0:0:0:
237,183,59226,5,0,0:0:0:0:
281,226,59309,1,0,0:0:0:0:
343,225,59392,1,0,0:0:0:0:
386,182,59476,1,0,0:0:0:0:
386,121,59559,1,0,0:0:0:0:
343,77,59642,1,0,0:0:0:0:
281,76,59726,1,0,0:0:0:0:
238,119,59809,1,0,0:0:0:0:
240,181,59892,1,0,0:0:0:0:
284,224,59975,1,0,0:0:0:0:
346,225,60060,5,0,0:0:0:0:
411,215,60143,1,0,0:0:0:0:
464,256,60226,1,0,0:0:0:0:
472,322,60310,1,0,0:0:0:0:
430,373,60393,1,0,0:0:0:0:
364,380,60476,1,0,0:0:0:0:
314,336,60560,1,0,0:0:0:0:
251,312,60643,1,0,0:0:0:0:
188,334,60726,6,0,P|126:347|100:337,1,52.5
0,289,60893,2,0,P|62:276|88:286,1,52.5
188,228,61059,2,0,P|125:240|99:230,1,52.5
0,182,61226,2,0,P|62:169|88:179,1,52.5
188,92,61393,5,0,0:0:0:0:
7,42,61559,1,0,0:0:0:0:
7,42,61643,1,0,0:0:0:0:
7,42,61726,1,0,0:0:0:0:
381,26,62059,5,0,0:0:0:0:
298,231,62226,1,0,0:0:0:0:
441,111,62393,1,0,0:0:0:0:
445,163,62476,1,0,0:0:0:0:
449,215,62559,1,0,0:0:0:0:
453,267,62643,1,0,0:0:0:0:
457,320,62726,2,0,B|375:357|303:333|303:333|218:303|131:347,1,315
5,231,63393,5,0,0:0:0:0:
100,221,63559,1,0,0:0:0:0:
304,156,63726,5,0,0:0:0:0:
267,153,63809,1,0,0:0:0:0:
230,150,63892,1,0,0:0:0:0:
194,147,63976,1,0,0:0:0:0:
157,144,64059,5,0,0:0:0:0:
53,78,64226,1,0,0:0:0:0:
139,170,64393,1,0,0:0:0:0:
63,42,64559,1,0,0:0:0:0:
29,213,64726,1,0,0:0:0:0:
157,42,64893,1,0,0:0:0:0:
177,262,65059,2,0,P|244:275|283:255,1,78.7500030040742
353,128,65393,6,0,L|364:233,1,78.7500030040742
458,378,65726,2,0,L|468:273,1,78.7500030040742
491,66,66059,1,0,0:0:0:0:
480,170,66226,1,0,0:0:0:0:
375,337,66393,1,0,0:0:0:0:
364,233,66560,1,0,0:0:0:0:
243,96,66726,6,0,L|232:200,1,78.7500030040742
251,10,67059,1,0,0:0:0:0:
128,273,67226,2,0,L|117:168,1,78.7500030040742
137,360,67559,1,0,0:0:0:0:
39,262,67726,1,0,0:0:0:0:
245,327,67893,1,0,0:0:0:0:
23,249,68059,1,0,0:0:0:0:
273,180,68226,1,0,0:0:0:0:
75,124,68393,5,0,0:0:0:0:
39,355,68559,1,0,0:0:0:0:
91,98,68726,5,0,0:0:0:0:
188,298,68893,1,0,0:0:0:0:
346,70,69059,5,0,0:0:0:0:
307,63,69142,1,0,0:0:0:0:
268,57,69225,1,0,0:0:0:0:
229,51,69308,1,0,0:0:0:0:
190,45,69392,5,0,0:0:0:0:
292,142,69559,1,0,0:0:0:0:
193,22,69726,1,0,0:0:0:0:
295,163,69893,1,0,0:0:0:0:
133,134,70059,1,0,0:0:0:0:
381,111,70226,5,0,0:0:0:0:
399,118,70309,1,0,0:0:0:0:
417,125,70393,2,0,L|438:266,1,118.125004506111
414,268,70726,2,0,P|363:264|332:280,1,78.7500030040742
246,357,71059,1,0,0:0:0:0:
382,347,71226,1,0,0:0:0:0:
227,228,71393,5,0,0:0:0:0:
215,221,71476,2,0,L|160:225,1,39.3750015020371
29,231,71726,1,0,0:0:0:0:
223,130,71893,1,0,0:0:0:0:
239,140,71976,1,0,0:0:0:0:
255,151,72059,1,0,0:0:0:0:
26,138,72226,1,0,0:0:0:0:
349,41,72393,5,0,0:0:0:0:
346,68,72476,1,0,0:0:0:0:
343,95,72559,1,0,0:0:0:0:
340,123,72642,1,0,0:0:0:0:
338,150,72726,1,0,0:0:0:0:
378,309,72893,1,0,0:0:0:0:
512,216,73059,5,0,0:0:0:0:
489,199,73142,1,0,0:0:0:0:
463,190,73225,1,0,0:0:0:0:
436,189,73308,1,0,0:0:0:0:
409,196,73392,1,0,0:0:0:0:
251,332,73726,5,0,0:0:0:0:
257,335,74059,1,0,0:0:0:0:
115,359,74226,1,0,0:0:0:0:
17,246,74393,1,0,0:0:0:0:
15,226,74476,1,0,0:0:0:0:
14,206,74559,1,0,0:0:0:0:
12,187,74642,1,0,0:0:0:0:
11,167,74727,5,0,0:0:0:0:
58,125,74810,1,0,0:0:0:0:
116,102,74893,1,0,0:0:0:0:
178,99,74976,1,0,0:0:0:0:
238,118,75060,5,0,0:0:0:0:
285,157,75143,1,0,0:0:0:0:
345,144,75226,1,0,0:0:0:0:
372,90,75309,1,0,0:0:0:0:
346,35,75393,1,0,0:0:0:0:
287,21,75476,1,0,0:0:0:0:
239,58,75560,1,0,0:0:0:0:
241,119,75643,1,0,0:0:0:0:
289,156,75726,1,0,0:0:0:0:
349,142,75810,1,0,0:0:0:0:
410,136,75893,1,0,0:0:0:0:
465,166,75976,1,0,0:0:0:0:
493,221,76059,1,0,0:0:0:0:
486,283,76143,1,0,0:0:0:0:
445,330,76226,1,0,0:0:0:0:
385,346,76309,1,0,0:0:0:0:
326,326,76394,5,0,0:0:0:0:
266,305,76477,1,0,0:0:0:0:
204,303,76560,1,0,0:0:0:0:
143,320,76643,1,0,0:0:0:0:
86,342,76726,1,0,0:0:0:0:
29,318,76809,1,0,0:0:0:0:
3,262,76892,1,0,0:0:0:0:
23,204,76976,1,0,0:0:0:0:
77,176,77059,2,0,P|87:244|82:278,3,52.5
121,77,77393,5,0,0:0:0:0:
180,98,77476,1,0,0:0:0:0:
242,98,77559,1,0,0:0:0:0:
302,79,77642,1,0,0:0:0:0:
350,40,77727,1,0,0:0:0:0:
411,40,77810,1,0,0:0:0:0:
458,81,77893,1,0,0:0:0:0:
468,142,77977,1,0,0:0:0:0:
436,195,78060,1,0,0:0:0:0:
378,215,78144,1,0,0:0:0:0:
317,223,78227,1,0,0:0:0:0:
281,273,78310,1,0,0:0:0:0:
293,333,78393,1,0,0:0:0:0:
344,367,78477,1,0,0:0:0:0:
404,352,78560,1,0,0:0:0:0:
434,299,78643,1,0,0:0:0:0:
415,241,78726,5,0,0:0:0:0:
360,214,78809,1,0,0:0:0:0:
301,233,78893,1,0,0:0:0:0:
256,275,78976,1,0,0:0:0:0:
195,275,79059,1,0,0:0:0:0:
151,232,79142,1,0,0:0:0:0:
150,170,79226,1,0,0:0:0:0:
192,126,79309,1,0,0:0:0:0:
255,122,79393,6,0,P|278:118|312:102,1,52.5
218,51,79559,2,0,P|235:36|257:5,1,52.5
70,24,79726,2,0,P|47:28|13:44,1,52.5
107,95,79892,2,0,P|89:109|67:140,1,52.5
228,200,80059,5,0,0:0:0:0:
294,206,80142,1,0,0:0:0:0:
353,174,80225,1,0,0:0:0:0:
404,131,80310,1,0,0:0:0:0:
469,143,80393,1,0,0:0:0:0:
500,202,80476,1,0,0:0:0:0:
474,262,80560,1,0,0:0:0:0:
411,281,80643,1,0,0:0:0:0:
357,241,80726,1,0,0:0:0:0:
353,174,80810,1,0,0:0:0:0:
337,108,80893,1,0,0:0:0:0:
293,56,80976,1,0,0:0:0:0:
231,29,81059,1,0,0:0:0:0:
164,31,81143,1,0,0:0:0:0:
104,63,81226,1,0,0:0:0:0:
64,118,81309,1,0,0:0:0:0:
52,184,81393,5,0,0:0:0:0:
116,207,81476,1,0,0:0:0:0:
183,205,81559,1,0,0:0:0:0:
245,176,81643,1,0,0:0:0:0:
309,156,81726,1,0,0:0:0:0:
373,176,81809,1,0,0:0:0:0:
413,230,81892,1,0,0:0:0:0:
415,297,81976,1,0,0:0:0:0:
378,353,82059,1,0,0:0:0:0:
315,376,82142,1,0,0:0:0:0:
250,359,82227,1,0,0:0:0:0:
199,314,82310,1,0,0:0:0:0:
133,301,82393,6,0,P|72:316|57:333,1,52.5
190,234,82559,2,0,P|251:249|266:266,1,52.5
112,191,82726,2,0,L|102:91,1,78.7500030040742
289,30,83059,5,0,0:0:0:0:
269,31,83142,1,0,0:0:0:0:
249,33,83225,1,0,0:0:0:0:
230,35,83308,1,0,0:0:0:0:
210,37,83393,2,0,L|202:115,1,78.7500030040742
307,273,83726,5,0,0:0:0:0:
327,272,83809,1,0,0:0:0:0:
347,270,83892,1,0,0:0:0:0:
366,268,83975,1,0,0:0:0:0:
387,266,84059,1,0,0:0:0:0:
232,231,84393,5,0,0:0:0:0:
227,212,84726,5,0,0:0:0:0:
21,318,85059,5,0,0:0:0:0:
40,315,85142,1,0,0:0:0:0:
60,313,85225,1,0,0:0:0:0:
79,311,85308,1,0,0:0:0:0:
99,309,85393,6,0,P|125:244|92:176,1,125.999996154785
6,124,85893,2,0,B|31:87|31:87|128:72,1,125.999996154785
369,55,86393,6,0,B|341:77|295:82|257:68|257:68|281:95|321:149|291:240|196:293|107:227,1,440.999986541748
192,157,87726,6,0,P|181:133|159:113,2,41.9999987182618
187,170,88059,1,0,0:0:0:0:
501,101,89726,6,0,L|392:72,1,105
242,160,90059,6,0,L|352:140,1,84
484,222,90393,6,0,L|411:215,1,62.9999980773926
259,278,90726,6,0,P|316:260|385:298,1,125.999996154785
261,364,91226,2,0,P|201:346|176:284,1,125.999996154785
117,171,91726,2,0,L|109:252,1,62.9999980773926
59,335,92059,2,0,B|30:307|30:307|35:218,1,125.999996154785
44,20,92559,2,0,L|38:153,1,125.999996154785
165,140,93059,2,0,P|138:105|119:97,1,62.9999980773926
105,215,93393,2,0,B|164:248|232:234|265:168|249:109|249:109|275:131|327:170|401:162|401:109|512:148,1,503.999984619141
497,276,95059,6,0,P|447:260|383:278,1,105
292,337,95309,1,0,0:0:0:0:
274,349,95393,2,0,L|219:344,1,42
143,276,95559,2,0,L|197:271,1,42
51,356,95726,5,0,0:0:0:0:
48,324,95809,1,0,0:0:0:0:
45,293,95892,1,0,0:0:0:0:
42,261,95975,1,0,0:0:0:0:
40,230,96059,6,0,L|32:148,1,78.7500030040742
85,53,96393,1,0,0:0:0:0:
241,142,96559,2,0,P|194:158|155:153,1,78.7500030040742
314,97,96893,1,0,0:0:0:0:
377,211,97059,2,0,L|369:291,2,78.7500030040742
464,136,97559,2,0,L|478:305,1,157.500006008148
340,364,98059,5,0,0:0:0:0:
468,378,98226,1,0,0:0:0:0:
303,285,98393,1,0,0:0:0:0:
175,299,98560,1,0,0:0:0:0:
340,364,98726,5,0,0:0:0:0:
361,160,98893,1,0,0:0:0:0:
363,140,98976,1,0,0:0:0:0:
366,120,99059,1,0,0:0:0:0:
206,204,99226,2,0,L|250:207,1,39.3750015020371
466,220,99393,1,0,0:0:0:0:
243,80,99559,1,0,0:0:0:0:
128,260,99726,5,0,0:0:0:0:
125,240,99809,1,0,0:0:0:0:
73,103,99976,5,0,0:0:0:0:
70,123,100059,1,0,0:0:0:0:
17,311,100226,1,0,0:0:0:0:
14,291,100309,1,0,0:0:0:0:
11,271,100393,1,0,0:0:0:0:
73,103,100560,5,0,0:0:0:0:
70,123,100643,1,0,0:0:0:0:
128,260,100810,5,0,0:0:0:0:
125,240,100893,1,0,0:0:0:0:
200,121,101059,5,0,0:0:0:0:
239,124,101142,1,0,0:0:0:0:
278,127,101225,1,0,0:0:0:0:
317,131,101308,1,0,0:0:0:0:
356,134,101393,6,0,L|465:144,2,105.000004005432
324,208,101893,1,0,0:0:0:0:
316,212,101976,1,0,0:0:0:0:
307,215,102059,2,0,L|198:225,2,105.000004005432
407,268,102726,5,0,0:0:0:0:
391,382,102948,1,0,0:0:0:0:
408,253,103171,1,0,0:0:0:0:
271,320,103393,5,0,0:0:0:0:
493,271,103615,1,0,0:0:0:0:
253,326,103837,1,0,0:0:0:0:
410,72,104059,5,0,0:0:0:0:
423,122,104170,1,0,0:0:0:0:
417,174,104281,1,0,0:0:0:0:
360,231,104393,1,0,0:0:0:0:
346,281,104504,1,0,0:0:0:0:
352,333,104615,1,0,0:0:0:0:
432,280,104726,2,0,L|494:271,2,52.5000020027161
336,126,105059,2,0,L|274:117,2,52.5000020027161
230,192,105393,5,0,0:0:0:0:
196,172,105476,1,0,0:0:0:0:
157,168,105559,1,0,0:0:0:0:
120,182,105644,1,0,0:0:0:0:
88,203,105727,1,0,0:0:0:0:
49,202,105810,1,0,0:0:0:0:
19,178,105893,1,0,0:0:0:0:
8,141,105977,1,0,0:0:0:0:
22,105,106060,1,0,0:0:0:0:
54,83,106143,1,0,0:0:0:0:
92,85,106227,1,0,0:0:0:0:
123,109,106310,1,0,0:0:0:0:
141,143,106393,5,0,0:0:0:0:
183,184,106476,1,0,0:0:0:0:
239,198,106559,1,0,0:0:0:0:
296,182,106642,1,0,0:0:0:0:
337,141,106726,6,0,L|328:36,1,78.7500030040742
395,209,107059,2,0,L|389:288,1,78.7500030040742
399,305,107309,1,0,0:0:0:0:
410,321,107393,1,0,0:0:0:0:
490,188,107559,1,0,0:0:0:0:
281,303,107726,1,0,0:0:0:0:
500,339,107893,1,0,0:0:0:0:
283,207,108059,6,0,L|187:215,1,78.7500030040742
15,230,108393,1,0,0:0:0:0:
180,75,108643,5,0,0:0:0:0:
179,94,108726,1,0,0:0:0:0:
163,284,108893,1,0,0:0:0:0:
70,33,109059,1,0,0:0:0:0:
250,166,109226,1,0,0:0:0:0:
259,172,109309,1,0,0:0:0:0:
268,178,109393,6,0,P|330:187|371:162,1,78.7500030040742
443,102,109643,1,0,0:0:0:0:
450,110,109726,2,0,L|458:211,1,78.7500030040742
467,205,109976,1,0,0:0:0:0:
478,221,110059,1,0,0:0:0:0:
307,105,110226,1,0,0:0:0:0:
370,290,110393,5,0,0:0:0:0:
372,270,110476,1,0,0:0:0:0:
219,312,110643,5,0,0:0:0:0:
221,332,110726,1,0,0:0:0:0:
72,281,110893,5,0,0:0:0:0:
74,261,110976,1,0,0:0:0:0:
76,241,111059,2,0,L|85:144,1,78.7500030040742
166,51,111309,1,0,0:0:0:0:
177,67,111393,2,0,L|182:134,2,39.3750015020371
286,166,111726,6,0,L|281:233,1,39.3750015020371
345,322,111893,2,0,L|342:282,1,39.3750015020371
392,188,112059,2,0,L|493:196,1,78.7500030040742
484,209,112309,1,0,0:0:0:0:
497,223,112393,1,0,0:0:0:0:
442,87,112559,2,0,L|340:95,1,78.7500030040742
147,111,112893,1,0,0:0:0:0:
309,20,113059,5,0,0:0:0:0:
307,40,113142,1,0,0:0:0:0:
202,211,113309,5,0,0:0:0:0:
200,191,113393,1,0,0:0:0:0:
68,30,113559,2,0,L|63:76,2,39.3750015020371
2,172,113892,5,0,0:0:0:0:
22,174,113976,1,0,0:0:0:0:
127,291,114143,5,0,0:0:0:0:
107,293,114226,1,0,0:0:0:0:
280,234,114393,1,0,0:0:0:0:
396,363,114559,5,0,0:0:0:0:
398,342,114642,1,0,0:0:0:0:
400,321,114726,2,0,L|407:231,1,78.7500030040742
419,227,114976,1,0,0:0:0:0:
430,210,115059,1,0,0:0:0:0:
370,79,115226,2,0,L|366:35,2,39.3750015020371
280,234,115559,1,0,0:0:0:0:
475,110,115726,5,0,0:0:0:0:
455,112,115810,1,0,0:0:0:0:
244,72,115977,5,0,0:0:0:0:
264,74,116060,1,0,0:0:0:0:
121,138,116226,2,0,L|77:141,2,39.3750015020371
21,237,116559,5,0,0:0:0:0:
41,239,116642,1,0,0:0:0:0:
61,241,116726,2,0,L|104:244,1,39.3750015020371
190,333,116893,1,0,0:0:0:0:
170,335,116976,1,0,0:0:0:0:
150,337,117060,2,0,L|106:340,1,39.3750015020371
232,256,117226,2,0,L|275:259,1,39.3750015020371
380,333,117393,5,0,0:0:0:0:
436,333,117476,1,0,0:0:0:0:
480,297,117559,1,0,0:0:0:0:
490,242,117642,1,0,0:0:0:0:
462,193,117726,1,0,0:0:0:0:
408,173,117809,1,0,0:0:0:0:
355,193,117893,1,0,0:0:0:0:
301,211,117976,1,0,0:0:0:0:
246,197,118059,1,0,0:0:0:0:
208,155,118142,1,0,0:0:0:0:
201,98,118226,1,0,0:0:0:0:
226,47,118309,1,0,0:0:0:0:
276,19,118392,1,0,0:0:0:0:
332,24,118476,1,0,0:0:0:0:
377,59,118559,1,0,0:0:0:0:
394,114,118643,1,0,0:0:0:0:
379,169,118726,5,0,0:0:0:0:
337,207,118809,1,0,0:0:0:0:
280,214,118892,1,0,0:0:0:0:
229,189,118976,1,0,0:0:0:0:
188,149,119059,1,0,0:0:0:0:
133,134,119142,1,0,0:0:0:0:
78,147,119225,1,0,0:0:0:0:
35,186,119309,1,0,0:0:0:0:
17,240,119392,1,0,0:0:0:0:
26,296,119475,1,0,0:0:0:0:
62,341,119559,1,0,0:0:0:0:
114,363,119642,1,0,0:0:0:0:
171,357,119725,1,0,0:0:0:0:
218,325,119809,1,0,0:0:0:0:
267,295,119892,1,0,0:0:0:0:
323,286,119975,1,0,0:0:0:0:
380,298,120059,6,0,P|437:314|461:353,1,78.7500030040742
454,345,120309,1,0,0:0:0:0:
454,364,120393,1,0,0:0:0:0:
481,250,120559,5,0,0:0:0:0:
482,229,120642,1,0,0:0:0:0:
374,139,120809,5,0,0:0:0:0:
375,159,120892,1,0,0:0:0:0:
147,281,121059,5,0,0:0:0:0:
146,260,121142,1,0,0:0:0:0:
254,170,121309,5,0,0:0:0:0:
253,190,121392,1,0,0:0:0:0:
261,88,121559,5,0,0:0:0:0:
241,90,121642,1,0,0:0:0:0:
221,92,121726,2,0,L|76:102,1,126
31,63,122059,2,0,P|66:90|68:191,1,141.749995674133
28,231,122393,2,0,B|81:207|81:207|193:224,1,157.5
230,282,122726,6,0,L|225:335,3,52.5
279,182,123059,2,0,L|274:129,3,52.5
359,338,123393,1,0,0:0:0:0:
394,286,123476,1,0,0:0:0:0:
403,225,123559,1,0,0:0:0:0:
382,166,123643,1,0,0:0:0:0:
342,119,123726,1,0,0:0:0:0:
347,58,123809,1,0,0:0:0:0:
395,20,123892,1,0,0:0:0:0:
455,27,123976,1,0,0:0:0:0:
493,75,124059,1,0,0:0:0:0:
484,136,124142,1,0,0:0:0:0:
434,172,124226,1,0,0:0:0:0:
374,162,124310,1,0,0:0:0:0:
316,137,124393,1,0,0:0:0:0:
254,137,124476,1,0,0:0:0:0:
197,163,124560,5,0,0:0:0:0:
139,185,124643,1,0,0:0:0:0:
82,164,124726,1,0,0:0:0:0:
53,110,124809,1,0,0:0:0:0:
67,50,124893,1,0,0:0:0:0:
118,15,124976,1,0,0:0:0:0:
179,23,125059,1,0,0:0:0:0:
220,69,125143,1,0,0:0:0:0:
219,131,125226,1,0,0:0:0:0:
200,190,125309,1,0,0:0:0:0:
213,250,125393,6,0,P|275:278|348:250,2,112
410,152,126059,1,0,0:0:0:0:
426,366,126282,1,0,0:0:0:0:
280,199,126504,1,0,0:0:0:0:
422,67,126726,2,0,L|518:59,1,56
291,33,126948,2,0,L|387:25,1,56
223,82,127171,2,0,L|126:74,1,56
93,112,127393,2,0,L|66:115,2,28
24,191,127615,5,0,0:0:0:0:
19,246,127726,1,0,0:0:0:0:
51,283,127837,1,0,0:0:0:0:
55,338,127948,1,0,0:0:0:0:
74,374,128059,6,0,B|109:380|109:380|163:366|231:366,1,157.500006008148
339,350,128559,1,0,0:0:0:0:
361,353,128643,1,0,0:0:0:0:
382,356,128726,2,0,P|433:349|457:336,1,78.7500030040742
372,262,129059,2,0,P|321:255|297:242,1,78.7500030040742
445,101,129393,2,0,L|458:260,1,157.500006008148
363,102,129893,2,0,P|395:35|497:37,1,157.500006008148
315,178,130393,2,0,L|215:169,1,78.7500030040742
96,50,130726,6,0,P|104:96|98:135,1,78.7500030040742
161,198,131059,2,0,P|153:244|159:283,1,78.7500030040742
84,56,131393,2,0,P|75:101|56:136,1,78.7500030040742
162,210,131726,2,0,P|170:255|189:290,1,78.7500030040742
61,372,132059,2,0,B|54:338|54:338|61:325|61:325|47:294|47:294|55:260|55:259|52:216,1,157.500006008148
199,109,132726,5,0,0:0:0:0:
310,81,132893,1,0,0:0:0:0:
398,141,133059,1,0,0:0:0:0:
437,210,133226,1,0,0:0:0:0:
245,285,133393,5,0,0:0:0:0:
264,166,133559,1,0,0:0:0:0:
360,347,133726,1,0,0:0:0:0:
341,228,133892,1,0,0:0:0:0:
175,336,134059,5,0,0:0:0:0:
421,282,134226,1,0,0:0:0:0:
156,319,134393,1,0,0:0:0:0:
449,304,134559,1,0,0:0:0:0:
457,311,134643,1,0,0:0:0:0:
465,318,134726,5,0,0:0:0:0:
392,152,134893,1,0,0:0:0:0:
331,312,135059,1,0,0:0:0:0:
481,134,135226,1,0,0:0:0:0:
478,122,135309,1,0,0:0:0:0:
475,110,135393,5,0,0:0:0:0:
257,235,135559,1,0,0:0:0:0:
508,253,135726,1,0,0:0:0:0:
227,90,135893,1,0,0:0:0:0:
216,95,135976,1,0,0:0:0:0:
205,100,136059,6,0,P|147:116|106:103,1,78.7500030040742
24,71,136393,1,0,0:0:0:0:
84,175,136559,2,0,L|88:224,1,39.3750015020371
73,249,136726,1,0,0:0:0:0:
134,328,136893,1,0,0:0:0:0:
165,228,137059,1,0,0:0:0:0:
130,345,137226,1,0,0:0:0:0:
234,166,137393,5,0,0:0:0:0:
273,150,137476,1,0,0:0:0:0:
316,156,137559,1,0,0:0:0:0:
350,181,137643,1,0,0:0:0:0:
368,220,137726,5,0,0:0:0:0:
390,247,137809,1,0,0:0:0:0:
423,260,137892,1,0,0:0:0:0:
458,256,137976,1,0,0:0:0:0:
487,236,138059,5,0,0:0:0:0:
488,208,138142,1,0,0:0:0:0:
489,181,138225,1,0,0:0:0:0:
491,153,138309,1,0,0:0:0:0:
492,125,138393,2,0,L|494:75,3,39.3750015020371
408,34,138726,6,0,P|339:80|202:39,1,210
82,15,139226,2,0,B|123:52|123:52|105:213,1,210
28,343,139726,2,0,L|18:233,1,105
195,153,140059,2,0,L|216:374,1,210
482,244,140559,2,0,B|435:219|435:219|399:239|310:240|273:225,1,210
103,199,141059,5,0,0:0:0:0:
314,145,141226,1,0,0:0:0:0:
162,61,141393,5,0,0:0:0:0:
133,326,141559,1,0,0:0:0:0:
179,38,141726,5,0,0:0:0:0:
253,364,141893,1,0,0:0:0:0:
54,155,142059,5,0,0:0:0:0:
391,70,142226,1,0,0:0:0:0:
65,61,142393,5,0,0:0:0:0:
450,198,142559,1,0,0:0:0:0:
454,182,142643,1,0,0:0:0:0:
458,166,142726,5,0,0:0:0:0:
253,364,142893,1,0,0:0:0:0:
249,380,143059,1,0,0:0:0:0:
196,69,143226,5,0,0:0:0:0:
495,279,143393,2,0,L|424:272,1,52.5,0|0,0:0|0:0,0:0:0:0:
325,309,143559,2,0,L|272:313,1,52.5,0|0,0:0|0:0,0:0:0:0:
163,266,143726,1,0,0:0:0:0:
128,254,143809,1,0,0:0:0:0:
91,255,143892,1,0,0:0:0:0:
57,269,143976,1,0,0:0:0:0:
30,294,144059,5,0,0:0:0:0:
248,356,144226,1,0,0:0:0:0:
137,155,144393,5,0,0:0:0:0:
92,375,144559,1,0,0:0:0:0:
299,198,144726,5,0,0:0:0:0:
6,164,144893,1,0,0:0:0:0:
6,164,144976,1,0,0:0:0:0:
6,164,145059,1,0,0:0:0:0:
243,49,145226,1,0,0:0:0:0:
224,291,145393,5,0,0:0:0:0:
125,24,145559,1,0,0:0:0:0:
357,117,145726,5,0,0:0:0:0:
83,253,145893,1,0,0:0:0:0:
239,315,146059,5,0,0:0:0:0:
312,18,146226,1,0,0:0:0:0:
312,18,146309,1,0,0:0:0:0:
312,18,146393,2,0,L|385:12,1,52.5
505,88,146559,2,0,L|432:82,1,52.5
208,57,146726,5,0,0:0:0:0:
174,114,146809,1,0,0:0:0:0:
186,180,146892,1,0,0:0:0:0:
238,222,146976,1,0,0:0:0:0:
304,220,147059,1,0,0:0:0:0:
354,175,147142,1,0,0:0:0:0:
362,109,147227,5,0,0:0:0:0:
364,177,147310,1,0,0:0:0:0:
394,237,147393,1,0,0:0:0:0:
443,282,147476,1,0,0:0:0:0:
438,347,147559,1,0,0:0:0:0:
383,384,147643,1,0,0:0:0:0:
321,363,147726,6,0,P|295:369|269:368,1,52.5
182,316,147892,2,0,P|155:314|130:321,1,52.5
31,380,148059,1,0,0:0:0:0:
14,160,148226,1,0,0:0:0:0:
14,160,148309,1,0,0:0:0:0:
14,160,148393,1,0,0:0:0:0:
246,219,148559,1,0,0:0:0:0:
99,242,148726,1,0,0:0:0:0:
296,115,148893,1,0,0:0:0:0:
398,237,149059,5,0,0:0:0:0:
395,268,149142,1,0,0:0:0:0:
392,299,149225,1,0,0:0:0:0:
389,331,149309,1,0,0:0:0:0:
387,362,149392,1,0,0:0:0:0:
213,189,151393,6,0,L|218:131,1,52.5
91,77,151559,2,0,L|95:129,1,52.5
236,218,151726,2,0,L|230:160,1,52.5
77,59,151892,2,0,L|72:111,1,52.5
53,333,152059,5,0,0:0:0:0:
111,353,152142,1,0,0:0:0:0:
169,334,152225,1,0,0:0:0:0:
204,283,152309,1,0,0:0:0:0:
199,221,152392,1,0,0:0:0:0:
157,176,152475,1,0,0:0:0:0:
112,133,152559,1,0,0:0:0:0:
106,72,152642,1,0,0:0:0:0:
142,22,152726,1,0,0:0:0:0:
202,8,152809,1,0,0:0:0:0:
257,36,152892,1,0,0:0:0:0:
279,94,152976,1,0,0:0:0:0:
257,152,153059,1,0,0:0:0:0:
261,214,153142,1,0,0:0:0:0:
303,260,153225,1,0,0:0:0:0:
363,271,153309,1,0,0:0:0:0:
418,242,153392,5,0,0:0:0:0:
443,186,153475,1,0,0:0:0:0:
429,125,153559,1,0,0:0:0:0:
380,87,153642,1,0,0:0:0:0:
318,87,153726,1,0,0:0:0:0:
268,123,153809,1,0,0:0:0:0:
251,182,153892,1,0,0:0:0:0:
219,235,153976,1,0,0:0:0:0:
162,258,154059,6,0,L|103:252,1,52.5
0,178,154226,2,0,L|58:172,1,52.5
268,123,154393,2,0,L|209:117,1,52.5
106,43,154560,2,0,L|164:37,1,52.5
377,33,154726,5,0,0:0:0:0:
443,29,154809,1,0,0:0:0:0:
496,70,154892,1,0,0:0:0:0:
507,136,154976,1,0,0:0:0:0:
472,193,155059,1,0,0:0:0:0:
408,212,155142,1,0,0:0:0:0:
348,184,155226,1,0,0:0:0:0:
283,200,155309,1,0,0:0:0:0:
245,254,155392,1,0,0:0:0:0:
252,321,155476,1,0,0:0:0:0:
301,366,155559,1,0,0:0:0:0:
368,367,155642,1,0,0:0:0:0:
419,325,155726,1,0,0:0:0:0:
429,259,155809,1,0,0:0:0:0:
397,200,155892,1,0,0:0:0:0:
334,181,155975,1,0,0:0:0:0:
275,213,156059,5,0,0:0:0:0:
228,260,156142,1,0,0:0:0:0:
162,256,156225,1,0,0:0:0:0:
121,204,156309,1,0,0:0:0:0:
132,139,156392,1,0,0:0:0:0:
143,74,156476,1,0,0:0:0:0:
98,25,156559,1,0,0:0:0:0:
33,32,156643,1,0,0:0:0:0:
0,87,156726,1,0,0:0:0:0:
22,149,156809,1,0,0:0:0:0:
85,168,156893,1,0,0:0:0:0:
151,155,156976,1,0,0:0:0:0:
216,173,157059,6,0,P|281:185|310:178,1,52.5
365,148,157226,2,0,P|429:136|458:143,1,52.5
505,238,157393,5,0,0:0:0:0:
500,310,157476,1,0,0:0:0:0:
453,365,157559,1,0,0:0:0:0:
383,382,157643,1,0,0:0:0:0:
316,354,157726,1,0,0:0:0:0:
278,293,157809,1,0,0:0:0:0:
284,221,157893,1,0,0:0:0:0:
300,150,157976,1,0,0:0:0:0:
276,82,158059,1,0,0:0:0:0:
218,38,158143,1,0,0:0:0:0:
146,32,158226,1,0,0:0:0:0:
82,67,158309,1,0,0:0:0:0:
48,130,158393,1,0,0:0:0:0:
54,203,158476,1,0,0:0:0:0:
98,260,158559,1,0,0:0:0:0:
166,284,158643,1,0,0:0:0:0:
232,263,158726,6,0,P|307:245|358:263,2,70
389,223,159059,2,0,P|352:174|296:151,2,70
474,297,159393,1,0,0:0:0:0:
418,304,159504,1,0,0:0:0:0:
362,311,159615,1,0,0:0:0:0:
319,287,159726,1,0,0:0:0:0:
263,280,159837,1,0,0:0:0:0:
207,273,159948,1,0,0:0:0:0:
177,300,160059,6,0,P|95:316|83:133,1,315
86,143,160643,1,0,0:0:0:0:
101,146,160726,1,0,0:0:0:0:
120,224,160893,1,0,0:0:0:0:
181,38,161226,5,0,0:0:0:0:
322,74,161393,1,0,0:0:0:0:
322,74,161726,1,0,0:0:0:0:
239,227,162059,2,0,L|228:119,1,105
321,198,162393,1,0,0:0:0:0:
301,289,162559,1,0,0:0:0:0:
487,241,162726,6,0,P|419:225|372:255,1,105
439,308,163059,1,0,0:0:0:0:
468,152,163226,2,0,B|472:117|472:117|462:34,1,105
388,115,163559,1,0,0:0:0:0:
238,50,163726,2,0,L|357:39,1,105
179,138,164059,5,0,0:0:0:0:
179,138,164393,1,0,0:0:0:0:
41,80,164559,1,0,0:0:0:0:
56,77,164643,1,0,0:0:0:0:
71,75,164726,1,0,0:0:0:0:
23,206,164893,1,0,0:0:0:0:
153,37,165059,1,0,0:0:0:0:
183,248,165226,1,0,0:0:0:0:
245,157,165393,6,0,P|177:133|137:147,1,105
288,231,165726,1,0,0:0:0:0:
331,126,165893,1,0,0:0:0:0:
386,227,166059,2,0,L|376:333,1,105
487,226,166393,2,0,L|477:121,1,105
397,38,166726,1,0,0:0:0:0:
397,38,167059,5,0,0:0:0:0:
189,94,167393,1,0,0:0:0:0:
311,251,167726,5,0,0:0:0:0:
324,134,167893,1,0,0:0:0:0:
206,233,168059,2,0,B|149:256|149:256|-32:235,1,210
233,143,168726,2,0,P|287:201|218:324,1,210
206,233,169393,1,0,0:0:0:0:
22,73,170059,6,0,L|16:126,1,52.5
141,226,170226,2,0,L|135:174,1,52.5
32,22,170393,5,0,0:0:0:0:
28,48,170476,1,0,0:0:0:0:
24,74,170559,1,0,0:0:0:0:
20,100,170643,1,0,0:0:0:0:
16,126,170726,5,0,0:0:0:0:
71,160,170809,1,0,0:0:0:0:
135,174,170892,1,0,0:0:0:0:
199,164,170976,1,0,0:0:0:0:
256,133,171060,1,0,0:0:0:0:
313,101,171143,1,0,0:0:0:0:
378,99,171226,1,0,0:0:0:0:
437,127,171310,1,0,0:0:0:0:
476,179,171393,1,0,0:0:0:0:
486,243,171476,1,0,0:0:0:0:
466,305,171560,1,0,0:0:0:0:
419,350,171643,1,0,0:0:0:0:
357,369,171727,5,0,0:0:0:0:
300,337,171810,1,0,0:0:0:0:
235,325,171893,1,0,0:0:0:0:
170,332,171976,1,0,0:0:0:0:
118,369,172059,1,0,0:0:0:0:
55,358,172142,1,0,0:0:0:0:
17,307,172226,1,0,0:0:0:0:
27,243,172309,1,0,0:0:0:0:
78,205,172392,1,0,0:0:0:0:
141,213,172477,1,0,0:0:0:0:
205,219,172560,1,0,0:0:0:0:
262,187,172643,1,0,0:0:0:0:
290,129,172727,5,0,0:0:0:0:
279,65,172810,1,0,0:0:0:0:
235,19,172893,1,0,0:0:0:0:
171,7,172977,1,0,0:0:0:0:
112,32,173060,1,0,0:0:0:0:
78,87,173143,1,0,0:0:0:0:
82,152,173227,1,0,0:0:0:0:
122,202,173310,1,0,0:0:0:0:
184,221,173393,5,0,0:0:0:0:
245,184,173476,1,0,0:0:0:0:
317,175,173559,1,0,0:0:0:0:
386,195,173643,1,0,0:0:0:0:
455,197,173726,1,0,0:0:0:0:
497,142,173809,1,0,0:0:0:0:
474,76,173893,1,0,0:0:0:0:
408,57,173976,1,0,0:0:0:0:
354,102,174059,1,0,0:0:0:0:
340,172,174143,1,0,0:0:0:0:
360,241,174227,1,0,0:0:0:0:
383,307,174310,1,0,0:0:0:0:
346,366,174393,1,0,0:0:0:0:
277,374,174477,1,0,0:0:0:0:
227,325,174559,1,0,0:0:0:0:
210,256,174642,1,0,0:0:0:0:
155,211,174725,5,0,0:0:0:0:
84,208,174809,1,0,0:0:0:0:
25,248,174892,1,0,0:0:0:0:
3,315,174975,1,0,0:0:0:0:
25,383,175059,2,0,L|108:368,3,65.625
274,267,175393,2,0,L|210:256,3,65.625
72,121,175726,2,0,L|136:109,3,65.625
311,22,176059,5,0,0:0:0:0:
372,1,176142,1,0,0:0:0:0:
433,21,176225,1,0,0:0:0:0:
469,75,176309,1,0,0:0:0:0:
465,139,176392,1,0,0:0:0:0:
423,188,176475,1,0,0:0:0:0:
360,201,176560,1,0,0:0:0:0:
304,231,176643,1,0,0:0:0:0:
285,292,176726,1,0,0:0:0:0:
316,348,176810,1,0,0:0:0:0:
378,365,176893,1,0,0:0:0:0:
433,332,176976,1,0,0:0:0:0:
447,270,177060,5,0,0:0:0:0:
404,221,177143,1,0,0:0:0:0:
386,159,177226,1,0,0:0:0:0:
395,94,177310,1,0,0:0:0:0:
431,40,177393,5,0,0:0:0:0:
378,78,177476,1,0,0:0:0:0:
314,93,177559,1,0,0:0:0:0:
250,82,177643,1,0,0:0:0:0:
195,47,177726,1,0,0:0:0:0:
134,26,177809,1,0,0:0:0:0:
74,48,177892,5,0,0:0:0:0:
99,109,177976,1,0,0:0:0:0:
97,174,178059,1,0,0:0:0:0:
70,233,178143,1,0,0:0:0:0:
44,291,178226,1,0,0:0:0:0:
69,350,178309,1,0,0:0:0:0:
129,370,178393,5,0,0:0:0:0:
175,324,178476,1,0,0:0:0:0:
234,297,178559,1,0,0:0:0:0:
300,295,178643,1,0,0:0:0:0:
361,316,178726,5,0,0:0:0:0:
424,301,178809,1,0,0:0:0:0:
468,254,178892,1,0,0:0:0:0:
479,191,178976,1,0,0:0:0:0:
452,132,179059,1,0,0:0:0:0:
396,98,179142,1,0,0:0:0:0:
332,101,179226,1,0,0:0:0:0:
280,140,179309,1,0,0:0:0:0:
258,201,179393,1,0,0:0:0:0:
221,252,179476,1,0,0:0:0:0:
158,264,179559,1,0,0:0:0:0:
104,229,179643,1,0,0:0:0:0:
89,167,179726,1,0,0:0:0:0:
121,112,179809,1,0,0:0:0:0:
183,94,179893,1,0,0:0:0:0:
240,123,179976,1,0,0:0:0:0:
261,183,180059,5,0,0:0:0:0:
282,243,180143,1,0,0:0:0:0:
335,281,180226,1,0,0:0:0:0:
400,281,180310,1,0,0:0:0:0:
453,245,180393,2,0,L|461:164,3,65.625
377,39,180726,6,0,L|383:123,1,65.625
261,183,180893,2,0,L|265:117,1,65.625
430,36,181059,6,0,L|424:120,1,65.625
225,213,181226,2,0,L|220:147,1,65.625
145,37,181393,5,0,0:0:0:0:
95,21,181476,1,0,0:0:0:0:
45,36,181559,1,0,0:0:0:0:
12,76,181643,1,0,0:0:0:0:
6,127,181726,1,0,0:0:0:0:
30,173,181809,1,0,0:0:0:0:
75,198,181893,1,0,0:0:0:0:
122,217,181976,1,0,0:0:0:0:
152,260,182059,5,0,0:0:0:0:
197,233,182143,1,0,0:0:0:0:
248,225,182226,1,0,0:0:0:0:
299,236,182310,1,0,0:0:0:0:
343,264,182393,1,0,0:0:0:0:
388,290,182476,1,0,0:0:0:0:
439,285,182559,1,0,0:0:0:0:
478,251,182643,1,0,0:0:0:0:
489,201,182726,1,0,0:0:0:0:
469,153,182809,1,0,0:0:0:0:
425,127,182893,1,0,0:0:0:0:
373,131,182976,1,0,0:0:0:0:
324,149,183059,1,0,0:0:0:0:
277,130,183142,1,0,0:0:0:0:
253,85,183226,1,0,0:0:0:0:
266,35,183309,1,0,0:0:0:0:
309,7,183393,5,0,0:0:0:0:
274,45,183476,1,0,0:0:0:0:
227,68,183559,1,0,0:0:0:0:
175,71,183643,1,0,0:0:0:0:
124,58,183726,1,0,0:0:0:0:
74,71,183809,1,0,0:0:0:0:
35,106,183893,2,0,L|33:188,1,65.625
0,308,184059,5,0,0:0:0:0:
51,305,184142,1,0,0:0:0:0:
102,317,184225,1,0,0:0:0:0:
147,344,184310,1,0,0:0:0:0:
192,367,184393,1,0,0:0:0:0:
243,359,184476,1,0,0:0:0:0:
278,321,184560,1,0,0:0:0:0:
283,270,184643,1,0,0:0:0:0:
256,226,184726,5,0,0:0:0:0:
293,189,184809,1,0,0:0:0:0:
308,139,184892,1,0,0:0:0:0:
297,88,184976,1,0,0:0:0:0:
309,38,185060,1,0,0:0:0:0:
352,10,185143,1,0,0:0:0:0:
402,19,185227,1,0,0:0:0:0:
433,60,185310,1,0,0:0:0:0:
426,111,185393,1,0,0:0:0:0:
387,144,185476,1,0,0:0:0:0:
336,151,185559,1,0,0:0:0:0:
292,123,185642,1,0,0:0:0:0:
278,74,185727,5,0,0:0:0:0:
243,113,185810,1,0,0:0:0:0:
196,136,185893,1,0,0:0:0:0:
144,138,185977,1,0,0:0:0:0:
96,120,186060,5,0,0:0:0:0:
124,163,186143,1,0,0:0:0:0:
133,215,186226,1,0,0:0:0:0:
122,266,186310,1,0,0:0:0:0:
92,308,186393,6,0,P|88:262|95:229,1,65.625
218,317,186559,2,0,P|222:363|215:396,1,65.625
284,240,186726,5,0,0:0:0:0:
345,218,186809,1,0,0:0:0:0:
407,234,186893,1,0,0:0:0:0:
468,221,186976,1,0,0:0:0:0:
493,162,187059,1,0,0:0:0:0:
458,109,187143,1,0,0:0:0:0:
395,108,187226,1,0,0:0:0:0:
358,159,187310,1,0,0:0:0:0:
361,223,187393,1,0,0:0:0:0:
401,274,187476,1,0,0:0:0:0:
396,338,187559,1,0,0:0:0:0:
345,377,187642,1,0,0:0:0:0:
283,366,187726,1,0,0:0:0:0:
249,312,187809,1,0,0:0:0:0:
266,250,187893,1,0,0:0:0:0:
267,185,187976,1,0,0:0:0:0:
227,135,188059,6,0,P|214:71|219:42,1,65.625
162,184,188226,2,0,P|159:216|148:247,1,65.625
237,131,188393,2,0,P|235:65|245:37,1,65.625
164,167,188560,2,0,P|156:199|140:227,1,65.625
248,129,188726,2,0,P|257:63|272:38,3,65.625
319,246,189059,2,0,P|309:180|295:154,3,65.625
398,347,189393,5,0,0:0:0:0:
453,314,189476,1,0,0:0:0:0:
476,254,189559,1,0,0:0:0:0:
457,193,189643,1,0,0:0:0:0:
403,157,189727,1,0,0:0:0:0:
355,116,189810,1,0,0:0:0:0:
354,52,189893,1,0,0:0:0:0:
400,9,189977,1,0,0:0:0:0:
464,14,190060,1,0,0:0:0:0:
502,66,190143,1,0,0:0:0:0:
489,128,190227,1,0,0:0:0:0:
434,160,190310,1,0,0:0:0:0:
369,163,190393,1,0,0:0:0:0:
313,131,190476,1,0,0:0:0:0:
252,106,190559,1,0,0:0:0:0:
187,101,190642,1,0,0:0:0:0:
124,117,190726,6,0,P|63:129|23:118,3,65.625
204,182,191059,2,0,P|265:193|305:182,3,65.625
76,201,191393,6,0,L|70:285,1,65.625
192,345,191560,2,0,L|188:279,1,65.625
23,198,191726,6,0,L|29:282,1,65.625
228,375,191893,2,0,L|233:309,1,65.625
351,169,192059,5,0,0:0:0:0:
419,156,192142,1,0,0:0:0:0:
482,190,192225,1,0,0:0:0:0:
512,254,192309,1,0,0:0:0:0:
496,324,192392,1,0,0:0:0:0:
440,368,192475,1,0,0:0:0:0:
370,370,192559,1,0,0:0:0:0:
313,328,192642,1,0,0:0:0:0:
293,261,192726,1,0,0:0:0:0:
276,211,192809,1,0,0:0:0:0:
236,179,192892,1,0,0:0:0:0:
184,173,192976,1,0,0:0:0:0:
138,196,193059,1,0,0:0:0:0:
110,240,193142,1,0,0:0:0:0:
111,292,193226,1,0,0:0:0:0:
139,335,193309,1,0,0:0:0:0:
187,356,193392,5,0,0:0:0:0:
213,297,193476,1,0,0:0:0:0:
212,232,193559,1,0,0:0:0:0:
184,173,193643,1,0,0:0:0:0:
158,115,193726,1,0,0:0:0:0:
177,53,193809,1,0,0:0:0:0:
232,20,193893,1,0,0:0:0:0:
295,33,193976,1,0,0:0:0:0:
334,84,194060,5,0,0:0:0:0:
382,142,194143,1,0,0:0:0:0:
456,132,194226,1,0,0:0:0:0:
488,64,194310,1,0,0:0:0:0:
447,2,194393,2,0,L|438:95,1,65.625
428,175,194559,2,0,L|419:268,1,65.625
369,354,194726,5,0,0:0:0:0:
313,319,194809,1,0,0:0:0:0:
248,309,194892,1,0,0:0:0:0:
185,324,194976,1,0,0:0:0:0:
132,362,195059,5,0,0:0:0:0:
77,341,195142,1,0,0:0:0:0:
41,296,195225,1,0,0:0:0:0:
33,238,195309,1,0,0:0:0:0:
55,184,195393,5,0,0:0:0:0:
34,136,195476,1,0,0:0:0:0:
34,84,195559,1,0,0:0:0:0:
54,36,195643,1,0,0:0:0:0:
91,0,195726,5,0,0:0:0:0:
130,22,195809,1,0,0:0:0:0:
174,35,195892,1,0,0:0:0:0:
220,37,195976,1,0,0:0:0:0:
265,27,196059,6,0,P|325:31|350:47,1,65.625
413,8,196226,2,0,P|463:40|476:67,1,65.625
410,204,196393,6,0,P|356:177|326:178,1,65.625
291,112,196560,2,0,P|231:115|206:131,1,65.625
165,246,196726,5,0,0:0:0:0:
151,289,196809,1,0,0:0:0:0:
165,332,196892,1,0,0:0:0:0:
201,359,196976,1,0,0:0:0:0:
247,360,197059,1,0,0:0:0:0:
284,334,197142,1,0,0:0:0:0:
300,292,197226,1,0,0:0:0:0:
288,248,197309,1,0,0:0:0:0:
254,219,197393,5,0,0:0:0:0:
255,142,197476,1,0,0:0:0:0:
305,84,197559,1,0,0:0:0:0:
381,71,197643,1,0,0:0:0:0:
448,111,197726,1,0,0:0:0:0:
473,184,197809,1,0,0:0:0:0:
445,256,197893,1,0,0:0:0:0:
378,293,197976,1,0,0:0:0:0:
302,278,198060,1,0,0:0:0:0:
235,237,198143,1,0,0:0:0:0:
157,234,198226,1,0,0:0:0:0:
87,267,198310,1,0,0:0:0:0:
41,330,198393,6,0,P|95:353|136:346,1,65.625
235,237,198559,6,0,P|181:259|140:252,1,65.625
35,190,198726,2,0,L|28:119,1,65.625
135,80,198893,2,0,L|141:9,1,65.625
238,89,199059,2,0,L|244:155,1,65.625
350,199,199226,2,0,L|345:265,3,65.625
433,63,199559,6,0,P|439:99|438:129,1,65.625
485,214,199726,2,0,P|479:250|480:280,1,65.625
433,63,199893,2,0,P|439:99|438:129,1,65.625
383,246,200059,5,0,0:0:0:0:
346,273,200142,1,0,0:0:0:0:
303,287,200225,1,0,0:0:0:0:
257,284,200309,1,0,0:0:0:0:
216,264,200393,1,0,0:0:0:0:
180,236,200476,1,0,0:0:0:0:
136,223,200559,1,0,0:0:0:0:
90,226,200643,1,0,0:0:0:0:
49,245,200727,5,0,0:0:0:0:
101,271,200810,1,0,0:0:0:0:
159,270,200893,1,0,0:0:0:0:
210,241,200977,1,0,0:0:0:0:
241,192,201060,1,0,0:0:0:0:
244,133,201143,1,0,0:0:0:0:
220,80,201227,1,0,0:0:0:0:
173,45,201310,1,0,0:0:0:0:
115,37,201393,5,0,0:0:0:0:
172,81,201476,1,0,0:0:0:0:
242,93,201559,1,0,0:0:0:0:
310,70,201643,1,0,0:0:0:0:
377,46,201726,1,0,0:0:0:0:
445,63,201809,1,0,0:0:0:0:
492,117,201893,1,0,0:0:0:0:
499,188,201976,1,0,0:0:0:0:
458,247,202060,5,0,0:0:0:0:
386,277,202143,1,0,0:0:0:0:
312,255,202226,1,0,0:0:0:0:
269,191,202310,1,0,0:0:0:0:
277,114,202393,1,0,0:0:0:0:
235,50,202476,1,0,0:0:0:0:
160,43,202559,1,0,0:0:0:0:
107,97,202643,1,0,0:0:0:0:
117,173,202726,6,0,P|130:232|124:263,3,65.625
223,113,203059,2,0,P|224:80|235:50,3,65.625
348,140,203393,5,0,0:0:0:0:
404,109,203476,1,0,0:0:0:0:
464,131,203559,1,0,0:0:0:0:
489,189,203643,1,0,0:0:0:0:
462,247,203726,1,0,0:0:0:0:
401,266,203809,1,0,0:0:0:0:
346,234,203893,1,0,0:0:0:0:
283,218,203976,1,0,0:0:0:0:
222,238,204060,5,0,0:0:0:0:
164,199,204143,1,0,0:0:0:0:
95,214,204226,1,0,0:0:0:0:
58,274,204310,1,0,0:0:0:0:
76,342,204393,1,0,0:0:0:0:
138,376,204476,1,0,0:0:0:0:
205,355,204560,1,0,0:0:0:0:
236,292,204643,1,0,0:0:0:0:
209,227,204726,5,0,0:0:0:0:
167,162,204809,1,0,0:0:0:0:
181,87,204892,1,0,0:0:0:0:
243,42,204976,1,0,0:0:0:0:
319,52,205059,1,0,0:0:0:0:
367,112,205142,1,0,0:0:0:0:
360,189,205227,1,0,0:0:0:0:
334,259,205310,1,0,0:0:0:0:
384,315,205393,6,0,P|463:325|504:309,1,65.625
502,218,205559,2,0,P|423:208|382:224,1,65.625
510,210,205726,2,0,P|431:200|390:216,1,65.625
251,254,205893,2,0,L|181:260,1,65.625
42,175,206059,2,0,L|111:181,1,65.625
32,164,206226,2,0,L|101:170,1,65.625
288,117,206393,6,0,P|217:128|183:123,1,65.625
118,53,206559,2,0,P|189:42|223:47,1,65.625
368,64,206726,1,0,0:0:0:0:
336,231,206893,1,0,0:0:0:0:
368,45,207059,1,0,0:0:0:0:
456,182,207226,1,0,0:0:0:0:
266,85,207393,5,0,0:0:0:0:
477,67,207559,1,0,0:0:0:0:
227,182,207726,1,0,0:0:0:0:
511,264,207893,2,0,L|431:270,1,65.625
283,334,208059,5,0,0:0:0:0:
224,362,208142,1,0,0:0:0:0:
161,351,208225,1,0,0:0:0:0:
115,305,208309,1,0,0:0:0:0:
105,242,208393,1,0,0:0:0:0:
135,178,208476,1,0,0:0:0:0:
199,146,208559,1,0,0:0:0:0:
268,161,208643,1,0,0:0:0:0:
313,216,208726,5,0,0:0:0:0:
384,258,208809,1,0,0:0:0:0:
464,236,208892,1,0,0:0:0:0:
502,162,208976,1,0,0:0:0:0:
473,84,209059,5,0,0:0:0:0:
441,89,209142,1,0,0:0:0:0:
414,106,209225,1,0,0:0:0:0:
395,133,209309,1,0,0:0:0:0:
389,165,209392,5,0,0:0:0:0:
357,116,209476,1,0,0:0:0:0:
305,87,209559,1,0,0:0:0:0:
247,87,209643,1,0,0:0:0:0:
195,114,209726,5,0,0:0:0:0:
136,135,209810,1,0,0:0:0:0:
87,96,209893,1,0,0:0:0:0:
94,34,209977,1,0,0:0:0:0:
151,8,210060,5,0,0:0:0:0:
212,55,210143,1,0,0:0:0:0:
229,130,210226,1,0,0:0:0:0:
193,199,210310,1,0,0:0:0:0:
122,229,210393,5,0,0:0:0:0:
86,265,210476,1,0,0:0:0:0:
79,316,210559,1,0,0:0:0:0:
105,361,210643,1,0,0:0:0:0:
152,381,210726,6,0,L|248:369,1,87.5
320,353,210948,2,0,L|415:340,1,87.5
300,279,211171,2,0,L|213:293,1,87.5
314,178,211393,6,0,P|392:230|401:255,1,87.5
236,116,211615,2,0,P|320:74|346:79,1,87.5
143,152,211837,2,0,P|149:58|166:38,1,87.5
132,243,212059,2,0,P|54:191|45:166,2,87.5
208,211,212393,1,0,0:0:0:0:
214,220,212504,2,0,L|224:342,1,87.5
285,353,212726,2,0,L|340:357,4,43.75
385,297,213059,1,0,0:0:0:0:
394,291,213170,2,0,L|516:280,1,87.5
308,257,213393,6,0,B|288:233|285:180|303:144|303:144|293:128|293:128|316:90|315:27|283:-21,1,262.5
