osu file format v14

[General]
AudioFilename: audio.mp3
AudioLeadIn: 0
PreviewTime: -1
Countdown: 1
SampleSet: Normal
StackLeniency: 0.7
Mode: 0
LetterboxInBreaks: 0
WidescreenStoryboard: 0

[Editor]
DistanceSpacing: 1.5
BeatDivisor: 4
GridSize: 4
TimelineZoom: 1.7

[Metadata]
Title:Megalovania (metal cover)
TitleUnicode:Megalovania (metal cover)
Artist:RichaadEB
ArtistUnicode:RichaadEB
Creator:Le Dyguidour
Version:Death metal
Source:
Tags:Toby Fox Undertale Sans
BeatmapID:1308035
BeatmapSetID:620555

[Difficulty]
HPDrainRate:7
CircleSize:4.5
OverallDifficulty:9
ApproachRate:9.5
SliderMultiplier:1.4
SliderTickRate:1

[Events]
//Background and Video events
0,0,"maxresdefault.jpg",0,0
//Break Periods
//Storyboard Layer 0 (Background)
//Storyboard Layer 1 (Fail)
//Storyboard Layer 2 (Pass)
//Storyboard Layer 3 (Foreground)
//Storyboard Sound Samples

[TimingPoints]
6043,250,4,1,0,100,1,0
49105,-90.9090909090909,4,1,0,100,0,0
49355,-80,4,1,0,100,0,0
49455,-100,4,1,0,100,0,0
86043,-133.333333333333,4,1,0,100,0,0
114043,-100,4,1,0,100,0,0

[HitObjects]
256,192,168,12,0,5918,0:0:0:0:
368,96,6043,6,0,L|440:68,2,70
368,96,6543,1,0,0:0:0:0:
312,148,6918,1,0,0:0:0:0:
288,228,7168,1,0,0:0:0:0:
304,312,7418,1,0,0:0:0:0:
384,348,7668,2,0,P|440:352|460:340,2,70
356,60,8043,6,0,L|433:55,2,70
356,60,8543,1,0,0:0:0:0:
286,92,8918,1,0,0:0:0:0:
239,160,9168,1,0,0:0:0:0:
228,245,9418,1,0,0:0:0:0:
293,304,9668,2,0,P|345:325|367:319,2,70
124,112,10043,6,0,L|50:136,2,70
124,112,10543,1,0,0:0:0:0:
200,115,10918,1,0,0:0:0:0:
270,161,11168,1,0,0:0:0:0:
311,236,11418,1,0,0:0:0:0:
273,315,11668,2,0,P|232:354|209:357,2,70
110,76,12043,6,0,L|48:122,2,70
110,76,12543,1,0,0:0:0:0:
184,56,12918,1,0,0:0:0:0:
263,78,13168,1,0,0:0:0:0:
327,136,13418,1,0,0:0:0:0:
315,223,13668,2,0,P|288:272|267:283,2,70
327,136,14043,5,0,0:0:0:0:
336,96,14168,1,0,0:0:0:0:
368,64,14293,1,0,0:0:0:0:
452,44,14543,1,0,0:0:0:0:
452,44,14793,1,0,0:0:0:0:
444,140,14918,2,0,P|432:184|368:256,3,140
340,280,15793,1,0,0:0:0:0:
296,300,15918,1,0,0:0:0:0:
264,264,16043,5,0,0:0:0:0:
224,236,16168,1,0,0:0:0:0:
180,216,16293,1,0,0:0:0:0:
180,216,16543,1,0,0:0:0:0:
120,152,16793,1,0,0:0:0:0:
76,92,16918,2,0,P|63:38|144:56,3,140
168,52,17793,1,0,0:0:0:0:
220,76,17918,1,0,0:0:0:0:
276,64,18043,5,0,0:0:0:0:
328,80,18168,1,0,0:0:0:0:
368,120,18293,1,0,0:0:0:0:
368,120,18543,1,0,0:0:0:0:
296,184,18793,1,0,0:0:0:0:
232,232,18918,2,0,L|104:328,3,140
68,340,19793,1,0,0:0:0:0:
12,344,19918,1,0,0:0:0:0:
256,192,19980,12,0,21793,0:0:0:0:
128,76,22043,5,0,0:0:0:0:
236,92,22168,1,0,0:0:0:0:
104,164,22293,1,0,0:0:0:0:
240,156,22418,1,0,0:0:0:0:
112,248,22543,2,0,P|144:228|200:132,1,140
208,44,22918,5,0,0:0:0:0:
316,48,23043,2,0,P|372:64|408:88,1,70
468,132,23293,5,0,0:0:0:0:
376,172,23418,2,0,P|328:192|292:212,1,70
240,244,23668,5,0,0:0:0:0:
144,180,23793,1,0,0:0:0:0:
276,160,23918,1,0,0:0:0:0:
344,260,24043,2,0,P|392:240|428:208,1,70
436,120,24293,1,0,0:0:0:0:
352,60,24418,1,0,0:0:0:0:
248,48,24543,2,0,P|200:76|136:152,1,140
132,240,24918,5,0,0:0:0:0:
220,304,25043,2,0,L|276:256,1,70
344,192,25293,5,0,0:0:0:0:
336,312,25418,2,0,L|392:264,1,70
460,200,25668,5,0,0:0:0:0:
468,72,25793,1,0,0:0:0:0:
460,200,25918,1,0,0:0:0:0:
392,300,26043,2,0,P|344:312|304:316,1,70
212,296,26293,1,0,0:0:0:0:
304,220,26418,1,0,0:0:0:0:
168,212,26543,2,0,P|128:252|128:340,1,140
264,340,26918,5,0,0:0:0:0:
304,220,27043,2,0,B|296:168|296:168|248:168,1,70
136,184,27293,5,0,0:0:0:0:
96,64,27418,2,0,B|108:12|108:12|152:12,1,70
256,60,27668,5,0,0:0:0:0:
136,184,27793,1,0,0:0:0:0:
256,60,27918,1,0,0:0:0:0:
304,220,28043,2,0,L|328:292,1,70
448,340,28293,1,0,0:0:0:0:
448,180,28418,1,0,0:0:0:0:
424,296,28543,1,0,0:0:0:0:
388,148,28668,1,0,0:0:0:0:
376,264,28793,1,0,0:0:0:0:
324,128,28918,2,0,P|296:88|196:40,1,140
108,52,29293,5,0,0:0:0:0:
88,188,29418,2,0,L|88:260,1,70
156,124,29668,5,0,0:0:0:0:
211,278,29793,2,0,L|251:353,1,70
384,312,30043,5,0,0:0:0:0:
400,288,30105,1,0,0:0:0:0:
412,260,30168,1,0,0:0:0:0:
416,232,30230,1,0,0:0:0:0:
420,204,30293,2,0,P|420:156|404:108,1,70
272,164,30543,2,0,P|216:192|132:216,1,140
16,232,30918,5,0,0:0:0:0:
108,128,31043,2,0,P|136:104|168:88,1,70
184,288,31293,5,0,0:0:0:0:
320,313,31418,2,0,P|356:314|391:307,1,70
496,224,31668,5,0,0:0:0:0:
352,224,31793,1,0,0:0:0:0:
432,104,31918,1,0,0:0:0:0:
312,40,32043,5,0,0:0:0:0:
280,52,32105,1,0,0:0:0:0:
244,56,32168,1,0,0:0:0:0:
208,56,32230,1,0,0:0:0:0:
172,52,32293,2,0,P|120:40|96:32,1,70
48,144,32543,2,0,L|104:288,1,140
228,336,32918,5,0,0:0:0:0:
172,204,33043,2,0,L|144:136,1,70
280,168,33293,5,0,0:0:0:0:
336,300,33418,2,0,L|364:368,1,70
436,224,33668,5,0,0:0:0:0:
308,232,33793,1,0,0:0:0:0:
192,296,33918,1,0,0:0:0:0:
84,220,34043,5,0,0:0:0:0:
88,184,34105,1,0,0:0:0:0:
108,156,34168,1,0,0:0:0:0:
140,144,34230,1,0,0:0:0:0:
176,148,34293,2,0,P|216:156|248:156,1,70
356,120,34543,5,0,0:0:0:0:
372,88,34605,1,0,0:0:0:0:
360,56,34668,1,0,0:0:0:0:
328,44,34730,1,0,0:0:0:0:
296,56,34793,1,0,0:0:0:0:
264,160,34918,2,0,B|276:196|312:220|328:224|332:264,1,105
344,296,35168,2,0,P|344:336|268:340,1,105
244,340,35418,2,0,P|208:324|136:312,1,105
96,316,35668,2,0,P|60:332|32:352,2,70
220,244,36043,6,0,P|256:232|296:224,1,70
464,216,36293,1,0,0:0:0:0:
308,164,36418,1,0,0:0:0:0:
456,128,36543,2,0,P|400:100|320:76,1,140
204,76,36918,2,0,P|168:92|132:116,1,70
80,184,37168,1,0,0:0:0:0:
88,272,37293,1,0,0:0:0:0:
164,312,37418,1,0,0:0:0:0:
240,268,37543,1,0,0:0:0:0:
324,240,37668,1,0,0:0:0:0:
400,280,37793,1,0,0:0:0:0:
464,336,37918,2,0,P|480:292|480:256,1,70
456,152,38168,5,0,0:0:0:0:
352,64,38293,2,0,P|320:48|280:36,1,70
144,60,38543,2,0,P|172:96|200:120,1,70
304,204,38793,1,0,0:0:0:0:
304,204,38918,2,0,P|264:228|184:224,1,105
168,220,39168,2,0,L|124:124,1,105
92,164,39418,2,0,L|32:36,1,140
176,44,39793,5,0,0:0:0:0:
284,104,39918,1,0,0:0:0:0:
396,128,40043,2,0,P|440:116|464:104,2,70
312,228,40418,2,0,P|276:236|240:232,1,70
136,180,40668,1,0,0:0:0:0:
168,336,40793,1,0,0:0:0:0:
168,336,40918,2,0,P|232:360|292:360,1,105
320,348,41168,2,0,L|376:300,3,70
392,200,41668,2,0,L|336:248,2,70
452,140,42043,5,0,0:0:0:0:
364,52,42168,1,0,0:0:0:0:
264,32,42293,1,0,0:0:0:0:
152,52,42418,2,0,P|112:80|64:124,1,105
112,140,42668,2,0,P|148:104|200:68,1,105
240,96,42918,2,0,P|200:124|152:168,1,105
200,184,43168,2,0,P|236:148|288:112,1,105
328,140,43418,2,0,B|368:132|368:132|372:164|372:164|396:136|396:136|404:160,1,105
420,180,43668,2,0,B|436:212|436:212|392:228|392:228|420:256|420:256|383:270|383:270|400:292,1,175
388,328,44043,5,0,0:0:0:0:
248,300,44168,2,0,P|216:284|176:256,1,70
96,152,44418,1,0,0:0:0:0:
248,132,44543,1,0,0:0:0:0:
88,44,44668,1,0,0:0:0:0:
248,32,44793,1,0,0:0:0:0:
248,32,44918,2,0,P|320:56|376:104,1,140
424,208,45293,1,0,0:0:0:0:
348,280,45418,1,0,0:0:0:0:
236,308,45543,1,0,0:0:0:0:
132,260,45668,1,0,0:0:0:0:
232,200,45793,1,0,0:0:0:0:
340,236,45918,1,0,0:0:0:0:
408,136,46043,6,0,P|412:96|400:64,1,70
268,40,46293,1,0,0:0:0:0:
140,96,46418,1,0,0:0:0:0:
276,128,46543,2,0,P|312:144|348:172,1,70
428,272,46793,1,0,0:0:0:0:
284,284,46918,2,0,P|248:272|180:232,1,105
196,280,47168,2,0,P|164:258|110:201,1,105
112,251,47418,2,0,P|87:221|51:151,1,105
56,124,47668,1,0,0:0:0:0:
224,120,47793,1,0,0:0:0:0:
88,40,47918,2,0,P|132:36|164:40,1,70
304,88,48168,5,0,0:0:0:0:
456,60,48293,1,0,0:0:0:0:
316,112,48418,1,0,0:0:0:0:
468,84,48543,1,0,0:0:0:0:
460,216,48668,2,0,P|432:260|404:284,1,70
256,224,48918,2,0,P|232:212|256:252,1,105
256,224,49168,2,0,P|232:212|256:260,1,115.50000352478
256,224,49418,2,0,P|232:212|256:264,1,131.25
256,224,49668,1,0,0:0:0:0:
336,132,49793,2,0,P|336:88|248:48,1,140
88,108,50168,5,0,0:0:0:0:
248,108,50293,1,0,0:0:0:0:
92,184,50418,5,0,0:0:0:0:
264,136,50543,1,0,0:0:0:0:
104,228,50668,5,0,0:0:0:0:
296,196,50793,1,0,0:0:0:0:
168,296,50918,5,0,0:0:0:0:
312,196,51043,1,0,0:0:0:0:
276,344,51168,5,0,0:0:0:0:
368,192,51293,5,0,0:0:0:0:
432,336,51418,1,0,0:0:0:0:
408,168,51543,6,0,P|396:124|368:112,1,70
200,112,51793,2,0,P|212:156|240:168,1,70
296,140,52043,1,0,0:0:0:0:
296,38,52168,1,0,0:0:0:0:
383,89,52293,1,0,0:0:0:0:
285,133,52417,1,0,0:0:0:0:
265,33,52543,1,0,0:0:0:0:
361,66,52668,1,0,0:0:0:0:
271,128,52793,1,0,0:0:0:0:
228,35,52918,2,0,B|272:28|304:36|376:44|408:136,1,210
424,244,53418,5,0,0:0:0:0:
348,316,53543,1,0,0:0:0:0:
236,328,53668,1,0,0:0:0:0:
136,256,53793,1,0,0:0:0:0:
96,144,53918,2,0,P|100:96|112:76,1,70
228,40,54168,2,0,P|280:52|320:40,1,70
436,36,54418,1,0,0:0:0:0:
408,164,54543,5,0,0:0:0:0:
364,180,54605,1,0,0:0:0:0:
320,180,54668,1,0,0:0:0:0:
276,172,54730,1,0,0:0:0:0:
232,184,54793,1,0,0:0:0:0:
212,224,54855,1,0,0:0:0:0:
216,268,54918,2,0,P|236:300|272:312,1,70
372,304,55168,5,0,0:0:0:0:
432,176,55293,1,0,0:0:0:0:
428,308,55418,1,0,0:0:0:0:
332,192,55543,2,0,P|300:160|284:132,1,70
216,48,55793,2,0,P|152:56|120:84,1,105
104,120,56043,2,0,P|116:168|104:248,1,105
128,256,56293,2,0,L|244:256,1,105
268,296,56543,2,0,L|268:152,1,140
268,36,56918,5,0,0:0:0:0:
268,36,57043,1,0,0:0:0:0:
392,96,57168,5,0,0:0:0:0:
392,96,57293,1,0,0:0:0:0:
392,96,57418,1,0,0:0:0:0:
264,156,57543,2,0,P|220:176|168:188,1,70
44,144,57793,1,0,0:0:0:0:
116,272,57918,2,0,P|152:300|196:308,1,70
356,276,58168,5,0,0:0:0:0:
200,224,58293,1,0,0:0:0:0:
356,244,58418,1,0,0:0:0:0:
196,192,58543,1,0,0:0:0:0:
360,136,58668,1,0,0:0:0:0:
184,104,58793,1,0,0:0:0:0:
356,76,58918,2,0,P|396:88|416:120,1,70
348,244,59168,1,0,0:0:0:0:
200,252,59293,2,0,P|160:240|140:208,1,70
120,96,59543,5,0,0:0:0:0:
148,64,59605,1,0,0:0:0:0:
192,52,59668,1,0,0:0:0:0:
236,68,59730,1,0,0:0:0:0:
264,104,59793,1,0,0:0:0:0:
288,204,59918,1,0,0:0:0:0:
396,272,60043,2,0,P|432:216|408:160,1,105
424,181,60293,2,0,P|460:237|436:293,1,105
452,271,60543,5,0,0:0:0:0:
324,336,60668,1,0,0:0:0:0:
332,176,60793,1,0,0:0:0:0:
332,176,60918,2,0,P|312:140|216:100,1,140
68,120,61293,1,0,0:0:0:0:
180,212,61418,2,0,P|240:208|260:196,1,70
364,120,61668,1,0,0:0:0:0:
252,212,61793,2,0,P|192:208|172:196,1,70
108,72,62043,5,0,0:0:0:0:
248,56,62168,1,0,0:0:0:0:
356,108,62293,1,0,0:0:0:0:
404,228,62418,1,0,0:0:0:0:
312,328,62543,1,0,0:0:0:0:
272,196,62668,1,0,0:0:0:0:
404,228,62793,1,0,0:0:0:0:
312,328,62918,1,0,0:0:0:0:
176,268,63043,2,0,P|168:224|192:132,1,140
284,48,63418,5,0,0:0:0:0:
400,36,63543,2,0,L|544:24,1,140
484,156,63918,5,0,0:0:0:0:
344,184,64043,2,0,P|288:188|208:164,1,140
92,72,64418,5,0,0:0:0:0:
92,72,64543,2,0,L|84:232,1,140
308,116,64918,5,0,0:0:0:0:
308,116,65043,2,0,L|316:276,1,140
115,222,65418,5,0,0:0:0:0:
115,222,65543,2,0,L|211:349,1,140
308,116,65918,5,0,0:0:0:0:
308,116,66043,2,0,L|416:233,1,140
324,132,66418,5,0,0:0:0:0:
328,136,66543,2,0,L|436:253,1,140
486,150,66918,5,0,0:0:0:0:
494,325,67043,1,0,0:0:0:0:
328,312,67168,1,0,0:0:0:0:
367,168,67293,1,0,0:0:0:0:
248,308,67418,1,0,0:0:0:0:
209,106,67543,1,0,0:0:0:0:
169,304,67668,1,0,0:0:0:0:
288,137,67793,1,0,0:0:0:0:
95,299,67918,2,0,L|-1:294,1,70
256,192,68105,12,0,69043,0:0:0:0:
92,64,69293,5,0,0:0:0:0:
92,64,69418,1,0,0:0:0:0:
336,64,69668,5,0,0:0:0:0:
420,144,69793,1,0,0:0:0:0:
332,60,69918,1,0,0:0:0:0:
424,148,70043,2,0,P|436:192|392:280,1,140
268,304,70418,1,0,0:0:0:0:
152,224,70543,1,0,0:0:0:0:
304,208,70668,1,0,0:0:0:0:
376,96,70793,2,0,P|344:68|288:64,1,70
188,72,71043,5,0,0:0:0:0:
72,144,71168,1,0,0:0:0:0:
200,156,71293,1,0,0:0:0:0:
112,24,71418,1,0,0:0:0:0:
72,144,71543,2,0,P|80:192|96:224,1,70
184,280,71793,1,0,0:0:0:0:
320,228,71918,1,0,0:0:0:0:
188,188,72043,6,0,P|140:192|108:216,1,70
44,324,72293,2,0,P|88:336|160:332,1,105
200,316,72543,2,0,P|244:308|340:312,1,140
460,288,72918,1,0,0:0:0:0:
412,160,73043,2,0,P|384:128|352:112,1,70
212,80,73293,1,0,0:0:0:0:
240,232,73418,2,0,P|288:232|312:220,1,70
336,188,73605,1,0,0:0:0:0:
348,144,73668,1,0,0:0:0:0:
340,100,73730,1,0,0:0:0:0:
316,60,73793,2,0,P|284:36|244:28,1,70
116,48,74043,5,0,0:0:0:0:
256,120,74168,2,0,P|288:140|304:196,1,70
312,240,74418,1,0,0:0:0:0:
164,236,74543,1,0,0:0:0:0:
312,288,74668,1,0,0:0:0:0:
140,324,74793,1,0,0:0:0:0:
312,336,74918,1,0,0:0:0:0:
152,280,75043,2,0,P|96:256|64:236,1,70
79,112,75293,2,0,P|117:124|93:93,1,105
93,93,75543,2,0,P|117:124|80:112,1,105
80,112,75793,2,0,P|120:120|88:96,1,105
93,93,76043,2,0,P|117:124|48:164,1,140
52,167,76418,5,0,0:0:0:0:
188,212,76543,2,0,P|224:216|264:204,1,70
368,112,76793,1,0,0:0:0:0:
392,268,76918,2,0,P|388:312|372:332,1,70
408,84,77168,1,0,0:0:0:0:
432,240,77293,2,0,P|428:284|412:304,1,70
252,328,77543,5,0,0:0:0:0:
136,256,77668,1,0,0:0:0:0:
108,136,77793,1,0,0:0:0:0:
172,28,77918,1,0,0:0:0:0:
296,20,78043,2,0,P|348:28|392:56,1,105
428,80,78293,2,0,L|428:184,1,105
380,144,78543,2,0,L|380:248,1,105
428,216,78793,2,0,L|428:320,1,105
464,336,79043,2,0,L|316:336,1,140
176,288,79418,5,0,0:0:0:0:
128,160,79543,2,0,P|128:96|168:28,1,140
288,24,79918,5,0,0:0:0:0:
408,80,80043,2,0,P|444:132|464:208,1,140
320,176,80418,5,0,0:0:0:0:
320,176,80543,2,0,L|172:176,1,140
64,248,80918,5,0,0:0:0:0:
64,248,81043,2,0,L|212:248,1,140
160,88,81418,5,0,0:0:0:0:
160,88,81543,2,0,L|12:88,1,140
204,164,81918,5,0,0:0:0:0:
204,164,82043,2,0,L|352:164,1,140
240,164,82418,5,0,0:0:0:0:
240,164,82543,2,0,L|388:164,1,140
241,58,82918,5,0,0:0:0:0:
135,223,83043,1,0,0:0:0:0:
124,26,83168,1,0,0:0:0:0:
248,179,83293,1,0,0:0:0:0:
57,127,83418,1,0,0:0:0:0:
248,53,83543,1,0,0:0:0:0:
130,234,83668,1,0,0:0:0:0:
118,18,83793,1,0,0:0:0:0:
256,192,83918,2,0,P|264:246|244:276,1,70,0|0,3:0|3:0,3:0:0:0:
256,192,84168,12,0,85543,0:0:0:0:
88,72,86043,5,0,0:0:0:0:
196,68,86293,1,0,0:0:0:0:
64,120,86543,1,0,0:0:0:0:
64,120,86668,1,0,0:0:0:0:
192,160,86918,2,0,L|304:160,1,105.000004005432
388,160,87293,1,0,0:0:0:0:
388,160,87418,1,0,0:0:0:0:
388,160,87543,1,0,0:0:0:0:
388,160,87793,5,0,0:0:0:0:
340,264,88043,5,0,0:0:0:0:
200,272,88293,1,0,0:0:0:0:
356,320,88543,1,0,0:0:0:0:
356,320,88668,1,0,0:0:0:0:
192,344,88918,2,0,L|76:344,1,105.000004005432
20,344,89293,1,0,0:0:0:0:
20,344,89418,1,0,0:0:0:0:
20,344,89543,1,0,0:0:0:0:
68,216,89793,5,0,0:0:0:0:
176,132,90043,1,0,0:0:0:0:
176,132,90293,1,0,0:0:0:0:
312,120,90543,1,0,0:0:0:0:
312,120,90668,1,0,0:0:0:0:
428,188,90918,2,0,P|440:216|428:296,1,105.000004005432
392,344,91293,1,0,0:0:0:0:
392,344,91418,1,0,0:0:0:0:
392,344,91543,1,0,0:0:0:0:
376,304,91668,1,0,0:0:0:0:
340,284,91793,1,0,0:0:0:0:
300,284,91918,1,0,0:0:0:0:
260,284,92043,1,0,0:0:0:0:
288,156,92293,5,0,0:0:0:0:
140,144,92543,1,0,0:0:0:0:
140,144,92668,1,0,0:0:0:0:
248,44,92918,2,0,L|356:44,1,105.000004005432
424,44,93293,1,0,0:0:0:0:
424,44,93418,1,0,0:0:0:0:
424,44,93543,1,0,0:0:0:0:
436,84,93668,1,0,0:0:0:0:
420,124,93793,1,0,0:0:0:0:
388,148,93918,1,0,0:0:0:0:
348,156,94043,2,0,P|304:160|240:144,2,105.000004005432
388,172,94668,6,0,P|424:200|432:268,2,105.000004005432
344,172,95293,1,0,0:0:0:0:
308,188,95418,1,0,0:0:0:0:
280,220,95543,1,0,0:0:0:0:
240,236,95668,1,0,0:0:0:0:
200,236,95793,1,0,0:0:0:0:
160,224,95918,1,0,0:0:0:0:
140,188,96043,2,0,P|124:124|84:84,2,105.000004005432
124,228,96668,6,0,P|108:252|56:204,2,105.000004005432
128,184,97293,1,0,0:0:0:0:
116,144,97418,1,0,0:0:0:0:
92,108,97543,1,0,0:0:0:0:
124,80,97668,1,0,0:0:0:0:
164,76,97793,1,0,0:0:0:0:
204,88,97918,1,0,0:0:0:0:
244,84,98043,2,0,B|288:72|316:52|336:48|336:48|408:84|436:152|436:152|400:208|398:262|224:320,1,525.000020027161
456,268,99668,5,0,0:0:0:0:
456,268,99793,1,0,0:0:0:0:
456,268,99918,1,0,0:0:0:0:
456,268,100043,2,0,B|436:212|312:140|312:140|220:172|168:148|168:148|196:92|196:92|144:88|44:120|68:196,1,595.00002269745
104,220,101543,2,0,P|124:216|140:208,2,35.0000013351441
336,128,102043,1,0,0:0:0:0:
395,162,102168,1,0,0:0:0:0:
395,93,102293,1,0,0:0:0:0:
336,128,102543,1,0,0:0:0:0:
395,162,102918,6,0,P|416:192|488:208,2,105.000004005432
395,93,103668,1,0,0:0:0:0:
336,128,103793,1,0,0:0:0:0:
395,162,103918,1,0,0:0:0:0:
395,93,104043,5,0,0:0:0:0:
338,131,104168,1,0,0:0:0:0:
400,161,104293,1,0,0:0:0:0:
395,93,104543,1,0,0:0:0:0:
338,131,104918,6,0,P|301:136|255:194,2,105.000004005432
400,161,105668,1,0,0:0:0:0:
395,93,105793,1,0,0:0:0:0:
338,131,105918,1,0,0:0:0:0:
394,159,106043,5,0,0:0:0:0:
390,91,106168,1,0,0:0:0:0:
332,130,106293,1,0,0:0:0:0:
394,159,106543,1,0,0:0:0:0:
390,91,106918,6,0,P|403:57|376:-11,2,105.000004005432
332,130,107668,1,0,0:0:0:0:
394,159,107793,1,0,0:0:0:0:
390,91,107918,1,0,0:0:0:0:
332,130,108043,5,0,0:0:0:0:
396,156,108168,1,0,0:0:0:0:
386,88,108293,1,0,0:0:0:0:
332,130,108543,1,0,0:0:0:0:
396,156,108918,6,0,P|421:183|494:188,2,105.000004005432
386,88,109668,1,0,0:0:0:0:
332,130,109793,1,0,0:0:0:0:
396,156,109918,1,0,0:0:0:0:
386,88,110043,5,0,0:0:0:0:
332,130,110168,1,0,0:0:0:0:
396,156,110293,1,0,0:0:0:0:
386,88,110543,1,0,0:0:0:0:
332,130,110918,5,0,0:0:0:0:
396,156,111168,1,0,0:0:0:0:
386,88,111418,1,0,0:0:0:0:
386,88,111668,1,0,0:0:0:0:
332,130,111793,1,0,0:0:0:0:
396,156,111918,1,0,0:0:0:0:
386,88,112043,5,0,0:0:0:0:
332,130,112168,1,0,0:0:0:0:
396,156,112293,1,0,0:0:0:0:
386,88,112543,1,0,0:0:0:0:
332,130,112918,5,0,0:0:0:0:
396,156,113168,1,0,0:0:0:0:
386,88,113418,1,0,0:0:0:0:
386,88,113668,5,0,0:0:0:0:
332,130,113793,1,0,0:0:0:0:
396,156,113918,1,0,0:0:0:0:
386,88,114043,6,0,L|304:44,1,70
224,4,114293,1,0,0:0:0:0:
224,4,114543,1,0,0:0:0:0:
108,112,114918,2,0,P|64:116|-36:88,2,140
226,143,115668,5,0,0:0:0:0:
304,162,115792,1,0,0:0:0:0:
285,240,115918,1,0,0:0:0:0:
207,221,116043,2,0,P|160:232|116:252,1,70
32,296,116293,1,0,0:0:0:0:
28,296,116543,1,0,0:0:0:0:
204,328,116918,1,0,0:0:0:0:
260,328,117168,1,0,0:0:0:0:
316,328,117418,1,0,0:0:0:0:
420,196,117668,5,0,0:0:0:0:
340,80,117793,1,0,0:0:0:0:
352,216,117918,1,0,0:0:0:0:
440,104,118043,1,0,0:0:0:0:
412,56,118106,1,0,0:0:0:0:
360,40,118168,1,0,0:0:0:0:
304,48,118231,1,0,0:0:0:0:
260,80,118293,2,0,B|220:100|191:109|137:124|99:152|99:152|80:212,1,210
152,276,118793,5,0,0:0:0:0:
272,248,118918,1,0,0:0:0:0:
176,156,119043,6,0,P|236:136|312:136,1,140
396,244,119418,2,0,P|432:196|448:112,1,140
300,184,119793,2,0,P|288:248|296:276,1,70
396,240,120043,1,0,0:0:0:0:
432,200,120105,1,0,0:0:0:0:
408,148,120168,1,0,0:0:0:0:
352,140,120230,1,0,0:0:0:0:
308,176,120293,2,0,P|244:208|104:184,1,210
56,68,120793,5,0,0:0:0:0:
172,76,120918,1,0,0:0:0:0:
244,152,121043,2,0,P|304:140|368:88,1,140
464,8,121418,2,0,P|492:76|484:152,1,140
404,240,121793,6,0,L|364:244,1,35
260,248,121918,2,0,L|248:212,1,35
220,128,122043,6,0,L|184:128,1,35
80,124,122168,2,0,L|120:112,1,35
232,68,122293,6,0,L|195:63,1,35
48,56,122418,2,0,L|88:56,1,35
232,68,122543,6,0,L|256:100,1,35
308,176,122668,2,0,L|328:144,1,35
408,24,122793,2,0,L|416:60,1,35
436,160,122918,2,0,L|400:168,1,35
260,204,123043,6,0,L|296:212,1,35
424,260,123168,2,0,L|392:280,1,35
296,320,123293,2,0,L|264:308,1,35
136,256,123418,2,0,L|160:228,1,35
252,120,123543,6,0,L|212:120,1,35
64,120,123668,2,0,L|100:140,1,35
240,224,123793,6,0,L|224:192,1,35
136,32,123918,2,0,L|164:64,1,35
292,216,124043,2,0,L|304:184,1,35
364,52,124168,2,0,L|388:80,1,35
440,152,124293,6,0,L|404:152,1,35
296,160,124418,2,0,L|260:176,1,35
196,232,124543,2,0,L|212:264,1,35
252,340,124668,2,0,L|292:340,1,35
368,332,124793,6,0,L|388:304,1,35
440,216,124918,2,0,L|432:180,1,35
392,72,125043,2,0,L|352:72,1,35
232,72,125168,2,0,L|248:116,1,35
292,224,125293,6,0,L|256:236,1,35
160,260,125418,2,0,B|96:220|156:184|100:128,1,140
28,40,125793,1,0,0:0:0:0:
148,56,125918,1,0,0:0:0:0:
224,164,126043,5,0,0:0:0:0:
252,140,126105,1,0,0:0:0:0:
288,128,126168,1,0,0:0:0:0:
328,132,126230,1,0,0:0:0:0:
360,156,126293,1,0,0:0:0:0:
384,196,126355,1,0,0:0:0:0:
380,240,126418,1,0,0:0:0:0:
356,276,126480,1,0,0:0:0:0:
312,296,126543,1,0,0:0:0:0:
264,308,126605,1,0,0:0:0:0:
216,292,126668,1,0,0:0:0:0:
188,260,126730,1,0,0:0:0:0:
176,212,126793,1,0,0:0:0:0:
184,164,126855,1,0,0:0:0:0:
204,128,126918,1,0,0:0:0:0:
236,104,126980,1,0,0:0:0:0:
272,92,127043,5,0,0:0:0:0:
308,88,127105,1,0,0:0:0:0:
344,100,127168,1,0,0:0:0:0:
364,132,127230,1,0,0:0:0:0:
376,168,127293,1,0,0:0:0:0:
408,188,127355,1,0,0:0:0:0:
448,188,127418,1,0,0:0:0:0:
472,152,127480,1,0,0:0:0:0:
472,108,127543,1,0,0:0:0:0:
444,72,127605,1,0,0:0:0:0:
400,48,127668,1,0,0:0:0:0:
352,56,127730,1,0,0:0:0:0:
308,88,127793,1,0,0:0:0:0:
272,120,127855,1,0,0:0:0:0:
224,144,127918,1,0,0:0:0:0:
172,152,127980,1,0,0:0:0:0:
120,140,128043,2,0,B|56:128|16:96|20:32|64:-12|136:-4|184:56|184:56|208:72|392:48,1,490
336,176,129043,2,0,B|288:216|160:216|160:216|128:176|76:248|44:268|44:268|152:296|208:296,1,490
332,284,130043,5,0,0:0:0:0:
424,132,130168,2,0,P|424:80|400:60,1,70
224,44,130418,5,0,0:0:0:0:
252,248,130543,2,0,P|292:256|328:248,1,70
336,28,130793,5,0,0:0:0:0:
156,72,130918,2,0,P|124:108|112:144,1,70
160,328,131168,5,0,0:0:0:0:
340,300,131293,2,0,P|368:272|384:240,1,70
308,84,131543,5,0,0:0:0:0:
96,148,131668,2,0,P|80:184|88:216,1,70
272,296,131918,5,0,0:0:0:0:
412,148,132043,2,0,P|416:96|408:64,1,70
216,40,132293,5,0,0:0:0:0:
124,280,132418,2,0,P|160:296|204:300,1,70
336,260,132668,1,0,0:0:0:0:
240,63,132793,1,0,0:0:0:0:
240,277,132918,1,0,0:0:0:0:
331,89,133043,1,0,0:0:0:0:
170,217,133168,1,0,0:0:0:0:
366,173,133293,1,0,0:0:0:0:
173,129,133418,1,0,0:0:0:0:
324,252,133543,2,0,P|352:284|448:240,1,140
496,128,133918,1,0,0:0:0:0:
380,64,134043,5,0,0:0:0:0:
344,72,134105,1,0,0:0:0:0:
308,80,134168,1,0,0:0:0:0:
268,80,134230,1,0,0:0:0:0:
232,72,134293,1,0,0:0:0:0:
192,64,134355,1,0,0:0:0:0:
152,76,134418,1,0,0:0:0:0:
128,108,134480,1,0,0:0:0:0:
140,144,134543,2,0,P|156:160|176:164,1,35
308,168,134668,2,0,P|292:152|272:148,1,35
200,280,134793,2,0,P|220:292|247:294,1,35
306,147,134918,2,0,P|285:134|258:132,1,35
364,268,135043,5,0,0:0:0:0:
404,248,135105,1,0,0:0:0:0:
436,216,135168,1,0,0:0:0:0:
448,172,135230,1,0,0:0:0:0:
432,132,135293,1,0,0:0:0:0:
400,116,135355,1,0,0:0:0:0:
356,116,135418,1,0,0:0:0:0:
316,112,135480,1,0,0:0:0:0:
280,92,135543,1,0,0:0:0:0:
252,72,135605,1,0,0:0:0:0:
224,44,135668,1,0,0:0:0:0:
188,36,135730,1,0,0:0:0:0:
152,48,135793,1,0,0:0:0:0:
124,72,135855,1,0,0:0:0:0:
112,112,135918,1,0,0:0:0:0:
136,152,135980,1,0,0:0:0:0:
176,172,136043,5,0,0:0:0:0:
172,220,136105,1,0,0:0:0:0:
148,260,136168,1,0,0:0:0:0:
128,304,136230,1,0,0:0:0:0:
140,352,136293,1,0,0:0:0:0:
184,372,136355,1,0,0:0:0:0:
232,356,136418,1,0,0:0:0:0:
264,324,136480,1,0,0:0:0:0:
292,280,136543,2,0,P|308:248|320:232,1,35
468,212,136668,2,0,P|452:244|440:260,1,35
284,160,136793,2,0,P|319:159|339:162,1,35
452,243,136918,2,0,P|416:243|396:240,1,35
404,108,137043,5,0,0:0:0:0:
404,56,137105,1,0,0:0:0:0:
364,20,137168,1,0,0:0:0:0:
312,16,137230,1,0,0:0:0:0:
264,36,137293,1,0,0:0:0:0:
236,76,137355,1,0,0:0:0:0:
204,116,137418,1,0,0:0:0:0:
160,140,137480,1,0,0:0:0:0:
120,168,137543,1,0,0:0:0:0:
104,212,137605,1,0,0:0:0:0:
120,256,137668,1,0,0:0:0:0:
156,280,137730,1,0,0:0:0:0:
200,272,137793,1,0,0:0:0:0:
244,268,137855,1,0,0:0:0:0:
288,272,137918,1,0,0:0:0:0:
332,280,137980,1,0,0:0:0:0:
376,296,138043,5,0,0:0:0:0:
336,328,138105,1,0,0:0:0:0:
284,320,138168,1,0,0:0:0:0:
252,280,138230,1,0,0:0:0:0:
232,228,138293,1,0,0:0:0:0:
228,172,138355,1,0,0:0:0:0:
240,116,138418,1,0,0:0:0:0:
272,76,138480,1,0,0:0:0:0:
320,56,138543,2,0,P|340:52|360:76,1,35
256,188,138668,2,0,P|236:192|216:168,1,35
392,172,138793,2,0,P|407:185|400:215,1,35
264,280,138918,2,0,P|244:284|224:260,1,35
124,168,139043,5,0,0:0:0:0:
152,112,139105,1,0,0:0:0:0:
148,48,139168,1,0,0:0:0:0:
96,12,139230,1,0,0:0:0:0:
32,24,139293,1,0,0:0:0:0:
8,80,139355,1,0,0:0:0:0:
28,140,139418,1,0,0:0:0:0:
80,176,139480,1,0,0:0:0:0:
140,192,139543,1,0,0:0:0:0:
192,224,139605,1,0,0:0:0:0:
232,272,139668,1,0,0:0:0:0:
288,288,139730,1,0,0:0:0:0:
344,276,139793,1,0,0:0:0:0:
384,240,139855,1,0,0:0:0:0:
400,188,139918,1,0,0:0:0:0:
392,132,139980,1,0,0:0:0:0:
348,96,140043,5,0,0:0:0:0:
172,104,140168,1,0,0:0:0:0:
344,160,140293,1,0,0:0:0:0:
116,212,140418,1,0,0:0:0:0:
344,244,140543,1,0,0:0:0:0:
144,160,140668,1,0,0:0:0:0:
344,80,140793,1,0,0:0:0:0:
196,48,140918,1,0,0:0:0:0:
344,160,141043,1,0,0:0:0:0:
116,212,141168,1,0,0:0:0:0:
344,80,141293,1,0,0:0:0:0:
144,160,141418,1,0,0:0:0:0:
344,244,141543,1,0,0:0:0:0:
196,48,141668,1,0,0:0:0:0:
344,160,141793,1,0,0:0:0:0:
116,212,141918,1,0,0:0:0:0:
344,244,142043,6,0,B|536:236|496:24|336:28|336:28|272:120|138:109|64:52|64:52|64:280,1,910
208,276,143793,2,0,P|240:244|276:164,1,105
272,148,144043,2,0,B|216:120|248:48|248:48|372:72|380:36|380:36|456:112|384:256,1,490
264,284,145043,2,0,P|232:224|120:336,1,280
288,264,146043,2,0,B|300:224|272:128|272:124|432:96|184:44|308:4|70:74|70:74|196:112|232:280|74:227|74:227|112:296|213:340|213:340|384:340,1,1050
436,256,148043,2,0,L|444:212,32,35
56,52,152043,1,0,0:0:0:0:
80,60,154043,5,0,0:0:0:0:
116,80,154105,1,0,0:0:0:0:
160,84,154168,1,0,0:0:0:0:
200,80,154230,1,0,0:0:0:0:
244,76,154293,1,0,0:0:0:0:
288,72,154355,1,0,0:0:0:0:
332,76,154418,1,0,0:0:0:0:
376,92,154480,1,0,0:0:0:0:
396,132,154543,1,0,0:0:0:0:
396,180,154605,1,0,0:0:0:0:
364,216,154668,1,0,0:0:0:0:
316,228,154730,1,0,0:0:0:0:
272,204,154793,1,0,0:0:0:0:
244,172,154855,1,0,0:0:0:0:
200,152,154918,1,0,0:0:0:0:
152,156,154980,1,0,0:0:0:0:
112,188,155043,5,0,0:0:0:0:
88,232,155105,1,0,0:0:0:0:
104,280,155168,1,0,0:0:0:0:
148,296,155230,1,0,0:0:0:0:
196,292,155293,1,0,0:0:0:0:
244,288,155355,1,0,0:0:0:0:
292,300,155418,1,0,0:0:0:0:
336,316,155480,1,0,0:0:0:0:
380,332,155543,1,0,0:0:0:0:
424,328,155605,1,0,0:0:0:0:
460,300,155668,1,0,0:0:0:0:
476,256,155730,1,0,0:0:0:0:
472,212,155793,1,0,0:0:0:0:
440,184,155855,1,0,0:0:0:0:
400,172,155918,1,0,0:0:0:0:
360,184,155980,1,0,0:0:0:0:
336,220,156043,5,0,0:0:0:0:
324,172,156105,1,0,0:0:0:0:
288,140,156168,1,0,0:0:0:0:
240,132,156230,1,0,0:0:0:0:
196,152,156293,1,0,0:0:0:0:
148,140,156355,1,0,0:0:0:0:
108,112,156418,1,0,0:0:0:0:
96,64,156480,1,0,0:0:0:0:
124,24,156543,1,0,0:0:0:0:
172,12,156605,1,0,0:0:0:0:
216,12,156668,1,0,0:0:0:0:
256,32,156730,1,0,0:0:0:0:
288,64,156793,1,0,0:0:0:0:
312,112,156855,1,0,0:0:0:0:
308,148,156918,1,0,0:0:0:0:
288,188,156980,1,0,0:0:0:0:
252,216,157043,5,0,0:0:0:0:
292,248,157105,1,0,0:0:0:0:
300,300,157168,1,0,0:0:0:0:
264,336,157230,1,0,0:0:0:0:
212,348,157293,1,0,0:0:0:0:
164,324,157355,1,0,0:0:0:0:
132,284,157418,1,0,0:0:0:0:
120,232,157480,1,0,0:0:0:0:
128,180,157543,1,0,0:0:0:0:
180,168,157605,1,0,0:0:0:0:
180,168,157668,1,0,0:0:0:0:
180,168,157730,1,0,0:0:0:0:
180,168,157793,1,0,0:0:0:0:
180,168,157855,1,0,0:0:0:0:
180,168,157918,1,0,0:0:0:0:
180,168,157980,1,0,0:0:0:0:
180,168,158043,5,0,0:0:0:0:
296,232,158168,1,0,0:0:0:0:
432,156,158293,1,0,0:0:0:0:
276,72,158418,1,0,0:0:0:0:
364,196,158543,2,0,P|388:232|384:328,1,140
232,336,158918,5,0,0:0:0:0:
144,216,159043,2,0,P|116:168|120:136,1,70
208,0,159293,5,0,0:0:0:0:
296,120,159418,2,0,P|324:168|320:200,1,70
160,320,159668,1,0,0:0:0:0:
180,148,159793,1,0,0:0:0:0:
336,312,159918,1,0,0:0:0:0:
420,160,160043,2,0,P|420:112|412:64,1,70
264,24,160293,1,0,0:0:0:0:
324,172,160418,1,0,0:0:0:0:
172,224,160543,2,0,P|128:200|112:112,1,140
272,32,160918,5,0,0:0:0:0:
436,120,161043,2,0,P|460:156|464:192,1,70
272,280,161293,5,0,0:0:0:0:
436,192,161418,2,0,P|460:156|464:120,1,70
320,24,161668,5,0,0:0:0:0:
220,176,161793,2,0,P|252:168|288:168,1,70
336,176,161980,1,0,0:0:0:0:
384,196,162043,1,0,0:0:0:0:
288,320,162168,1,0,0:0:0:0:
260,84,162293,2,0,P|300:76|344:92,1,70
356,240,162543,2,0,P|372:276|332:364,1,140
192,352,162918,5,0,0:0:0:0:
104,232,163043,2,0,P|96:188|108:148,1,70
208,44,163293,5,0,0:0:0:0:
212,224,163418,2,0,P|184:268|140:280,1,70
0,280,163668,1,0,0:0:0:0:
144,216,163793,1,0,0:0:0:0:
0,192,163918,1,0,0:0:0:0:
144,216,164043,1,0,0:0:0:0:
0,280,164168,1,0,0:0:0:0:
96,124,164293,2,0,P|124:92|176:72,1,70
308,72,164543,2,0,B|416:72|416:72|392:112,1,140
324,224,164918,5,0,0:0:0:0:
196,116,165043,2,0,B|156:80|156:80|140:96,1,70
84,208,165293,5,0,0:0:0:0:
212,316,165418,2,0,B|252:352|252:352|268:336,1,70
368,184,165668,1,0,0:0:0:0:
192,196,165793,1,0,0:0:0:0:
360,264,165918,1,0,0:0:0:0:
336,96,166043,5,0,0:0:0:0:
304,68,166105,1,0,0:0:0:0:
264,56,166168,1,0,0:0:0:0:
224,60,166230,1,0,0:0:0:0:
188,80,166293,2,0,P|160:108|144:136,1,70
256,272,166543,2,0,P|332:244|380:208,1,140
372,44,166918,1,0,0:0:0:0:
168,152,167043,1,0,0:0:0:0:
372,180,167168,1,0,0:0:0:0:
232,12,167293,1,0,0:0:0:0:
200,220,167418,1,0,0:0:0:0:
300,80,167543,1,0,0:0:0:0:
144,76,167668,1,0,0:0:0:0:
308,212,167793,1,0,0:0:0:0:
428,112,167918,1,0,0:0:0:0:
244,132,168043,5,0,0:0:0:0:
208,152,168105,1,0,0:0:0:0:
184,184,168168,1,0,0:0:0:0:
172,224,168230,1,0,0:0:0:0:
176,268,168293,2,0,P|188:304|216:324,1,70
352,276,168543,2,0,P|356:240|264:160,1,140
104,196,168918,1,0,0:0:0:0:
224,68,169043,1,0,0:0:0:0:
256,228,169168,1,0,0:0:0:0:
120,88,169293,1,0,0:0:0:0:
300,156,169418,1,0,0:0:0:0:
160,0,169543,1,0,0:0:0:0:
192,152,169668,1,0,0:0:0:0:
320,64,169793,1,0,0:0:0:0:
352,224,169918,1,0,0:0:0:0:
224,68,170043,5,0,0:0:0:0:
184,56,170105,1,0,0:0:0:0:
144,64,170168,1,0,0:0:0:0:
108,88,170230,1,0,0:0:0:0:
84,124,170293,2,0,P|72:168|72:192,1,70
204,208,170543,1,0,0:0:0:0:
244,192,170605,1,0,0:0:0:0:
284,196,170668,1,0,0:0:0:0:
324,212,170730,1,0,0:0:0:0:
368,212,170793,1,0,0:0:0:0:
416,72,170918,5,0,0:0:0:0:
224,68,171043,1,0,0:0:0:0:
420,168,171168,5,0,0:0:0:0:
168,156,171293,1,0,0:0:0:0:
328,28,171418,5,0,0:0:0:0:
396,256,171543,1,0,0:0:0:0:
168,252,171668,5,0,0:0:0:0:
296,164,171793,1,0,0:0:0:0:
280,320,171918,1,0,0:0:0:0:
96,268,172043,2,0,P|72:232|72:192,1,70
76,56,172293,5,0,0:0:0:0:
312,86,172418,1,0,0:0:0:0:
89,231,172543,5,0,0:0:0:0:
212,8,172668,1,0,0:0:0:0:
382,235,172793,1,0,0:0:0:0:
129,148,172918,5,0,0:0:0:0:
247,349,173043,1,0,0:0:0:0:
400,126,173168,1,0,0:0:0:0:
188,220,173293,1,0,0:0:0:0:
448,358,173418,5,0,0:0:0:0:
317,139,173543,1,0,0:0:0:0:
102,283,173668,5,0,0:0:0:0:
452,253,173793,1,0,0:0:0:0:
120,65,173918,1,0,0:0:0:0:
256,192,173980,12,0,176043,0:0:0:0:
