osu file format v14

[General]
AudioFilename: audio.mp3
AudioLeadIn: 0
PreviewTime: 65220
Countdown: 0
SampleSet: None
StackLeniency: 0.7
Mode: 1
LetterboxInBreaks: 0
WidescreenStoryboard: 1

[Editor]
DistanceSpacing: 0.7
BeatDivisor: 4
GridSize: 32
TimelineZoom: 2.2

[Metadata]
Title:Gourmet Race
TitleUnicode:Gourmet Race
Artist:RichaadEB
ArtistUnicode:RichaadEB
Creator:Serial Dreemurr
Version:Level 3
Source:KIRBY SUPER STAR
Tags:
BeatmapID:2120288
BeatmapSetID:1012950

[Difficulty]
HPDrainRate:5
CircleSize:2
OverallDifficulty:7
ApproachRate:10
SliderMultiplier:1.4
SliderTickRate:1

[Events]
//Background and Video events
0,0,"11 kirby wallpaper 3.jpg",0,0
//Break Periods
//Storyboard Layer 0 (Background)
//Storyboard Layer 1 (Fail)
//Storyboard Layer 2 (Pass)
//Storyboard Layer 3 (Foreground)
//Storyboard Sound Samples

[TimingPoints]
1370,320.855614973262,4,1,0,60,1,0
13883,-99.009900990099,4,1,0,60,0,1
13963,-98.0392156862745,4,1,0,60,0,1
14043,-97.0873786407767,4,1,0,60,0,1
14124,-96.1538461538461,4,1,0,60,0,1
14204,-95.2380952380952,4,1,0,60,0,1
21904,-95.2380952380952,4,1,0,60,0,0
24471,-90.9090909090909,4,1,0,60,0,1
28963,-90.9090909090909,4,1,0,60,0,0
29124,-91.743119266055,4,1,0,60,0,0
29204,-92.5925925925926,4,1,0,60,0,0
29284,-93.4579439252336,4,1,0,60,0,0
29364,-94.3396226415094,4,1,0,60,0,0
29444,-95.2380952380952,4,1,0,60,0,0
34738,-90.9090909090909,4,1,0,60,0,1
39230,-90.9090909090909,4,1,0,60,0,0
39391,-91.743119266055,4,1,0,60,0,0
39471,-92.5925925925926,4,1,0,60,0,0
39551,-94.3396226415094,4,1,0,60,0,0
39632,-95.2380952380952,4,1,0,60,0,0
39712,-97.0873786407767,4,1,0,60,0,0
39792,-98.0392156862745,4,1,0,60,0,0
39872,-100,4,1,0,60,0,0
47091,-33.3333333333333,4,1,0,60,0,0
47573,-100,4,1,0,60,0,0
49498,-33.3333333333333,4,1,0,60,0,0
49819,-100,4,1,0,60,0,0
54952,-99.009900990099,4,1,0,60,0,1
55033,-98.0392156862745,4,1,0,60,0,1
55113,-97.0873786407767,4,1,0,60,0,1
55193,-96.1538461538461,4,1,0,60,0,1
55273,-95.2380952380952,4,1,0,60,0,1
57359,-33.3333333333333,4,1,0,60,0,1
57840,-95.2380952380952,4,1,0,60,0,1
64578,-96.1538461538461,4,1,0,60,0,1
64658,-97.0873786407767,4,1,0,60,0,1
64738,-98.0392156862745,4,1,0,60,0,1
64819,-99.009900990099,4,1,0,60,0,1
64899,-100,4,1,0,60,0,0
78054,-99.009900990099,4,1,0,60,0,1
78134,-98.0392156862745,4,1,0,60,0,1
78214,-97.0873786407767,4,1,0,60,0,1
78295,-96.1538461538461,4,1,0,60,0,1
78375,-95.2380952380952,4,1,0,60,0,1
86075,-95.2380952380952,4,1,0,60,0,0
88642,-90.9090909090909,4,1,0,60,0,0
88642,-90.9090909090909,4,1,0,60,0,1
93134,-90.9090909090909,4,1,0,60,0,0
93295,-92.5925925925926,4,1,0,60,0,0
93375,-94.3396226415094,4,1,0,60,0,0
93455,-96.1538461538461,4,1,0,60,0,0
93535,-98.0392156862745,4,1,0,60,0,0
93615,-100,4,1,0,60,0,0
98428,-97.0873786407767,4,1,0,60,0,0
98509,-95.2380952380952,4,1,0,60,0,0
98589,-94.3396226415094,4,1,0,60,0,0
98910,-90.9090909090909,4,1,0,60,0,1
103402,-90.9090909090909,4,1,0,60,0,0
103562,-91.743119266055,4,1,0,60,0,0
103642,-92.5925925925926,4,1,0,60,0,0
103722,-94.3396226415094,4,1,0,60,0,0
103803,-95.2380952380952,4,1,0,60,0,0
103883,-97.0873786407767,4,1,0,60,0,0
103963,-98.0392156862745,4,1,0,60,0,0
104043,-100,4,1,0,60,0,0
111263,-33.3333333333333,4,1,0,60,0,0
111744,-100,4,1,0,60,0,0
113669,-33.3333333333333,4,1,0,60,0,0
113990,-100,4,1,0,60,0,0
119124,-99.009900990099,4,1,0,60,0,1
119204,-98.0392156862745,4,1,0,60,0,1
119284,-97.0873786407767,4,1,0,60,0,1
119364,-96.1538461538461,4,1,0,60,0,1
119444,-95.2380952380952,4,1,0,60,0,1
121530,-33.3333333333333,4,1,0,60,0,1
122011,-95.2380952380952,4,1,0,60,0,1
129070,-95.2380952380952,4,1,0,60,0,0
132279,-33.3333333333333,4,1,0,60,0,0

[HitObjects]
256,192,1049,5,8,0:0:0:0:
256,192,1370,1,0,0:0:0:0:
256,192,1530,1,8,0:0:0:0:
256,192,1610,1,0,0:0:0:0:
256,192,1690,1,8,0:0:0:0:
256,192,1771,1,8,0:0:0:0:
256,192,1851,1,0,0:0:0:0:
256,192,2011,1,0,0:0:0:0:
256,192,2172,1,0,0:0:0:0:
256,192,2252,1,0,0:0:0:0:
256,192,2332,1,8,0:0:0:0:
256,192,2492,1,8,0:0:0:0:
256,192,2653,1,0,0:0:0:0:
256,192,2813,1,8,0:0:0:0:
256,192,2894,1,0,0:0:0:0:
256,192,2974,1,8,0:0:0:0:
256,192,3054,1,0,0:0:0:0:
256,192,3134,1,0,0:0:0:0:
256,192,3214,1,0,0:0:0:0:
256,192,3295,1,8,0:0:0:0:
256,192,3615,1,0,0:0:0:0:
256,192,3936,1,0,0:0:0:0:
256,192,4097,1,8,0:0:0:0:
256,192,4257,1,0,0:0:0:0:
256,192,4418,1,8,0:0:0:0:
256,192,4498,1,0,0:0:0:0:
256,192,4578,1,0,0:0:0:0:
256,192,4738,1,8,0:0:0:0:
256,192,4899,1,0,0:0:0:0:
256,192,5059,1,8,0:0:0:0:
256,192,5220,1,8,0:0:0:0:
256,192,5300,1,8,0:0:0:0:
256,192,5380,1,0,0:0:0:0:
256,192,5541,1,8,0:0:0:0:
256,192,5621,1,8,0:0:0:0:
256,192,5701,1,0,0:0:0:0:
256,192,5861,1,0,0:0:0:0:
256,192,6022,1,0,0:0:0:0:
256,192,6102,1,0,0:0:0:0:
256,192,6182,1,8,0:0:0:0:
256,192,6343,1,0,0:0:0:0:
256,192,6503,1,8,0:0:0:0:
256,192,6583,1,8,0:0:0:0:
256,192,6664,1,0,0:0:0:0:
256,192,6744,1,0,0:0:0:0:
256,192,6824,1,8,0:0:0:0:
256,192,6984,1,0,0:0:0:0:
256,192,7065,1,0,0:0:0:0:
256,192,7145,1,8,0:0:0:0:
256,192,7225,1,8,0:0:0:0:
256,192,7305,1,0,0:0:0:0:
256,192,7386,1,8,0:0:0:0:
256,192,7466,1,0,0:0:0:0:
256,192,7626,1,8,0:0:0:0:
256,192,7706,1,8,0:0:0:0:
256,192,7787,1,0,0:0:0:0:
256,192,7947,1,0,0:0:0:0:
256,192,8107,1,8,0:0:0:0:
256,192,8268,1,0,0:0:0:0:
256,192,8428,1,8,0:0:0:0:
256,192,8509,1,8,0:0:0:0:
256,192,8589,1,0,0:0:0:0:
256,192,8669,1,0,0:0:0:0:
256,192,8749,1,8,0:0:0:0:
256,192,8829,1,8,0:0:0:0:
256,192,8910,1,8,0:0:0:0:
256,192,8990,1,0,0:0:0:0:
256,192,9070,1,8,0:0:0:0:
256,192,9391,1,0,0:0:0:0:
256,192,9471,1,0,0:0:0:0:
256,192,9551,1,8,0:0:0:0:
256,192,9712,1,8,0:0:0:0:
256,192,9872,1,0,0:0:0:0:
256,192,10033,1,8,0:0:0:0:
256,192,10193,1,0,0:0:0:0:
256,192,10273,1,0,0:0:0:0:
256,192,10353,1,8,0:0:0:0:
256,192,10434,1,8,0:0:0:0:
256,192,10514,1,0,0:0:0:0:
256,192,10674,1,8,0:0:0:0:
256,192,10755,1,8,0:0:0:0:
256,192,10835,1,0,0:0:0:0:
256,192,10995,1,8,0:0:0:0:
256,192,11156,1,0,0:0:0:0:
256,192,11316,1,8,0:0:0:0:
256,192,11396,1,8,0:0:0:0:
256,192,11476,1,0,0:0:0:0:
256,192,11557,1,0,0:0:0:0:
256,192,11637,1,8,0:0:0:0:
256,192,11717,1,0,0:0:0:0:
256,192,11797,1,8,0:0:0:0:
256,192,11878,1,8,0:0:0:0:
256,192,11958,1,8,0:0:0:0:
256,192,12038,1,0,0:0:0:0:
256,192,12118,1,0,0:0:0:0:
256,192,12198,1,0,0:0:0:0:
256,192,12279,1,8,0:0:0:0:
256,192,12359,1,8,0:0:0:0:
256,192,12439,1,0,0:0:0:0:
256,192,12519,1,0,0:0:0:0:
256,192,12599,1,8,0:0:0:0:
256,192,12680,1,8,0:0:0:0:
256,192,12760,1,8,0:0:0:0:
256,192,12840,1,0,0:0:0:0:
256,192,12920,1,8,0:0:0:0:
256,160,13241,1,0,0:0:0:0:
256,160,13562,1,0,0:0:0:0:
256,160,13722,1,0,0:0:0:0:
256,160,13883,1,8,0:0:0:0:
256,160,13963,1,8,0:0:0:0:
256,160,14043,1,8,0:0:0:0:
256,160,14124,1,8,0:0:0:0:
256,160,14204,1,0,0:0:0:0:
256,160,14364,1,0,0:0:0:0:
256,160,14525,1,8,0:0:0:0:
256,160,14605,1,8,0:0:0:0:
256,160,14685,1,0,0:0:0:0:
256,160,14845,1,8,0:0:0:0:
256,160,15006,1,0,0:0:0:0:
256,160,15086,1,0,0:0:0:0:
256,160,15166,1,8,0:0:0:0:
256,160,15327,1,0,0:0:0:0:
256,160,15487,1,8,0:0:0:0:
256,160,15567,1,8,0:0:0:0:
256,160,15648,1,0,0:0:0:0:
256,160,15808,1,8,0:0:0:0:
256,160,15888,1,8,0:0:0:0:
256,160,15968,1,0,0:0:0:0:
256,160,16129,1,0,0:0:0:0:
256,160,16289,1,0,0:0:0:0:
256,160,16370,1,0,0:0:0:0:
256,160,16450,1,8,0:0:0:0:
256,160,16610,1,0,0:0:0:0:
256,160,16771,1,8,0:0:0:0:
256,160,16851,1,8,0:0:0:0:
256,160,16931,1,0,0:0:0:0:
256,160,17011,1,0,0:0:0:0:
256,160,17091,1,8,0:0:0:0:
256,160,17172,1,0,0:0:0:0:
256,160,17252,1,0,0:0:0:0:
256,160,17332,1,0,0:0:0:0:
256,160,17412,1,8,0:0:0:0:
256,160,17492,1,8,0:0:0:0:
256,160,17573,1,8,0:0:0:0:
256,160,17653,1,0,0:0:0:0:
256,160,17733,1,8,0:0:0:0:
256,160,17813,1,0,0:0:0:0:
256,160,17894,1,0,0:0:0:0:
256,160,17974,1,0,0:0:0:0:
256,160,18054,1,8,0:0:0:0:
256,160,18134,1,8,0:0:0:0:
256,160,18214,1,0,0:0:0:0:
256,160,18295,1,0,0:0:0:0:
256,160,18375,1,8,0:0:0:0:
256,160,18455,1,8,0:0:0:0:
256,160,18535,1,0,0:0:0:0:
256,160,18615,1,0,0:0:0:0:
256,160,18696,1,8,0:0:0:0:
256,160,18776,1,0,0:0:0:0:
256,160,18856,1,8,0:0:0:0:
256,160,18936,1,0,0:0:0:0:
256,160,19017,1,8,0:0:0:0:
256,160,19097,1,8,0:0:0:0:
256,160,19177,1,0,0:0:0:0:
256,160,19257,1,0,0:0:0:0:
256,160,19337,1,8,0:0:0:0:
256,160,19498,1,0,0:0:0:0:
256,160,19658,1,0,0:0:0:0:
256,160,19738,1,8,0:0:0:0:
256,160,19819,1,0,0:0:0:0:
256,160,19899,1,0,0:0:0:0:
256,160,19979,1,8,0:0:0:0:
256,160,20140,1,0,0:0:0:0:
256,160,20300,1,0,0:0:0:0:
256,160,20380,1,0,0:0:0:0:
256,160,20460,1,8,0:0:0:0:
256,160,20621,1,8,0:0:0:0:
256,160,20781,1,0,0:0:0:0:
256,160,20861,1,8,0:0:0:0:
256,160,20942,1,0,0:0:0:0:
256,160,21022,1,0,0:0:0:0:
256,160,21102,1,8,0:0:0:0:
256,160,21263,1,8,0:0:0:0:
256,160,21423,1,0,0:0:0:0:
256,160,21503,1,0,0:0:0:0:
256,160,21583,1,8,0:0:0:0:
256,160,21744,1,0,0:0:0:0:
256,192,21904,1,12,0:0:0:0:
256,192,22225,1,4,0:0:0:0:
256,192,22546,1,12,0:0:0:0:
256,192,22867,1,4,0:0:0:0:
256,192,23188,1,4,0:0:0:0:
256,192,23509,1,12,0:0:0:0:
256,192,23669,1,12,0:0:0:0:
256,192,23990,1,12,0:0:0:0:
256,192,24150,1,12,0:0:0:0:
256,192,24471,1,0,0:0:0:0:
256,192,24551,1,0,0:0:0:0:
256,192,24632,1,8,0:0:0:0:
256,192,24712,1,8,0:0:0:0:
256,192,24792,1,0,0:0:0:0:
256,192,24872,1,0,0:0:0:0:
256,192,24952,1,8,0:0:0:0:
256,192,25033,1,0,0:0:0:0:
256,192,25113,1,8,0:0:0:0:
256,192,25193,1,8,0:0:0:0:
256,192,25273,1,0,0:0:0:0:
256,192,25353,1,0,0:0:0:0:
256,192,25434,1,8,0:0:0:0:
256,192,25514,1,0,0:0:0:0:
256,192,25594,1,8,0:0:0:0:
256,192,25674,1,0,0:0:0:0:
256,192,25755,1,8,0:0:0:0:
256,192,25835,1,8,0:0:0:0:
256,192,25915,1,0,0:0:0:0:
256,192,25995,1,0,0:0:0:0:
256,192,26075,1,8,0:0:0:0:
256,192,26156,1,8,0:0:0:0:
256,192,26236,1,0,0:0:0:0:
256,192,26316,1,0,0:0:0:0:
256,192,26396,1,8,0:0:0:0:
256,192,26476,1,0,0:0:0:0:
256,192,26557,1,8,0:0:0:0:
256,192,26637,1,8,0:0:0:0:
256,192,26717,1,8,0:0:0:0:
256,192,26797,1,0,0:0:0:0:
256,192,26878,1,8,0:0:0:0:
256,192,26958,1,8,0:0:0:0:
256,192,27038,1,0,0:0:0:0:
256,192,27118,1,0,0:0:0:0:
256,192,27198,1,8,0:0:0:0:
256,192,27279,1,8,0:0:0:0:
256,192,27359,1,0,0:0:0:0:
256,192,27439,1,0,0:0:0:0:
256,192,27519,1,8,0:0:0:0:
256,192,27599,1,0,0:0:0:0:
256,192,27680,1,0,0:0:0:0:
256,192,27760,1,0,0:0:0:0:
256,192,27840,1,8,0:0:0:0:
256,192,27920,1,0,0:0:0:0:
256,192,28001,1,8,0:0:0:0:
256,192,28081,1,8,0:0:0:0:
256,192,28161,1,0,0:0:0:0:
256,192,28241,1,0,0:0:0:0:
256,192,28321,1,8,0:0:0:0:
256,192,28402,1,8,0:0:0:0:
256,192,28482,1,0,0:0:0:0:
256,192,28562,1,0,0:0:0:0:
256,192,28642,1,8,0:0:0:0:
256,192,28722,1,0,0:0:0:0:
256,192,28803,1,8,0:0:0:0:
256,192,28883,1,0,0:0:0:0:
256,192,28963,1,8,0:0:0:0:
256,192,29124,1,8,0:0:0:0:
256,192,29204,1,0,0:0:0:0:
256,192,29284,1,8,0:0:0:0:
256,192,29364,1,8,0:0:0:0:
256,192,29444,1,0,0:0:0:0:
256,192,29605,1,0,0:0:0:0:
256,192,29685,1,0,0:0:0:0:
256,192,29765,1,0,0:0:0:0:
256,192,29926,1,8,0:0:0:0:
256,192,30086,1,0,0:0:0:0:
256,192,30166,1,0,0:0:0:0:
256,192,30247,1,8,0:0:0:0:
256,192,30567,1,8,0:0:0:0:
256,192,30728,1,0,0:0:0:0:
256,192,30808,1,0,0:0:0:0:
256,192,30888,1,8,0:0:0:0:
256,160,31209,1,0,0:0:0:0:
256,160,31530,1,8,0:0:0:0:
256,160,31610,1,8,0:0:0:0:
256,160,31690,1,0,0:0:0:0:
256,160,31771,1,0,0:0:0:0:
256,160,31851,1,8,0:0:0:0:
256,192,32172,1,8,0:0:0:0:
256,192,32252,1,8,0:0:0:0:
256,192,32332,1,0,0:0:0:0:
256,192,32492,1,0,0:0:0:0:
256,192,32653,1,8,0:0:0:0:
256,192,32733,1,8,0:0:0:0:
256,192,32813,1,0,0:0:0:0:
256,192,32974,1,0,0:0:0:0:
256,192,33134,1,8,0:0:0:0:
256,192,33295,1,0,0:0:0:0:
256,192,33375,1,0,0:0:0:0:
256,192,33455,1,8,0:0:0:0:
256,192,33776,1,0,0:0:0:0:
256,192,34097,1,8,0:0:0:0:
256,192,34257,1,8,0:0:0:0:
256,192,34337,1,8,0:0:0:0:
256,192,34418,1,0,0:0:0:0:
256,192,34578,1,0,0:0:0:0:
256,192,34738,1,8,0:0:0:0:
256,192,34819,1,8,0:0:0:0:
256,192,34899,1,0,0:0:0:0:
256,192,34979,1,0,0:0:0:0:
256,192,35059,1,8,0:0:0:0:
256,192,35140,1,0,0:0:0:0:
256,192,35220,1,8,0:0:0:0:
256,192,35300,1,8,0:0:0:0:
256,192,35380,1,0,0:0:0:0:
256,192,35460,1,8,0:0:0:0:
256,192,35541,1,0,0:0:0:0:
256,192,35621,1,0,0:0:0:0:
256,192,35701,1,8,0:0:0:0:
256,192,35781,1,0,0:0:0:0:
256,192,35861,1,0,0:0:0:0:
256,192,35942,1,0,0:0:0:0:
256,192,36022,1,8,0:0:0:0:
256,192,36102,1,8,0:0:0:0:
256,192,36182,1,0,0:0:0:0:
256,192,36263,1,0,0:0:0:0:
256,192,36343,1,8,0:0:0:0:
256,192,36423,1,0,0:0:0:0:
256,192,36503,1,8,0:0:0:0:
256,192,36583,1,8,0:0:0:0:
256,192,36664,1,0,0:0:0:0:
256,192,36744,1,0,0:0:0:0:
256,192,36824,1,8,0:0:0:0:
256,192,36904,1,0,0:0:0:0:
256,192,36984,1,0,0:0:0:0:
256,192,37065,1,0,0:0:0:0:
256,192,37145,1,8,0:0:0:0:
256,192,37225,1,0,0:0:0:0:
256,192,37305,1,8,0:0:0:0:
256,192,37386,1,0,0:0:0:0:
256,192,37466,1,8,0:0:0:0:
256,192,37546,1,8,0:0:0:0:
256,192,37626,1,0,0:0:0:0:
256,192,37706,1,0,0:0:0:0:
256,192,37787,1,8,0:0:0:0:
256,192,37867,1,8,0:0:0:0:
256,192,37947,1,0,0:0:0:0:
256,192,38027,1,8,0:0:0:0:
256,192,38107,1,0,0:0:0:0:
256,192,38188,1,0,0:0:0:0:
256,192,38268,1,8,0:0:0:0:
256,192,38348,1,0,0:0:0:0:
256,192,38428,1,0,0:0:0:0:
256,192,38509,1,0,0:0:0:0:
256,192,38589,1,8,0:0:0:0:
256,192,38669,1,8,0:0:0:0:
256,192,38749,1,0,0:0:0:0:
256,192,38829,1,0,0:0:0:0:
256,192,38910,1,8,0:0:0:0:
256,192,38990,1,8,0:0:0:0:
256,192,39070,1,8,0:0:0:0:
256,192,39150,1,0,0:0:0:0:
256,192,39230,1,8,0:0:0:0:
256,192,39391,1,8,0:0:0:0:
256,192,39471,1,0,0:0:0:0:
256,192,39551,1,8,0:0:0:0:
256,192,39632,1,8,0:0:0:0:
256,192,39712,1,0,0:0:0:0:
256,192,39792,1,0,0:0:0:0:
256,192,39872,1,8,0:0:0:0:
256,192,40033,1,8,0:0:0:0:
256,192,40113,1,0,0:0:0:0:
256,192,40193,1,8,0:0:0:0:
256,192,40353,1,0,0:0:0:0:
256,192,40434,1,0,0:0:0:0:
256,192,40514,1,8,0:0:0:0:
256,192,40674,1,0,0:0:0:0:
256,192,40835,1,8,0:0:0:0:
256,192,40915,1,8,0:0:0:0:
251,193,40995,1,0,0:0:0:0:
251,193,41075,1,0,0:0:0:0:
251,193,41156,1,8,0:0:0:0:
256,192,41476,1,0,0:0:0:0:
251,205,41797,1,8,0:0:0:0:
256,200,42118,1,0,0:0:0:0:
256,201,42439,1,0,0:0:0:0:
251,214,42519,1,0,0:0:0:0:
254,208,42599,1,8,0:0:0:0:
249,211,42760,1,0,0:0:0:0:
249,211,42920,1,8,0:0:0:0:
256,218,43001,1,0,0:0:0:0:
257,215,43081,1,8,0:0:0:0:
257,215,43161,1,8,0:0:0:0:
256,201,43241,1,0,0:0:0:0:
256,201,43402,1,8,0:0:0:0:
241,203,43562,1,0,0:0:0:0:
241,202,43642,1,0,0:0:0:0:
241,202,43722,1,8,0:0:0:0:
256,201,43883,1,0,0:0:0:0:
256,201,44043,1,0,0:0:0:0:
256,201,44204,1,8,0:0:0:0:
256,201,44284,1,0,0:0:0:0:
251,199,44364,1,0,0:0:0:0:
251,199,44444,1,8,0:0:0:0:
251,199,44525,1,8,0:0:0:0:
251,199,44605,1,0,0:0:0:0:
251,199,44685,1,8,0:0:0:0:
251,194,45006,1,8,0:0:0:0:
251,194,45086,1,8,0:0:0:0:
251,194,45166,1,0,0:0:0:0:
261,199,45327,1,0,0:0:0:0:
261,199,45487,1,0,0:0:0:0:
261,199,45567,1,0,0:0:0:0:
261,199,45648,1,8,0:0:0:0:
259,199,45808,1,0,0:0:0:0:
259,199,45968,1,8,0:0:0:0:
259,199,46049,1,0,0:0:0:0:
259,199,46129,1,8,0:0:0:0:
254,196,46289,1,0,0:0:0:0:
253,196,46450,1,8,0:0:0:0:
252,196,46530,1,0,0:0:0:0:
252,196,46610,1,8,0:0:0:0:
249,193,46690,1,8,0:0:0:0:
249,193,46771,1,0,0:0:0:0:
250,188,46931,1,0,0:0:0:0:
256,193,47091,1,12,0:0:0:0:
254,196,47252,1,12,0:0:0:0:
253,196,47412,1,12,0:0:0:0:
261,203,47573,1,0,0:0:0:0:
260,198,47733,1,0,0:0:0:0:
260,198,47813,1,0,0:0:0:0:
260,198,47894,1,8,0:0:0:0:
261,193,48054,1,0,0:0:0:0:
261,193,48214,1,8,0:0:0:0:
264,193,48375,1,0,0:0:0:0:
264,193,48535,1,8,0:0:0:0:
264,193,48615,1,8,0:0:0:0:
264,193,48696,1,0,0:0:0:0:
265,194,48856,1,0,0:0:0:0:
261,193,49017,1,0,0:0:0:0:
261,193,49097,1,0,0:0:0:0:
261,193,49177,1,8,0:0:0:0:
264,193,49337,5,0,0:0:0:0:
261,182,49498,1,12,0:0:0:0:
264,193,49658,1,12,0:0:0:0:
256,192,49819,1,8,0:0:0:0:
256,192,49899,1,0,0:0:0:0:
256,192,49979,1,8,0:0:0:0:
256,192,50059,1,8,0:0:0:0:
256,192,50140,1,0,0:0:0:0:
256,192,50300,1,8,0:0:0:0:
256,192,50380,1,0,0:0:0:0:
256,192,50460,1,8,0:0:0:0:
256,192,50621,1,0,0:0:0:0:
256,192,50781,1,8,0:0:0:0:
256,192,50942,1,8,0:0:0:0:
256,192,51022,1,8,0:0:0:0:
256,192,51102,1,0,0:0:0:0:
256,192,51263,1,8,0:0:0:0:
256,192,51423,1,8,0:0:0:0:
256,192,51503,1,0,0:0:0:0:
256,192,51583,1,0,0:0:0:0:
256,192,51744,1,0,0:0:0:0:
256,192,51824,1,0,0:0:0:0:
256,192,51904,1,8,0:0:0:0:
256,192,51984,1,0,0:0:0:0:
256,192,52065,1,8,0:0:0:0:
256,192,52225,1,0,0:0:0:0:
256,192,52386,1,8,0:0:0:0:
256,192,52466,1,0,0:0:0:0:
256,192,52546,1,8,0:0:0:0:
256,192,52706,1,8,0:0:0:0:
256,192,52787,1,0,0:0:0:0:
256,192,52867,1,8,0:0:0:0:
256,192,52947,1,8,0:0:0:0:
256,192,53027,1,0,0:0:0:0:
256,192,53188,1,0,0:0:0:0:
256,192,53348,1,8,0:0:0:0:
256,192,53428,1,8,0:0:0:0:
256,192,53509,1,0,0:0:0:0:
256,192,53589,1,0,0:0:0:0:
256,192,53669,1,8,0:0:0:0:
256,192,53829,1,0,0:0:0:0:
256,192,53910,1,0,0:0:0:0:
256,192,53990,1,8,0:0:0:0:
256,192,54150,1,0,0:0:0:0:
256,192,54311,1,0,0:0:0:0:
256,192,54471,1,8,0:0:0:0:
256,192,54632,1,0,0:0:0:0:
256,192,54952,1,8,0:0:0:0:
256,192,55033,1,8,0:0:0:0:
256,192,55113,1,8,0:0:0:0:
256,192,55193,1,8,0:0:0:0:
256,192,55273,1,0,0:0:0:0:
256,192,55434,1,0,0:0:0:0:
256,192,55514,1,0,0:0:0:0:
256,192,55594,1,8,0:0:0:0:
256,192,55674,1,0,0:0:0:0:
256,192,55755,1,8,0:0:0:0:
256,192,55835,1,8,0:0:0:0:
256,192,55915,1,0,0:0:0:0:
260,198,56075,1,0,0:0:0:0:
260,198,56236,1,8,0:0:0:0:
260,198,56316,1,8,0:0:0:0:
260,198,56396,1,0,0:0:0:0:
259,198,56557,1,0,0:0:0:0:
259,198,56637,1,0,0:0:0:0:
259,198,56717,1,8,0:0:0:0:
259,198,56797,1,8,0:0:0:0:
259,198,56878,1,0,0:0:0:0:
260,198,57038,1,8,0:0:0:0:
260,198,57198,1,0,0:0:0:0:
260,198,57359,1,12,0:0:0:0:
257,190,57519,1,12,0:0:0:0:
257,190,57680,1,12,0:0:0:0:
252,192,57840,1,0,0:0:0:0:
246,190,58001,1,0,0:0:0:0:
246,190,58081,1,8,0:0:0:0:
246,190,58161,1,0,0:0:0:0:
246,190,58241,1,0,0:0:0:0:
246,190,58321,1,8,0:0:0:0:
252,193,58482,1,8,0:0:0:0:
252,193,58642,1,8,0:0:0:0:
252,192,58722,1,8,0:0:0:0:
252,192,58803,1,0,0:0:0:0:
252,193,58883,1,0,0:0:0:0:
252,193,58963,1,8,0:0:0:0:
253,193,59124,1,0,0:0:0:0:
253,192,59284,1,8,0:0:0:0:
252,193,59364,1,8,0:0:0:0:
252,193,59444,1,0,0:0:0:0:
252,193,59525,1,8,0:0:0:0:
252,193,59605,1,0,0:0:0:0:
252,192,59685,1,0,0:0:0:0:
252,192,59765,1,8,0:0:0:0:
252,193,59926,1,0,0:0:0:0:
253,193,60086,1,8,0:0:0:0:
253,192,60166,1,0,0:0:0:0:
253,192,60247,1,8,0:0:0:0:
252,193,60327,1,8,0:0:0:0:
252,193,60407,1,0,0:0:0:0:
245,202,60567,1,0,0:0:0:0:
252,192,60648,1,0,0:0:0:0:
252,192,60728,1,8,0:0:0:0:
252,193,60888,1,0,0:0:0:0:
253,193,61049,1,8,0:0:0:0:
253,192,61209,1,0,0:0:0:0:
252,193,61370,1,8,0:0:0:0:
252,193,61450,1,8,0:0:0:0:
254,194,61530,1,0,0:0:0:0:
252,192,61610,1,0,0:0:0:0:
252,192,61690,1,8,0:0:0:0:
252,193,61851,1,0,0:0:0:0:
253,193,62011,1,8,0:0:0:0:
253,192,62172,1,8,0:0:0:0:
252,193,62332,1,0,0:0:0:0:
252,193,62412,1,0,0:0:0:0:
254,194,62492,1,8,0:0:0:0:
252,192,62573,1,0,0:0:0:0:
252,192,62653,1,8,0:0:0:0:
252,193,62733,1,8,0:0:0:0:
252,193,62813,1,0,0:0:0:0:
253,193,62894,1,0,0:0:0:0:
253,193,62974,1,8,0:0:0:0:
253,192,63134,1,0,0:0:0:0:
252,193,63295,1,0,0:0:0:0:
254,194,63455,1,8,0:0:0:0:
252,192,63615,1,0,0:0:0:0:
252,193,63776,1,0,0:0:0:0:
253,193,63936,1,8,0:0:0:0:
253,192,64097,1,0,0:0:0:0:
252,193,64257,1,8,0:0:0:0:
254,194,64418,1,0,0:0:0:0:
252,192,64578,1,8,0:0:0:0:
252,193,64658,1,0,0:0:0:0:
252,193,64738,1,0,0:0:0:0:
253,193,64819,1,0,0:0:0:0:
253,193,64899,1,8,0:0:0:0:
252,193,65220,1,0,0:0:0:0:
256,192,65541,1,0,0:0:0:0:
256,192,65701,1,8,0:0:0:0:
256,192,65781,1,8,0:0:0:0:
256,192,65861,1,0,0:0:0:0:
256,192,65942,1,0,0:0:0:0:
256,192,66022,1,8,0:0:0:0:
256,192,66182,1,0,0:0:0:0:
256,192,66343,1,8,0:0:0:0:
256,192,66423,1,8,0:0:0:0:
256,192,66503,1,0,0:0:0:0:
256,192,66663,1,8,0:0:0:0:
256,192,66824,1,0,0:0:0:0:
256,192,66984,1,8,0:0:0:0:
256,192,67065,1,0,0:0:0:0:
256,192,67145,1,8,0:0:0:0:
256,192,67225,1,0,0:0:0:0:
256,192,67305,1,0,0:0:0:0:
256,192,67385,1,0,0:0:0:0:
256,192,67466,1,8,0:0:0:0:
256,192,67787,1,0,0:0:0:0:
256,192,68108,1,8,0:0:0:0:
256,192,68188,1,8,0:0:0:0:
256,192,68269,1,0,0:0:0:0:
256,192,68429,1,0,0:0:0:0:
256,192,68589,1,0,0:0:0:0:
256,192,68670,1,0,0:0:0:0:
256,192,68750,1,8,0:0:0:0:
256,192,68910,1,0,0:0:0:0:
256,192,69071,1,8,0:0:0:0:
256,192,69230,1,0,0:0:0:0:
256,192,69392,1,8,0:0:0:0:
256,192,69472,1,8,0:0:0:0:
256,192,69552,1,0,0:0:0:0:
256,192,69713,1,8,0:0:0:0:
256,192,69793,1,8,0:0:0:0:
256,192,69873,1,0,0:0:0:0:
256,192,70033,1,0,0:0:0:0:
256,192,70194,1,0,0:0:0:0:
256,192,70274,1,0,0:0:0:0:
256,192,70354,1,8,0:0:0:0:
256,192,70515,1,0,0:0:0:0:
256,192,70675,1,8,0:0:0:0:
256,192,70755,1,8,0:0:0:0:
256,192,70836,1,0,0:0:0:0:
256,192,70916,1,0,0:0:0:0:
256,192,70996,1,8,0:0:0:0:
256,192,71156,1,8,0:0:0:0:
256,192,71237,1,0,0:0:0:0:
256,192,71317,1,8,0:0:0:0:
256,192,71397,1,8,0:0:0:0:
256,192,71477,1,0,0:0:0:0:
256,192,71557,1,0,0:0:0:0:
256,192,71638,1,8,0:0:0:0:
256,192,71798,1,8,0:0:0:0:
256,192,71878,1,8,0:0:0:0:
256,192,71959,1,0,0:0:0:0:
256,192,72119,1,0,0:0:0:0:
256,192,72279,1,8,0:0:0:0:
256,192,72440,1,0,0:0:0:0:
256,192,72600,1,0,0:0:0:0:
256,192,72680,1,0,0:0:0:0:
256,192,72761,1,8,0:0:0:0:
256,192,72841,1,0,0:0:0:0:
256,192,72921,1,8,0:0:0:0:
256,192,73001,1,8,0:0:0:0:
256,192,73082,1,0,0:0:0:0:
256,192,73162,1,0,0:0:0:0:
256,192,73242,1,8,0:0:0:0:
256,192,73563,1,0,0:0:0:0:
256,192,73723,1,0,0:0:0:0:
256,192,73803,1,0,0:0:0:0:
256,192,73884,1,8,0:0:0:0:
256,192,74044,1,0,0:0:0:0:
256,192,74205,1,8,0:0:0:0:
256,192,74365,1,8,0:0:0:0:
256,192,74445,1,0,0:0:0:0:
256,192,74525,1,8,0:0:0:0:
256,192,74606,1,8,0:0:0:0:
256,192,74686,1,0,0:0:0:0:
256,192,74846,1,8,0:0:0:0:
256,192,74927,1,8,0:0:0:0:
256,192,75007,1,0,0:0:0:0:
256,192,75167,1,8,0:0:0:0:
256,192,75328,1,0,0:0:0:0:
256,192,75488,1,8,0:0:0:0:
256,192,75568,1,8,0:0:0:0:
256,192,75648,1,0,0:0:0:0:
256,192,75729,1,0,0:0:0:0:
256,192,75809,1,8,0:0:0:0:
256,192,75889,1,0,0:0:0:0:
256,192,75969,1,8,0:0:0:0:
256,192,76050,1,8,0:0:0:0:
256,192,76130,1,8,0:0:0:0:
256,192,76210,1,0,0:0:0:0:
256,192,76290,1,0,0:0:0:0:
256,192,76370,1,0,0:0:0:0:
256,192,76451,1,8,0:0:0:0:
256,192,76531,1,8,0:0:0:0:
256,192,76611,1,0,0:0:0:0:
256,192,76691,1,0,0:0:0:0:
256,192,76771,1,8,0:0:0:0:
256,192,76852,1,8,0:0:0:0:
256,192,76932,1,8,0:0:0:0:
256,192,77012,1,0,0:0:0:0:
256,192,77092,1,8,0:0:0:0:
256,160,77413,1,0,0:0:0:0:
256,160,77734,1,0,0:0:0:0:
256,160,77894,1,0,0:0:0:0:
256,160,78055,1,8,0:0:0:0:
256,160,78135,1,8,0:0:0:0:
256,160,78215,1,8,0:0:0:0:
256,160,78296,1,8,0:0:0:0:
256,160,78376,1,0,0:0:0:0:
256,160,78536,1,0,0:0:0:0:
256,160,78697,1,8,0:0:0:0:
256,160,78777,1,8,0:0:0:0:
256,160,78857,1,0,0:0:0:0:
256,160,79017,1,8,0:0:0:0:
256,160,79178,1,0,0:0:0:0:
256,160,79258,1,0,0:0:0:0:
256,160,79338,1,8,0:0:0:0:
256,160,79499,1,0,0:0:0:0:
256,160,79659,1,8,0:0:0:0:
256,160,79739,1,8,0:0:0:0:
256,160,79820,1,0,0:0:0:0:
256,160,79980,1,8,0:0:0:0:
256,160,80060,1,8,0:0:0:0:
256,160,80140,1,0,0:0:0:0:
256,160,80301,1,0,0:0:0:0:
256,160,80461,1,0,0:0:0:0:
256,160,80542,1,0,0:0:0:0:
256,160,80622,1,8,0:0:0:0:
256,160,80782,1,0,0:0:0:0:
256,160,80943,1,8,0:0:0:0:
256,160,81023,1,8,0:0:0:0:
256,160,81103,1,0,0:0:0:0:
256,160,81183,1,0,0:0:0:0:
256,160,81263,1,8,0:0:0:0:
256,160,81344,1,0,0:0:0:0:
256,160,81424,1,0,0:0:0:0:
256,160,81504,1,0,0:0:0:0:
256,160,81584,1,8,0:0:0:0:
256,160,81664,1,8,0:0:0:0:
256,160,81745,1,8,0:0:0:0:
256,160,81825,1,0,0:0:0:0:
256,160,81905,1,8,0:0:0:0:
256,160,81985,1,0,0:0:0:0:
256,160,82066,1,0,0:0:0:0:
256,160,82146,1,0,0:0:0:0:
256,160,82226,1,8,0:0:0:0:
256,160,82306,1,8,0:0:0:0:
256,160,82386,1,0,0:0:0:0:
256,160,82467,1,0,0:0:0:0:
256,160,82547,1,8,0:0:0:0:
256,160,82627,1,8,0:0:0:0:
256,160,82707,1,0,0:0:0:0:
256,160,82787,1,0,0:0:0:0:
256,160,82868,1,8,0:0:0:0:
256,160,82948,1,0,0:0:0:0:
256,160,83028,1,8,0:0:0:0:
256,160,83108,1,0,0:0:0:0:
256,160,83189,1,8,0:0:0:0:
256,160,83269,1,8,0:0:0:0:
256,160,83349,1,0,0:0:0:0:
256,160,83429,1,0,0:0:0:0:
256,160,83509,1,8,0:0:0:0:
256,160,83669,1,0,0:0:0:0:
256,160,83829,1,8,0:0:0:0:
256,160,83909,1,8,0:0:0:0:
256,160,83990,1,0,0:0:0:0:
256,160,84070,1,0,0:0:0:0:
256,160,84150,1,8,0:0:0:0:
256,160,84311,1,0,0:0:0:0:
256,160,84471,1,0,0:0:0:0:
256,160,84551,1,0,0:0:0:0:
256,160,84631,1,8,0:0:0:0:
256,160,84792,1,8,0:0:0:0:
256,160,84952,1,0,0:0:0:0:
256,160,85032,1,8,0:0:0:0:
256,160,85113,1,0,0:0:0:0:
256,160,85193,1,0,0:0:0:0:
256,160,85273,1,8,0:0:0:0:
256,160,85434,1,8,0:0:0:0:
256,160,85594,1,0,0:0:0:0:
256,160,85674,1,0,0:0:0:0:
256,160,85754,1,8,0:0:0:0:
256,160,85915,1,0,0:0:0:0:
256,192,86075,1,12,0:0:0:0:
256,192,86396,1,4,0:0:0:0:
256,192,86717,1,12,0:0:0:0:
256,192,87038,1,4,0:0:0:0:
256,192,87359,1,4,0:0:0:0:
256,192,87680,1,12,0:0:0:0:
256,192,87840,1,12,0:0:0:0:
256,192,88161,1,12,0:0:0:0:
256,192,88321,1,12,0:0:0:0:
256,192,88642,1,8,0:0:0:0:
256,192,88722,1,8,0:0:0:0:
256,192,88803,1,8,0:0:0:0:
256,192,88883,1,8,0:0:0:0:
256,192,88963,1,0,0:0:0:0:
256,192,89043,1,0,0:0:0:0:
256,192,89123,1,8,0:0:0:0:
256,192,89204,1,8,0:0:0:0:
256,192,89284,1,0,0:0:0:0:
256,192,89364,1,0,0:0:0:0:
256,192,89444,1,8,0:0:0:0:
256,192,89524,1,0,0:0:0:0:
256,192,89605,1,8,0:0:0:0:
256,192,89685,1,8,0:0:0:0:
256,192,89765,1,0,0:0:0:0:
256,192,89845,1,0,0:0:0:0:
256,192,89926,1,8,0:0:0:0:
256,192,90006,1,0,0:0:0:0:
256,192,90086,1,8,0:0:0:0:
256,192,90166,1,8,0:0:0:0:
256,192,90246,1,0,0:0:0:0:
256,192,90327,1,8,0:0:0:0:
256,192,90407,1,8,0:0:0:0:
256,192,90487,1,0,0:0:0:0:
256,192,90567,1,8,0:0:0:0:
256,192,90647,1,8,0:0:0:0:
256,192,90728,1,0,0:0:0:0:
256,192,90808,1,0,0:0:0:0:
256,192,90888,1,8,0:0:0:0:
256,192,90968,1,0,0:0:0:0:
256,192,91049,1,8,0:0:0:0:
256,192,91129,1,0,0:0:0:0:
256,192,91209,1,0,0:0:0:0:
256,192,91289,1,8,0:0:0:0:
256,192,91369,1,0,0:0:0:0:
256,192,91450,1,0,0:0:0:0:
256,192,91530,1,8,0:0:0:0:
256,192,91610,1,0,0:0:0:0:
256,192,91690,1,0,0:0:0:0:
256,192,91770,1,8,0:0:0:0:
256,192,91851,1,0,0:0:0:0:
256,192,91931,1,0,0:0:0:0:
256,192,92011,1,8,0:0:0:0:
256,192,92091,1,0,0:0:0:0:
256,192,92172,1,8,0:0:0:0:
256,192,92252,1,0,0:0:0:0:
256,192,92332,1,8,0:0:0:0:
256,192,92412,1,8,0:0:0:0:
256,192,92492,1,0,0:0:0:0:
256,192,92573,1,8,0:0:0:0:
256,192,92653,1,0,0:0:0:0:
256,192,92733,1,0,0:0:0:0:
256,192,92813,1,8,0:0:0:0:
256,192,92893,1,0,0:0:0:0:
256,192,92974,1,8,0:0:0:0:
256,192,93054,1,8,0:0:0:0:
256,192,93134,1,0,0:0:0:0:
256,192,93295,1,8,0:0:0:0:
256,192,93375,1,0,0:0:0:0:
256,192,93455,1,8,0:0:0:0:
256,192,93535,1,8,0:0:0:0:
256,192,93615,1,0,0:0:0:0:
256,192,93776,1,8,0:0:0:0:
256,192,93883,1,0,0:0:0:0:
256,192,93990,1,0,0:0:0:0:
256,192,94097,1,8,0:0:0:0:
256,192,94204,1,0,0:0:0:0:
256,192,94311,1,0,0:0:0:0:
256,192,94418,1,8,0:0:0:0:
256,192,94525,1,0,0:0:0:0:
256,192,94632,1,0,0:0:0:0:
256,192,94738,1,8,0:0:0:0:
256,192,94845,1,0,0:0:0:0:
256,192,94952,1,0,0:0:0:0:
256,192,95059,1,8,0:0:0:0:
256,192,95166,1,0,0:0:0:0:
256,192,95273,1,0,0:0:0:0:
256,192,95380,1,8,0:0:0:0:
256,192,95487,1,8,0:0:0:0:
256,192,95594,1,0,0:0:0:0:
256,192,95701,1,8,0:0:0:0:
256,192,95808,1,0,0:0:0:0:
256,192,95915,1,0,0:0:0:0:
256,192,96022,1,8,0:0:0:0:
256,192,96129,1,0,0:0:0:0:
256,192,96236,1,0,0:0:0:0:
256,192,96343,1,8,0:0:0:0:
256,192,96450,1,0,0:0:0:0:
256,192,96557,1,0,0:0:0:0:
256,192,96664,1,8,0:0:0:0:
256,192,96771,1,0,0:0:0:0:
256,192,96878,1,0,0:0:0:0:
256,192,96984,1,8,0:0:0:0:
256,192,97091,1,8,0:0:0:0:
256,192,97198,1,0,0:0:0:0:
256,192,97305,1,8,0:0:0:0:
256,192,97412,1,0,0:0:0:0:
256,192,97519,1,0,0:0:0:0:
256,192,97626,1,8,0:0:0:0:
256,192,97733,1,0,0:0:0:0:
256,192,97840,1,0,0:0:0:0:
256,192,97947,1,8,0:0:0:0:
256,192,98054,1,0,0:0:0:0:
256,192,98161,1,0,0:0:0:0:
256,192,98268,1,8,0:0:0:0:
256,192,98428,1,0,0:0:0:0:
256,192,98509,1,0,0:0:0:0:
256,192,98589,1,8,0:0:0:0:
256,192,98749,1,0,0:0:0:0:
256,192,98910,1,8,0:0:0:0:
256,192,98990,1,8,0:0:0:0:
256,192,99070,1,0,0:0:0:0:
256,192,99150,1,0,0:0:0:0:
256,192,99230,1,8,0:0:0:0:
256,192,99311,1,0,0:0:0:0:
256,192,99391,1,8,0:0:0:0:
256,192,99471,1,8,0:0:0:0:
256,192,99551,1,0,0:0:0:0:
256,192,99631,1,8,0:0:0:0:
256,192,99712,1,0,0:0:0:0:
256,192,99792,1,0,0:0:0:0:
256,192,99872,1,8,0:0:0:0:
256,192,99952,1,8,0:0:0:0:
256,192,100032,1,0,0:0:0:0:
256,192,100113,1,8,0:0:0:0:
256,192,100193,1,8,0:0:0:0:
256,192,100273,1,8,0:0:0:0:
256,192,100353,1,0,0:0:0:0:
256,192,100434,1,0,0:0:0:0:
256,192,100514,1,8,0:0:0:0:
256,192,100594,1,8,0:0:0:0:
256,192,100674,1,0,0:0:0:0:
256,192,100754,1,8,0:0:0:0:
256,192,100835,1,8,0:0:0:0:
256,192,100915,1,0,0:0:0:0:
256,192,100995,1,8,0:0:0:0:
256,192,101075,1,0,0:0:0:0:
256,192,101155,1,0,0:0:0:0:
256,192,101236,1,0,0:0:0:0:
256,192,101316,1,8,0:0:0:0:
256,192,101396,1,0,0:0:0:0:
256,192,101476,1,8,0:0:0:0:
256,192,101557,1,0,0:0:0:0:
256,192,101637,1,8,0:0:0:0:
256,192,101717,1,8,0:0:0:0:
256,192,101797,1,0,0:0:0:0:
256,192,101877,1,0,0:0:0:0:
256,192,101958,1,8,0:0:0:0:
256,192,102038,1,8,0:0:0:0:
256,192,102118,1,0,0:0:0:0:
256,192,102198,1,8,0:0:0:0:
256,192,102278,1,8,0:0:0:0:
256,192,102359,1,0,0:0:0:0:
256,192,102439,1,0,0:0:0:0:
256,192,102519,1,0,0:0:0:0:
256,192,102599,1,8,0:0:0:0:
256,192,102680,1,0,0:0:0:0:
256,192,102760,1,8,0:0:0:0:
256,192,102840,1,8,0:0:0:0:
256,192,102920,1,0,0:0:0:0:
256,192,103000,1,0,0:0:0:0:
256,192,103081,1,8,0:0:0:0:
256,192,103161,1,8,0:0:0:0:
256,192,103241,1,8,0:0:0:0:
256,192,103321,1,0,0:0:0:0:
256,192,103401,1,8,0:0:0:0:
256,192,103562,1,8,0:0:0:0:
256,192,103642,1,0,0:0:0:0:
256,192,103722,1,8,0:0:0:0:
256,192,103803,1,8,0:0:0:0:
256,192,103883,1,0,0:0:0:0:
256,192,103963,1,0,0:0:0:0:
256,192,104043,1,8,0:0:0:0:
256,192,104204,1,8,0:0:0:0:
256,192,104284,1,0,0:0:0:0:
256,192,104364,1,8,0:0:0:0:
256,192,104524,1,0,0:0:0:0:
256,192,104605,1,0,0:0:0:0:
256,192,104685,1,8,0:0:0:0:
256,192,104845,1,0,0:0:0:0:
256,192,105006,1,8,0:0:0:0:
256,192,105086,1,8,0:0:0:0:
251,193,105166,1,0,0:0:0:0:
251,193,105246,1,0,0:0:0:0:
251,193,105327,1,8,0:0:0:0:
256,192,105647,1,0,0:0:0:0:
251,205,105968,1,8,0:0:0:0:
256,200,106289,1,0,0:0:0:0:
256,201,106610,1,0,0:0:0:0:
251,214,106690,1,0,0:0:0:0:
254,208,106770,1,8,0:0:0:0:
249,211,106931,1,0,0:0:0:0:
249,211,107091,1,8,0:0:0:0:
256,218,107172,1,0,0:0:0:0:
257,215,107252,1,8,0:0:0:0:
257,215,107332,1,8,0:0:0:0:
256,201,107412,1,0,0:0:0:0:
256,201,107573,1,8,0:0:0:0:
241,203,107733,1,0,0:0:0:0:
241,202,107813,1,0,0:0:0:0:
241,202,107893,1,8,0:0:0:0:
256,201,108054,1,0,0:0:0:0:
256,201,108214,1,0,0:0:0:0:
256,201,108375,1,8,0:0:0:0:
256,201,108455,1,0,0:0:0:0:
251,199,108535,1,0,0:0:0:0:
251,199,108615,1,8,0:0:0:0:
251,199,108696,1,8,0:0:0:0:
251,199,108776,1,0,0:0:0:0:
251,199,108856,1,8,0:0:0:0:
251,194,109177,1,8,0:0:0:0:
251,194,109257,1,0,0:0:0:0:
251,194,109337,1,8,0:0:0:0:
261,199,109498,1,0,0:0:0:0:
261,199,109658,1,0,0:0:0:0:
261,199,109738,1,0,0:0:0:0:
261,199,109819,1,8,0:0:0:0:
259,199,109979,1,0,0:0:0:0:
259,199,110139,1,8,0:0:0:0:
259,199,110220,1,8,0:0:0:0:
259,199,110300,1,0,0:0:0:0:
254,196,110460,1,0,0:0:0:0:
253,196,110621,1,8,0:0:0:0:
252,196,110701,1,0,0:0:0:0:
252,196,110781,1,8,0:0:0:0:
249,193,110861,1,8,0:0:0:0:
249,193,110942,1,0,0:0:0:0:
250,188,111102,1,0,0:0:0:0:
256,193,111263,1,12,0:0:0:0:
254,196,111423,1,12,0:0:0:0:
253,196,111583,1,12,0:0:0:0:
261,203,111744,1,0,0:0:0:0:
260,198,111904,1,0,0:0:0:0:
260,198,111984,1,0,0:0:0:0:
260,198,112065,1,8,0:0:0:0:
261,193,112225,1,0,0:0:0:0:
261,193,112385,1,8,0:0:0:0:
264,193,112546,1,0,0:0:0:0:
264,193,112706,1,8,0:0:0:0:
264,193,112786,1,8,0:0:0:0:
264,193,112867,1,0,0:0:0:0:
265,194,113027,1,0,0:0:0:0:
261,193,113188,1,0,0:0:0:0:
261,193,113268,1,0,0:0:0:0:
261,193,113348,1,8,0:0:0:0:
264,193,113508,5,0,0:0:0:0:
261,182,113669,1,12,0:0:0:0:
264,193,113829,1,12,0:0:0:0:
256,192,113990,1,8,0:0:0:0:
256,192,114070,1,0,0:0:0:0:
256,192,114150,1,8,0:0:0:0:
256,192,114230,1,8,0:0:0:0:
256,192,114311,1,0,0:0:0:0:
256,192,114471,1,8,0:0:0:0:
256,192,114551,1,0,0:0:0:0:
256,192,114631,1,8,0:0:0:0:
256,192,114792,1,0,0:0:0:0:
256,192,114952,1,8,0:0:0:0:
256,192,115113,1,8,0:0:0:0:
256,192,115193,1,8,0:0:0:0:
256,192,115273,1,0,0:0:0:0:
256,192,115434,1,8,0:0:0:0:
256,192,115594,1,8,0:0:0:0:
256,192,115674,1,0,0:0:0:0:
256,192,115754,1,0,0:0:0:0:
256,192,115915,1,0,0:0:0:0:
256,192,115995,1,0,0:0:0:0:
256,192,116075,1,8,0:0:0:0:
256,192,116155,1,0,0:0:0:0:
256,192,116236,1,8,0:0:0:0:
256,192,116396,1,0,0:0:0:0:
256,192,116557,1,8,0:0:0:0:
256,192,116637,1,0,0:0:0:0:
256,192,116717,1,8,0:0:0:0:
256,192,116877,1,8,0:0:0:0:
256,192,116958,1,0,0:0:0:0:
256,192,117038,1,8,0:0:0:0:
256,192,117118,1,8,0:0:0:0:
256,192,117198,1,0,0:0:0:0:
256,192,117279,1,0,0:0:0:0:
256,192,117359,1,8,0:0:0:0:
256,192,117519,1,8,0:0:0:0:
256,192,117599,1,8,0:0:0:0:
256,192,117680,1,0,0:0:0:0:
256,192,117760,1,0,0:0:0:0:
256,192,117840,1,8,0:0:0:0:
256,192,118000,1,0,0:0:0:0:
256,192,118081,1,0,0:0:0:0:
256,192,118161,1,8,0:0:0:0:
256,192,118321,1,0,0:0:0:0:
256,192,118482,1,0,0:0:0:0:
256,192,118642,1,8,0:0:0:0:
256,192,118803,1,0,0:0:0:0:
256,192,119123,1,8,0:0:0:0:
256,192,119204,1,8,0:0:0:0:
256,192,119284,1,8,0:0:0:0:
256,192,119364,1,8,0:0:0:0:
256,192,119444,1,0,0:0:0:0:
256,192,119605,1,0,0:0:0:0:
256,192,119685,1,0,0:0:0:0:
256,192,119765,1,8,0:0:0:0:
256,192,119845,1,0,0:0:0:0:
256,192,119926,1,8,0:0:0:0:
256,192,120006,1,8,0:0:0:0:
256,192,120086,1,0,0:0:0:0:
260,198,120246,1,0,0:0:0:0:
260,198,120407,1,8,0:0:0:0:
260,198,120487,1,8,0:0:0:0:
260,198,120567,1,0,0:0:0:0:
256,192,120648,1,8,0:0:0:0:
259,198,120728,1,0,0:0:0:0:
259,198,120808,1,0,0:0:0:0:
259,198,120888,1,8,0:0:0:0:
259,198,120968,1,8,0:0:0:0:
259,198,121049,1,0,0:0:0:0:
260,198,121209,1,8,0:0:0:0:
260,198,121369,1,0,0:0:0:0:
260,198,121530,1,12,0:0:0:0:
257,190,121690,1,12,0:0:0:0:
257,190,121851,1,12,0:0:0:0:
252,192,122011,1,0,0:0:0:0:
246,190,122172,1,0,0:0:0:0:
246,190,122252,1,8,0:0:0:0:
246,190,122332,1,0,0:0:0:0:
246,190,122412,1,0,0:0:0:0:
246,190,122492,1,8,0:0:0:0:
252,193,122653,1,8,0:0:0:0:
252,193,122813,1,8,0:0:0:0:
252,192,122893,1,8,0:0:0:0:
252,192,122974,1,0,0:0:0:0:
252,193,123054,1,0,0:0:0:0:
252,193,123134,1,8,0:0:0:0:
253,193,123295,1,0,0:0:0:0:
253,192,123455,1,0,0:0:0:0:
252,193,123535,1,8,0:0:0:0:
252,193,123615,1,0,0:0:0:0:
252,193,123776,1,0,0:0:0:0:
252,192,123936,1,8,0:0:0:0:
252,193,124097,1,0,0:0:0:0:
253,193,124257,1,8,0:0:0:0:
253,192,124337,1,0,0:0:0:0:
253,192,124418,1,8,0:0:0:0:
252,193,124498,1,8,0:0:0:0:
252,193,124578,1,0,0:0:0:0:
245,202,124738,1,0,0:0:0:0:
252,192,124819,1,0,0:0:0:0:
252,192,124899,1,8,0:0:0:0:
252,193,125059,1,0,0:0:0:0:
253,193,125220,1,8,0:0:0:0:
253,192,125380,1,0,0:0:0:0:
252,193,125541,1,8,0:0:0:0:
252,193,125621,1,8,0:0:0:0:
254,194,125701,1,0,0:0:0:0:
252,192,125781,1,0,0:0:0:0:
252,192,125861,1,8,0:0:0:0:
252,193,126022,1,0,0:0:0:0:
253,193,126182,1,8,0:0:0:0:
253,192,126343,1,8,0:0:0:0:
252,193,126503,1,0,0:0:0:0:
252,193,126583,1,0,0:0:0:0:
254,194,126663,1,8,0:0:0:0:
252,192,126744,1,0,0:0:0:0:
252,192,126824,1,8,0:0:0:0:
252,193,126904,1,8,0:0:0:0:
252,193,126984,1,0,0:0:0:0:
253,193,127065,1,0,0:0:0:0:
253,193,127145,1,8,0:0:0:0:
253,192,127305,1,0,0:0:0:0:
252,193,127466,1,0,0:0:0:0:
276,197,127546,1,0,0:0:0:0:
254,194,127626,1,8,0:0:0:0:
252,192,127786,1,0,0:0:0:0:
252,193,127947,1,8,0:0:0:0:
253,193,128027,1,0,0:0:0:0:
253,193,128107,1,8,0:0:0:0:
253,192,128268,1,0,0:0:0:0:
252,193,128348,1,0,0:0:0:0:
252,193,128428,1,8,0:0:0:0:
254,194,128589,1,0,0:0:0:0:
252,192,128749,1,8,0:0:0:0:
252,193,128829,1,8,0:0:0:0:
252,193,128909,1,0,0:0:0:0:
253,193,128990,1,0,0:0:0:0:
253,193,129070,1,8,0:0:0:0:
252,193,129391,1,0,0:0:0:0:
256,192,129712,1,0,0:0:0:0:
256,192,129872,1,0,0:0:0:0:
256,192,129952,1,8,0:0:0:0:
256,192,130032,1,0,0:0:0:0:
256,192,130113,1,0,0:0:0:0:
256,192,130193,1,8,0:0:0:0:
256,192,130353,1,0,0:0:0:0:
256,192,130514,1,8,0:0:0:0:
256,192,130594,1,8,0:0:0:0:
256,192,130674,1,0,0:0:0:0:
256,192,130834,1,8,0:0:0:0:
256,192,130995,1,0,0:0:0:0:
256,192,131155,1,8,0:0:0:0:
256,192,131236,1,0,0:0:0:0:
256,192,131316,1,8,0:0:0:0:
256,192,131396,1,0,0:0:0:0:
256,192,131476,1,0,0:0:0:0:
256,192,131556,1,0,0:0:0:0:
256,192,131637,1,8,0:0:0:0:
256,192,131958,1,0,0:0:0:0:
256,192,132279,1,12,0:0:0:0:
