osu file format v14

[General]
AudioFilename: audio.mp3
AudioLeadIn: 0
PreviewTime: 19495
Countdown: 0
SampleSet: Soft
StackLeniency: 0.5
Mode: 0
LetterboxInBreaks: 0
WidescreenStoryboard: 0

[Editor]
Bookmarks: 966,1644,10875,19563,28251,36939,45626,54314,58658,63002,71690,80377,89065,97753,106441,115129,123816,128160,132504,141192,148794
DistanceSpacing: 1.5
BeatDivisor: 4
GridSize: 16
TimelineZoom: 2.2

[Metadata]
Title:Big Blue
TitleUnicode:Big Blue
Artist:RichaadEB
ArtistUnicode:RichaadEB
Creator:RugMunch
Version:RugMunch
Source:
Tags:
BeatmapID:1610291
BeatmapSetID:765899

[Difficulty]
HPDrainRate:4
CircleSize:4.4
OverallDifficulty:9
ApproachRate:9.7
SliderMultiplier:2.21
SliderTickRate:1

[Events]
//Background and Video events
0,0,"bg.png",0,0
//Break Periods
//Storyboard Layer 0 (Background)
//Storyboard Layer 1 (Fail)
//Storyboard Layer 2 (Pass)
//Storyboard Layer 3 (Foreground)
//Storyboard Sound Samples

[TimingPoints]
16,271.493212669683,4,2,1,35,1,0
2187,-66.2251655629139,4,2,1,55,0,0
2391,-66.2251655629139,4,2,1,5,0,0
2459,-66.2251655629139,4,2,1,50,0,0
3138,-85.4700854700855,4,2,1,55,0,0
3409,-85.4700854700855,4,2,1,45,0,0
3816,-229.357798165138,4,2,1,35,0,0
4359,-66.2251655629139,4,2,1,55,0,0
4563,-66.2251655629139,4,2,1,5,0,0
4631,-66.2251655629139,4,2,1,45,0,0
5310,-85.4700854700855,4,2,1,55,0,0
5581,-85.4700854700855,4,2,1,45,0,0
5988,-229.357798165138,4,2,1,35,0,0
6531,-66.2251655629139,4,2,1,55,0,0
6735,-66.2251655629139,4,2,1,5,0,0
6803,-66.2251655629139,4,2,1,45,0,0
7482,-85.4700854700855,4,2,1,55,0,0
7753,-85.4700854700855,4,2,1,45,0,0
8160,-229.357798165138,4,2,1,35,0,0
8703,-80.9061488673139,4,2,1,55,0,0
8975,-80.9061488673139,4,2,1,45,0,0
9654,-81.7661488143908,4,2,1,65,0,0
9857,-81.7661488143908,4,2,1,5,0,0
9925,-100,4,2,1,60,0,0
10129,-100,4,2,1,5,0,0
10196,-100,4,2,1,60,0,0
10264,-100,4,2,1,5,0,0
10332,-100,4,2,1,60,0,0
10672,-100,4,2,1,5,0,0
10739,-100,4,2,1,60,0,0
10875,-65.7894736842105,4,2,1,55,0,0
11079,-65.7894736842105,4,2,1,5,0,0
11147,-65.7894736842105,4,2,1,45,0,0
11825,-60.2772754671489,4,2,1,55,0,0
12029,-60.2772754671489,4,2,1,5,0,0
12097,-60.2772754671489,4,2,1,45,0,0
12504,-60.2772754671489,4,2,1,35,0,0
13047,-65.7894736842105,4,2,1,60,0,0
13251,-65.7894736842105,4,2,1,5,0,0
13319,-65.7894736842105,4,2,1,55,0,0
13997,-60.2772754671489,4,2,1,65,0,0
14201,-60.2772754671489,4,2,1,5,0,0
14269,-100,4,2,1,60,0,0
14473,-100,4,2,1,5,0,0
14540,-100,4,2,1,60,0,0
14608,-100,4,2,1,5,0,0
14676,-100,4,2,1,60,0,0
15219,-68.0272108843537,4,2,1,55,0,0
15423,-68.0272108843537,4,2,1,5,0,0
15491,-68.0272108843537,4,2,1,45,0,0
16169,-61.3496932515337,4,2,1,55,0,0
16373,-61.3496932515337,4,2,1,5,0,0
16441,-61.3496932515337,4,2,1,55,0,0
16577,-61.3496932515337,4,2,1,45,0,0
16848,-83.3333333333333,4,2,1,55,0,0
16984,-83.3333333333333,4,2,1,5,0,0
17052,-83.3333333333333,4,2,1,55,0,0
17187,-83.3333333333333,4,2,1,5,0,0
17255,-83.3333333333333,4,2,1,55,0,0
18341,-83.3333333333333,4,2,1,60,0,0
18545,-83.3333333333333,4,2,1,5,0,0
18613,-83.3333333333333,4,2,1,30,0,0
18749,-83.3333333333333,4,2,1,40,0,0
18884,-83.3333333333333,4,2,1,50,0,0
19020,-83.3333333333333,4,2,1,60,0,0
19156,-83.3333333333333,4,2,1,70,0,0
19292,-83.3333333333333,4,2,1,80,0,0
19427,-83.3333333333333,4,2,1,90,0,0
19563,-76.9230769230769,4,2,1,70,0,0
19835,-76.9230769230769,4,2,1,60,0,0
20717,-76.9230769230769,4,2,1,5,0,0
20785,-76.9230769230769,4,2,1,60,0,0
21463,-100,4,2,1,60,0,0
21531,-100,4,2,1,5,0,0
21599,-100,4,2,1,60,0,0
21667,-100,4,2,1,5,0,0
21735,-76.9230769230769,4,2,1,60,0,0
23907,-76.9230769230769,4,2,1,70,0,0
24178,-76.9230769230769,4,2,1,60,0,0
24721,-100,4,2,1,60,0,0
24789,-100,4,2,1,5,0,0
24857,-100,4,2,1,60,0,0
24925,-100,4,2,1,5,0,0
24993,-76.9230769230769,4,2,1,60,0,0
25196,-76.9230769230769,4,2,1,5,0,0
25264,-76.9230769230769,4,2,1,60,0,0
26893,-100,4,2,1,60,0,0
26961,-100,4,2,1,5,0,0
27029,-100,4,2,1,60,0,0
27097,-100,4,2,1,5,0,0
27165,-100,4,2,1,65,0,0
27708,-100,4,2,1,55,0,0
28251,-83.3333333333333,4,2,1,70,0,0
29201,-100,4,2,1,70,0,0
29405,-100,4,2,1,5,0,0
29473,-100,4,2,1,70,0,0
29608,-100,4,2,1,65,0,0
29744,-100,4,2,1,60,0,0
29880,-100,4,2,1,55,0,0
30015,-100,4,2,1,50,0,0
30151,-100,4,2,1,45,0,0
30423,-76.9230769230769,4,2,1,70,0,0
31373,-71.4285714285714,4,2,1,70,0,0
31577,-71.4285714285714,4,2,1,5,0,0
31644,-71.4285714285714,4,2,1,70,0,0
32595,-83.3333333333333,4,2,1,65,0,0
33681,-100,4,2,1,60,0,0
34767,-83.3333333333333,4,2,1,70,0,0
34902,-83.3333333333333,4,2,1,60,0,0
35445,-83.3333333333333,4,2,1,50,0,0
35853,-83.3333333333333,4,2,1,70,0,0
36396,-83.3333333333333,4,2,1,60,0,0
36939,-80,4,2,1,60,0,0
37685,-80,4,2,1,5,0,0
37753,-80,4,2,1,60,0,0
38635,-80,4,2,1,5,0,0
38703,-80,4,2,1,60,0,0
40129,-80,4,2,1,5,0,0
40196,-80,4,2,1,60,0,0
41282,-80,4,2,1,70,0,0
41554,-80,4,2,1,60,0,0
42572,-80,4,2,1,5,0,0
42640,-80,4,2,1,60,0,0
44405,-80,4,2,1,70,0,0
44608,-80,4,2,1,5,0,0
44676,-80,4,2,1,65,0,0
45151,-80,4,2,1,5,0,0
45219,-80,4,2,1,65,0,0
45287,-80,4,2,1,5,0,0
45355,-80,4,2,1,65,0,0
45423,-80,4,2,1,5,0,0
45491,-80,4,2,1,65,0,0
45626,-74.0740740740741,4,2,1,80,0,0
45830,-74.0740740740741,4,2,1,5,0,0
45898,-74.0740740740741,4,2,1,70,0,0
46101,-74.0740740740741,4,2,1,5,0,0
46169,-74.0740740740741,4,2,1,70,0,0
46373,-74.0740740740741,4,2,1,5,0,0
46441,-74.0740740740741,4,2,1,70,0,0
46712,-83.3333333333333,4,2,1,60,0,0
47798,-74.0740740740741,4,2,1,70,0,0
48002,-74.0740740740741,4,2,1,5,0,0
48070,-74.0740740740741,4,2,1,70,0,0
48273,-74.0740740740741,4,2,1,5,0,0
48341,-74.0740740740741,4,2,1,70,0,0
48545,-74.0740740740741,4,2,1,5,0,0
48613,-74.0740740740741,4,2,1,70,0,0
48884,-83.3333333333333,4,2,1,60,0,0
49970,-71.4285714285714,4,2,1,70,0,0
50377,-74.0740740740741,4,2,1,65,0,0
50785,-76.9230769230769,4,2,1,60,0,0
51056,-80,4,2,1,55,0,0
51463,-83.3333333333333,4,2,1,50,0,0
51735,-66.6666666666667,4,2,1,70,0,0
52074,-66.6666666666667,4,2,1,5,0,0
52142,-71.4285714285714,4,2,1,60,0,0
52957,-83.3333333333333,4,2,1,50,0,0
53228,-83.3333333333333,4,2,1,60,0,0
53907,-83.3333333333333,4,2,1,50,0,0
54043,-83.3333333333333,4,2,1,45,0,0
54178,-83.3333333333333,4,2,1,40,0,0
54314,-83.3333333333333,4,2,1,55,0,0
54586,-83.3333333333333,4,2,1,60,0,0
55129,-83.3333333333333,4,2,1,65,0,0
55672,-83.3333333333333,4,2,1,70,0,0
56215,-71.4285714285714,4,2,1,75,0,0
56486,-62.5,4,2,1,80,0,0
56893,-66.6666666666667,4,2,1,65,0,0
57844,-66.6666666666667,4,2,1,70,0,0
58115,-66.6666666666667,4,2,1,60,0,0
58387,-66.6666666666667,4,2,1,50,0,0
58658,-83.3333333333333,4,2,1,60,0,0
60083,-83.3333333333333,4,2,1,5,0,0
60151,-83.3333333333333,4,2,1,60,0,0
60355,-83.3333333333333,4,2,1,5,0,0
60423,-83.3333333333333,4,2,1,60,0,0
60830,-100,4,2,1,60,0,0
61373,-100,4,2,1,70,0,0
61554,-100,4,2,1,40,0,0
61735,-100,4,2,1,70,0,0
61916,-100,4,2,1,50,0,0
62120,-100,4,2,1,5,0,0
62187,-100,4,2,1,50,0,0
63002,-68.212824010914,4,2,1,55,0,0
63206,-100,4,2,1,5,0,0
63274,-100,4,2,1,50,0,0
63952,-88.5739592559787,4,2,1,55,0,0
64224,-100,4,2,1,45,0,0
64631,-229.357798165138,4,2,1,35,0,0
65174,-68.212824010914,4,2,1,55,0,0
65378,-100,4,2,1,5,0,0
65446,-100,4,2,1,45,0,0
66124,-88.5739592559787,4,2,1,55,0,0
66396,-100,4,2,1,45,0,0
66803,-229.357798165138,4,2,1,35,0,0
67346,-68.212824010914,4,2,1,55,0,0
67550,-100,4,2,1,5,0,0
67618,-100,4,2,1,45,0,0
68296,-88.5739592559787,4,2,1,55,0,0
68568,-100,4,2,1,45,0,0
68975,-229.357798165138,4,2,1,35,0,0
69518,-79.0513833992095,4,2,1,55,0,0
69789,-100,4,2,1,45,0,0
70468,-81.9672131147541,4,2,1,65,0,0
70672,-100,4,2,1,5,0,0
70740,-100,4,2,1,60,0,0
70875,-100,4,2,1,35,0,0
70944,-100,4,2,1,5,0,0
71011,-100,4,2,1,60,0,0
71079,-100,4,2,1,5,0,0
71147,-100,4,2,1,60,0,0
71487,-100,4,2,1,5,0,0
71554,-100,4,2,1,60,0,0
71622,-100,4,2,1,5,0,0
71690,-65.6598818122127,4,2,1,55,0,0
71894,-100,4,2,1,5,0,0
71962,-100,4,2,1,45,0,0
72640,-60.2409638554217,4,2,1,55,0,0
72844,-100,4,2,1,5,0,0
72912,-100,4,2,1,45,0,0
73319,-100,4,2,1,35,0,0
73862,-65.6598818122127,4,2,1,60,0,0
74066,-100,4,2,1,5,0,0
74134,-100,4,2,1,55,0,0
74812,-60.2409638554217,4,2,1,65,0,0
75016,-100,4,2,1,5,0,0
75083,-100,4,2,1,35,0,0
75084,-100,4,2,1,60,0,0
75288,-100,4,2,1,5,0,0
75355,-100,4,2,1,60,0,0
75423,-100,4,2,1,5,0,0
75491,-100,4,2,1,60,0,0
76034,-61.2745098039216,4,2,1,55,0,0
76238,-100,4,2,1,5,0,0
76306,-100,4,2,1,45,0,0
76984,-57.8034682080925,4,2,1,55,0,0
77188,-100,4,2,1,5,0,0
77255,-100,4,2,1,35,0,0
77256,-100,4,2,1,55,0,0
77392,-100,4,2,1,45,0,0
77663,-83.3333333333333,4,2,1,55,0,0
77798,-83.3333333333333,4,2,1,5,0,0
77866,-83.3333333333333,4,2,1,55,0,0
78002,-83.3333333333333,4,2,1,5,0,0
78070,-83.3333333333333,4,2,1,55,0,0
79156,-83.3333333333333,4,2,1,60,0,0
79359,-83.3333333333333,4,2,1,5,0,0
79427,-83.3333333333333,4,2,1,30,0,0
79495,-83.3333333333333,4,2,1,32,0,0
79563,-83.3333333333333,4,2,1,36,0,0
79631,-83.3333333333333,4,2,1,38,0,0
79699,-83.3333333333333,4,2,1,42,0,0
79767,-83.3333333333333,4,2,1,44,0,0
79835,-83.3333333333333,4,2,1,47,0,0
79902,-83.3333333333333,4,2,1,49,0,0
79970,-83.3333333333333,4,2,1,52,0,0
80038,-83.3333333333333,4,2,1,54,0,0
80106,-83.3333333333333,4,2,1,58,0,0
80174,-83.3333333333333,4,2,1,60,0,0
80242,-83.3333333333333,4,2,1,64,0,0
80310,-83.3333333333333,4,2,1,68,0,0
80377,-71.4285714285714,4,2,1,75,0,0
80649,-71.4285714285714,4,2,1,65,0,0
81531,-71.4285714285714,4,2,1,5,0,0
81599,-71.4285714285714,4,2,1,65,0,0
82278,-83.3333333333333,4,2,1,65,0,0
82346,-83.3333333333333,4,2,1,5,0,0
82414,-83.3333333333333,4,2,1,65,0,0
82482,-83.3333333333333,4,2,1,5,0,0
82549,-71.4285714285714,4,2,1,65,0,0
85536,-83.3333333333333,4,2,1,65,0,0
85604,-83.3333333333333,4,2,1,5,0,0
85672,-83.3333333333333,4,2,1,65,0,0
85739,-83.3333333333333,4,2,1,5,0,0
85807,-71.4285714285714,4,2,1,65,0,0
86011,-71.4285714285714,4,2,1,5,0,0
86079,-71.4285714285714,4,2,1,65,0,0
87708,-83.3333333333333,4,2,1,65,0,0
87776,-83.3333333333333,4,2,1,5,0,0
87844,-83.3333333333333,4,2,1,65,0,0
87911,-83.3333333333333,4,2,1,5,0,0
87979,-83.3333333333333,4,2,1,65,0,0
88387,-83.3333333333333,4,2,1,50,0,0
88522,-83.3333333333333,4,2,1,65,0,0
88794,-83.3333333333333,4,2,1,55,0,0
89065,-76.9230769230769,4,2,1,75,0,0
90015,-90.9090909090909,4,2,1,75,0,0
90219,-90.9090909090909,4,2,1,5,0,0
90287,-90.9090909090909,4,2,1,75,0,0
90423,-90.9090909090909,4,2,1,70,0,0
90558,-90.9090909090909,4,2,1,65,0,0
90694,-90.9090909090909,4,2,1,60,0,0
90830,-90.9090909090909,4,2,1,55,0,0
90966,-90.9090909090909,4,2,1,50,0,0
91237,-71.4285714285714,4,2,1,75,0,0
92187,-66.6666666666667,4,2,1,75,0,0
92391,-66.6666666666667,4,2,1,5,0,0
92459,-66.6666666666667,4,2,1,75,0,0
93409,-76.9230769230769,4,2,1,70,0,0
94495,-90.9090909090909,4,2,1,65,0,0
95581,-90.9090909090909,4,2,1,75,0,0
95717,-76.9230769230769,4,2,1,70,0,0
96260,-76.9230769230769,4,2,1,50,0,0
96667,-76.9230769230769,4,2,1,75,0,0
97210,-76.9230769230769,4,2,1,65,0,0
97753,-83.3333333333333,4,2,1,70,0,0
98296,-100,4,2,1,60,0,0
99111,-100,4,2,1,55,0,0
99925,-125,4,2,1,50,0,0
100196,-142.857142857143,4,2,1,50,0,0
100468,-166.666666666667,4,2,1,50,0,0
100739,-250,4,2,1,50,0,0
101011,-80,4,2,1,60,0,0
102097,-100,4,2,1,65,0,0
103183,-100,4,2,1,75,0,0
103454,-100,4,2,1,65,0,0
105355,-100,4,2,1,70,0,0
106441,-100,4,2,1,60,0,0
107255,-100,4,2,1,50,0,0
107527,-100,4,2,1,60,0,0
108070,-100,4,2,1,50,0,0
108613,-100,4,2,1,70,0,0
109020,-100,4,2,1,60,0,0
109292,-100,4,2,1,50,0,0
109563,-100,4,2,1,55,0,0
110785,-100,4,2,1,60,0,0
111871,-100,4,2,1,60,0,0
112957,-100,4,2,1,65,0,0
113228,-100,4,2,1,70,0,0
113500,-100,4,2,1,75,0,0
113771,-62.5,4,2,1,75,0,0
114043,-71.4285714285714,4,2,1,80,0,0
114314,-71.4285714285714,4,2,1,65,0,0
115129,-71.4285714285714,4,2,1,70,0,0
117029,-83.3333333333333,4,2,1,70,0,0
117301,-71.4285714285714,4,2,1,70,0,0
119880,-62.5,4,2,1,70,0,0
120015,-71.4285714285714,4,2,1,70,0,0
122730,-66.6666666666667,4,2,1,70,0,0
123816,-71.4285714285714,4,2,1,60,0,0
124359,-71.4285714285714,4,2,1,65,0,0
124902,-71.4285714285714,4,2,1,70,0,0
125445,-71.4285714285714,4,2,1,60,0,0
125717,-71.4285714285714,4,2,1,70,0,0
125988,-71.4285714285714,4,2,1,65,0,0
126260,-71.4285714285714,4,2,1,60,0,0
126531,-71.4285714285714,4,2,1,70,0,0
127074,-71.4285714285714,4,2,1,75,0,0
127346,-71.4285714285714,4,2,1,80,0,0
127617,-62.5,4,2,1,85,0,0
128160,-55.5555555555556,4,2,1,80,0,0
128296,-55.5555555555556,4,2,1,5,0,0
128364,-83.3333333333333,4,2,1,70,0,0
128500,-83.3333333333333,4,2,1,5,0,0
128568,-83.3333333333333,4,2,1,70,0,0
129043,-83.3333333333333,4,2,1,5,0,0
129111,-83.3333333333333,4,2,1,70,0,0
129178,-83.3333333333333,4,2,1,5,0,0
129246,-100,4,2,1,60,0,0
129382,-100,4,2,1,5,0,0
129450,-100,4,2,1,60,0,0
129586,-100,4,2,1,5,0,0
129654,-100,4,2,1,60,0,0
129789,-100,4,2,1,55,0,0
130061,-125,4,2,1,50,0,0
130332,-125,4,2,1,60,0,0
130875,-125,4,2,1,80,0,0
131056,-125,4,2,1,50,0,0
131237,-125,4,2,1,80,0,0
131418,-71.4285714285714,4,2,1,60,0,0
131622,-71.4285714285714,4,2,1,5,0,0
131690,-83.3333333333333,4,2,1,50,0,0
132504,-75.187969924812,4,2,1,55,0,0
132708,-100,4,2,1,5,0,0
132776,-100,4,2,1,50,0,0
133454,-98.0392156862745,4,2,1,55,0,0
133726,-100,4,2,1,45,0,0
134133,-229.357798165138,4,2,1,35,0,0
134676,-75.187969924812,4,2,1,55,0,0
134880,-100,4,2,1,5,0,0
134948,-100,4,2,1,45,0,0
135626,-98.0392156862745,4,2,1,55,0,0
135898,-100,4,2,1,45,0,0
136305,-229.357798165138,4,2,1,35,0,0
136848,-75.187969924812,4,2,1,55,0,0
137052,-100,4,2,1,5,0,0
137120,-100,4,2,1,45,0,0
137798,-98.0392156862745,4,2,1,55,0,0
138070,-100,4,2,1,45,0,0
138477,-229.357798165138,4,2,1,35,0,0
139020,-75.187969924812,4,2,1,55,0,0
139292,-75.187969924812,4,2,1,45,0,0
139970,-75.7575757575758,4,2,1,65,0,0
140174,-100,4,2,1,5,0,0
140242,-100,4,2,1,60,0,0
140377,-100,4,2,1,35,0,0
140446,-100,4,2,1,5,0,0
140513,-100,4,2,1,60,0,0
140581,-100,4,2,1,5,0,0
140649,-100,4,2,1,60,0,0
140989,-100,4,2,1,5,0,0
141056,-100,4,2,1,60,0,0
141192,-58.1395348837209,4,2,1,55,0,0
141396,-100,4,2,1,5,0,0
141464,-100,4,2,1,45,0,0
142142,-66.6666666666667,4,2,1,55,0,0
142346,-100,4,2,1,5,0,0
142414,-100,4,2,1,45,0,0
142821,-100,4,2,1,35,0,0
143364,-58.1395348837209,4,2,1,60,0,0
143568,-100,4,2,1,5,0,0
143636,-100,4,2,1,55,0,0
144314,-66.6666666666667,4,2,1,65,0,0
144518,-100,4,2,1,5,0,0
144586,-100,4,2,1,60,0,0
144721,-100,4,2,1,35,0,0
144790,-100,4,2,1,5,0,0
144857,-100,4,2,1,60,0,0
144925,-100,4,2,1,5,0,0
144993,-100,4,2,1,60,0,0
145536,-63.6942675159236,4,2,1,55,0,0
145740,-100,4,2,1,5,0,0
145808,-100,4,2,1,45,0,0
146486,-61.3496932515337,4,2,1,55,0,0
146690,-100,4,2,1,5,0,0
146758,-100,4,2,1,55,0,0
146894,-100,4,2,1,45,0,0
147165,-71.4285714285714,4,2,1,55,0,0
147301,-71.4285714285714,4,2,1,5,0,0
147369,-71.4285714285714,4,2,1,55,0,0
147504,-71.4285714285714,4,2,1,5,0,0
147572,-71.4285714285714,4,2,1,55,0,0
148658,-71.4285714285714,4,2,1,60,0,0
148794,-71.4285714285714,4,2,1,35,0,0
149880,-71.4285714285714,4,2,1,30,0,0

[Colours]
Combo1 : 35,205,241
Combo2 : 85,170,255
Combo3 : 255,223,40
Combo4 : 143,251,113

[HitObjects]
144,192,966,5,0,1:0:0:0:
144,192,1034,1,0,1:0:0:0:
144,192,1101,2,0,L|64:208,1,55.25,8|0,1:0|1:0,0:0:0:0:
368,192,1237,2,0,L|448:208,1,55.25,8|8,1:3|1:3,0:0:0:0:
176,96,1373,6,0,L|139:54,1,55.25,8|8,1:3|1:3,0:0:0:0:
336,288,1509,2,0,L|389:349,1,55.25,8|0,1:0|1:0,0:0:0:0:
176,288,1644,6,0,L|122:349,1,55.25,8|8,1:3|1:3,0:0:0:0:
336,96,1780,2,0,L|372:54,1,55.25,8|8,1:3|1:3,0:0:0:0:
64,208,1916,5,8,1:0:0:0:
448,208,2052,1,8,1:0:0:0:
176,96,2187,6,0,B|256:0|256:0|336:96,1,250.282497135744,4|0,3:2|0:0,0:0:0:0:
256,144,2459,5,8,3:1:0:0:
176,288,2730,1,0,3:0:0:0:
144,192,2866,1,0,1:0:0:0:
368,192,3002,1,8,3:1:0:0:
176,96,3138,6,0,B|240:64|256:0|256:0|272:64|336:96,1,258.570000986366,4|0,1:2|1:0,0:0:0:0:
160,0,3545,5,8,3:1:0:0:
256,192,3816,2,0,L|256:144,2,48.1779989119959,0|0|8,3:0|1:0|3:1,0:0:0:0:
176,288,4359,6,0,B|256:384|256:384|336:288,1,250.282497135744,4|0,3:2|0:0,0:0:0:0:
256,240,4631,5,8,3:1:0:0:
176,96,4902,1,0,3:0:0:0:
144,192,5038,1,0,1:0:0:0:
368,192,5174,1,8,3:1:0:0:
176,288,5310,6,0,B|240:320|256:384|256:384|272:320|336:288,1,258.570000986366,4|0,1:2|1:0,0:0:0:0:
352,384,5717,5,8,3:1:0:0:
256,192,5988,2,0,L|256:240,2,48.1779989119959,0|0|8,3:0|1:0|3:1,0:0:0:0:
176,96,6531,6,0,B|256:0|256:0|336:96,1,250.282497135744,4|0,3:2|0:0,0:0:0:0:
256,144,6803,5,8,3:1:0:0:
176,288,7074,1,0,3:0:0:0:
144,192,7210,1,0,1:0:0:0:
368,192,7346,1,8,3:1:0:0:
176,96,7482,6,0,B|240:64|256:0|256:0|272:64|336:96,1,258.570000986366,4|0,1:2|1:0,0:0:0:0:
160,0,7889,5,8,3:1:0:0:
256,192,8160,2,0,L|256:144,2,48.1779989119959,0|0|8,3:0|1:0|3:1,0:0:0:0:
432,320,8703,6,0,B|480:192|480:192|432:64,1,272.935010515761,4|8,3:2|3:1,0:0:0:0:
256,192,9111,1,0,1:0:0:0:
368,256,9246,2,0,B|392:192|392:192|368:128,1,136.46750525788,4|0,3:2|1:0,0:0:0:0:
144,128,9518,1,8,3:1:0:0:
256,384,9654,6,0,B|240:320|240:320|272:256|272:256|256:192,1,202.712243519865,4|0,1:2|0:0,0:0:0:0:
144,128,9925,5,8,1:0:0:0:
150,154,9992,1,0,1:0:0:0:
157,181,10061,2,0,B|170:234,1,55.25,8|0,1:3|0:0,0:0:0:0:
352,384,10196,2,0,B|338:330,1,55.25,8|0,1:3|0:0,0:0:0:0:
272,112,10332,1,8,1:0:0:0:
240,320,10468,1,0,1:0:0:0:
240,320,10536,1,0,1:0:0:0:
240,320,10604,6,0,B|253:373,1,55.25,8|0,1:3|0:0,0:0:0:0:
192,64,10739,1,8,1:0:0:0:
416,192,10875,6,0,B|464:128|464:128|292:128,1,251.939996924561,4|0,3:2|0:0,0:0:0:0:
336,208,11147,5,8,3:1:0:0:
496,208,11418,1,0,3:0:0:0:
416,336,11554,1,0,1:0:0:0:
416,112,11690,1,8,3:1:0:0:
256,304,11825,6,0,B|208:368|208:368|288:368|288:368|320:352|320:352|400:352,1,274.979251741278,4|0,3:2|0:0,0:0:0:0:
448,304,12097,1,0,1:0:0:0:
402,304,12164,1,0,1:0:0:0:
356,304,12232,1,8,3:1:0:0:
160,304,12504,5,0,3:0:0:0:
80,192,12640,1,0,3:0:0:0:
160,80,12776,1,8,3:1:0:0:
352,288,13047,6,0,B|400:352|400:352|228:352,1,251.939996924561,4|0,3:2|0:0,0:0:0:0:
272,272,13319,1,8,3:1:0:0:
432,272,13590,1,0,3:0:0:0:
352,144,13726,1,0,1:0:0:0:
352,368,13862,1,8,3:1:0:0:
480,176,13997,6,0,B|528:112|528:112|448:112|448:112|416:128|416:128|336:128,1,274.979251741278,4|0,1:2|0:0,0:0:0:0:
276,76,14269,1,0,1:0:0:0:
311,53,14336,1,0,1:0:0:0:
352,48,14405,2,0,B|446:48,1,55.25,8|0,3:1|0:0,0:0:0:0:
224,192,14540,2,0,B|279:192,1,55.25,0|0,1:0|0:0,0:0:0:0:
80,48,14676,5,0,3:0:0:0:
192,320,14812,1,0,1:0:0:0:
256,80,14948,1,8,3:1:0:0:
0,192,15083,1,0,1:0:0:0:
0,192,15151,1,0,1:0:0:0:
0,192,15219,6,0,B|80:192|80:192|112:176|112:176|240:176,1,243.652488660582,4|0,3:2|0:0,0:0:0:0:
320,176,15491,1,8,3:1:0:0:
256,384,15762,1,0,3:0:0:0:
144,256,15898,1,0,1:0:0:0:
320,192,16034,1,8,3:1:0:0:
176,352,16169,6,0,B|352:352|352:352|432:304,1,270.172499793875,4|0,1:2|0:0,0:0:0:0:
496,256,16441,1,0,1:0:0:0:
501,211,16508,1,0,1:0:0:0:
507,166,16577,5,8,3:1:0:0:
422,189,16667,5,8,1:3:0:0:
345,147,16757,5,8,1:3:0:0:
320,62,16848,6,0,P|252:40|196:70,1,132.599995953369,4|0,1:2|0:0,0:0:0:0:
203,232,17052,2,0,P|253:192|261:128,1,132.599995953369,0|0,1:0|0:0,0:0:0:0:
114,46,17255,2,0,P|123:109|175:148,1,132.599995953369,8|0,1:0|3:0,0:0:0:0:
320,63,17527,1,0,1:0:0:0:
203,232,17663,1,8,3:1:0:0:
203,232,17934,5,0,3:0:0:0:
201,66,18070,1,0,1:0:0:0:
345,147,18206,1,8,3:1:0:0:
201,383,18341,6,0,B|190:324|190:324|212:288|212:288|195:186,1,198.899993930054,4|0,1:2|0:0,0:0:0:0:
187,182,18613,1,0,1:0:0:0:
118,145,18749,1,0,1:0:0:0:
23,176,18884,1,0,1:0:0:0:
1,289,19020,1,0,1:0:0:0:
113,379,19156,1,0,1:0:0:0:
274,294,19292,1,0,1:0:0:0:
278,108,19427,1,0,1:0:0:0:
101,266,19563,6,0,B|188:279|188:279|237:254|237:254|379:272,1,287.29998684845,4|8,3:1|3:1,0:0:0:0:
156,61,19970,2,0,B|143:148|143:148|168:197,1,143.649993424225,0|0,1:0|3:0,0:0:0:0:
388,197,20242,2,0,B|413:148|413:148|400:61,1,143.649993424225,0|8,1:0|3:1,0:0:0:0:
196,362,20513,6,0,B|249:334|249:334|403:353,1,215.474990136338,0|0,1:0|0:0,0:0:0:0:
427,357,20785,1,0,1:0:0:0:
202,272,20920,2,0,B|236:253|236:253|339:266,1,143.649993424225,8|0,3:1|1:0,0:0:0:0:
499,188,21192,1,0,3:0:0:0:
283,73,21328,1,0,1:0:0:0:
278,108,21395,1,0,1:0:0:0:
274,144,21463,2,0,B|328:135,1,55.25,8|0,3:1|0:0,0:0:0:0:
156,275,21599,2,0,B|101:266,1,55.25,0|0,1:0|0:0,0:0:0:0:
5,75,21735,6,0,B|146:51,1,143.649993424225,0|0,3:0|1:0,0:0:0:0:
262,268,22006,2,0,B|120:244,1,143.649993424225,8|0,3:1|1:0,0:0:0:0:
98,243,22210,1,0,1:0:0:0:
98,243,22278,1,0,3:0:0:0:
278,108,22414,1,0,1:0:0:0:
250,378,22549,1,8,3:1:0:0:
451,137,22685,6,0,B|430:85|430:85|413:179|413:179|425:220|425:220|409:314,1,287.29998684845,4|0,1:2|1:0,0:0:0:0:
504,213,23092,1,8,3:1:0:0:
270,99,23228,1,0,1:0:0:0:
320,357,23364,2,0,B|344:215,1,143.649993424225,0|0,3:0|1:0,0:0:0:0:
344,216,23568,1,0,1:0:0:0:
344,216,23635,1,8,3:1:0:0:
220,22,23771,1,0,1:0:0:0:
4,186,23907,6,0,B|91:173|91:173|140:198|140:198|283:179,1,287.29998684845,4|8,3:2|3:1,0:0:0:0:
97,383,24314,2,0,B|66:315|66:315|79:247,1,143.649993424225,0|0,1:0|3:0,0:0:0:0:
186,111,24586,1,0,1:0:0:0:
186,111,24654,1,0,1:0:0:0:
186,111,24721,2,0,B|178:165,1,55.25,8|0,3:1|0:0,0:0:0:0:
24,56,24857,2,0,B|16:1,1,55.25,0|0,1:0|0:0,0:0:0:0:
251,37,24993,6,0,B|285:87|285:87|265:250,1,215.474990136338,0|0,3:1|0:0,0:0:0:0:
261,270,25264,1,8,3:1:0:0:
105,84,25400,1,0,1:0:0:0:
326,18,25536,2,0,B|361:68|361:68|351:155,1,143.649993424225,0|0,3:1|1:0,0:0:0:0:
186,111,25807,1,8,3:1:0:0:
401,0,25943,1,0,1:0:0:0:
386,283,26079,6,0,B|411:330|411:330|419:248|419:248|414:210|414:210|425:173|425:173|432:99,1,287.29998684845,4|8,3:2|3:1,0:0:0:0:
505,220,26486,1,0,1:0:0:0:
318,361,26622,1,0,3:0:0:0:
201,210,26758,1,0,1:0:0:0:
201,210,26825,1,0,1:0:0:0:
201,210,26893,2,0,L|127:201,1,55.25,8|0,3:1|0:0,0:0:0:0:
33,368,27029,2,0,L|107:359,1,55.25,0|0,1:0|0:0,0:0:0:0:
306,216,27165,5,0,3:0:0:0:
296,168,27233,1,0,1:0:0:0:
267,130,27301,1,8,1:0:0:0:
222,110,27368,1,0,1:0:0:0:
175,112,27436,1,8,3:1:0:0:
134,137,27504,1,0,1:0:0:0:
108,178,27572,1,0,1:0:0:0:
104,225,27640,1,0,1:0:0:0:
122,269,27708,5,8,3:1:0:0:
157,244,27776,1,0,1:0:0:0:
171,207,27844,1,8,1:0:0:0:
162,166,27911,1,0,1:3:0:0:
134,137,27979,1,8,1:3:0:0:
99,111,28047,1,8,1:3:0:0:
85,74,28115,1,8,1:3:0:0:
93,34,28183,1,8,1:3:0:0:
122,4,28251,6,0,L|202:15,1,66.2999979766846,4|0,3:1|1:0,0:0:0:0:
511,53,28387,1,0,1:0:0:0:
99,111,28522,6,0,L|179:122,1,66.2999979766846,8|0,3:1|1:0,0:0:0:0:
488,160,28658,1,0,1:0:0:0:
76,218,28794,6,0,L|156:229,1,66.2999979766846,0|0,3:1|1:0,0:0:0:0:
465,267,28930,1,8,1:0:0:0:
465,267,28997,1,0,1:0:0:0:
465,267,29065,2,0,L|400:258,1,66.2999979766846,0|0,3:1|1:0,0:0:0:0:
284,35,29201,6,0,B|286:87|286:87|276:116|276:116|279:198,1,165.75,4|0,1:2|0:0,0:0:0:0:
210,238,29473,1,8,1:3:0:0:
208,182,29540,1,8,1:3:0:0:
206,127,29608,1,8,1:3:0:0:
319,21,29744,1,8,1:3:0:0:
426,98,29880,1,8,1:3:0:0:
412,207,30015,1,8,1:3:0:0:
338,289,30151,5,8,1:2:0:0:
324,291,30218,1,8,1:2:0:0:
310,293,30286,1,8,1:2:0:0:
297,295,30354,1,8,1:2:0:0:
283,298,30423,2,0,L|268:390,1,71.8249967121126,8|0,3:1|1:0,0:0:0:0:
132,177,30558,5,0,1:0:0:0:
132,177,30626,1,0,1:0:0:0:
132,177,30694,2,0,L|147:269,1,71.8249967121126,8|0,3:1|1:0,0:0:0:0:
316,63,30830,5,0,1:0:0:0:
316,63,30898,1,0,1:0:0:0:
316,63,30966,2,0,L|301:155,1,71.8249967121126,8|0,3:1|1:0,0:0:0:0:
271,369,31101,1,8,1:0:0:0:
109,153,31237,1,8,3:1:0:0:
384,230,31373,6,0,B|425:213|425:213|350:199|350:199|317:209|317:209|242:196,1,232.049992918396,4|0,1:2|0:0,0:0:0:0:
228,121,31645,1,8,1:3:0:0:
266,127,31713,1,8,1:3:0:0:
304,133,31780,1,8,1:3:0:0:
507,166,31916,1,8,1:3:0:0:
283,298,32052,5,8,3:1:0:0:
316,63,32187,1,0,1:0:0:0:
417,310,32324,1,0,3:0:0:0:
441,131,32459,1,0,1:0:0:0:
225,192,32595,6,0,B|175:166|175:166|87:179,1,132.599995953369,4|0,3:2|1:0,0:0:0:0:
283,298,32866,1,8,3:1:0:0:
175,92,33002,2,0,L|43:111,1,132.599995953369,0|0,1:0|3:0,0:0:0:0:
164,246,33273,1,0,1:0:0:0:
239,16,33409,1,8,3:1:0:0:
11,42,33545,1,0,1:0:0:0:
225,192,33681,6,0,B|266:217|266:217|340:212,1,110.5,0|0,3:2|1:0,0:0:0:0:
506,199,33952,1,8,3:1:0:0:
283,298,34088,2,0,L|393:290,1,110.5,0|0,1:2|3:0,0:0:0:0:
225,192,34359,1,8,1:0:0:0:
331,383,34495,1,0,3:0:0:0:
422,145,34631,1,0,1:0:0:0:
422,145,34699,1,0,1:0:0:0:
422,145,34767,5,4,3:1:0:0:
174,91,34902,2,0,B|225:66|225:66|299:81,1,132.599995953369,8|0,1:0|3:0,0:0:0:0:
441,234,35174,2,0,B|292:205,1,132.599995953369,8|0,3:1|3:0,0:0:0:0:
116,173,35445,1,8,1:3:0:0:
45,232,35581,1,8,1:3:0:0:
60,322,35717,1,8,1:3:0:0:
30,142,35853,5,4,3:2:0:0:
152,361,35988,1,8,1:0:0:0:
152,361,36056,1,8,1:0:0:0:
152,361,36124,1,8,1:0:0:0:
187,114,36260,1,8,1:0:0:0:
383,267,36396,5,8,1:3:0:0:
60,322,36599,5,8,1:3:0:0:
173,14,36803,5,8,1:3:0:0:
326,174,36939,6,0,B|276:204|276:204|197:197,1,138.125,4|0,3:1|1:0,0:0:0:0:
285,21,37210,1,8,3:1:0:0:
356,273,37346,1,0,1:0:0:0:
58,137,37482,2,0,B|124:143|124:143|160:122|160:122|260:130,1,207.1875,0|0,3:0|0:0,0:0:0:0:
260,103,37753,1,8,3:1:0:0:
204,328,37889,1,0,1:0:0:0:
99,90,38025,6,0,B|236:101,1,138.125,0|0,3:0|1:0,0:0:0:0:
356,273,38296,1,8,3:1:0:0:
451,45,38432,2,0,B|411:93|411:93|431:236,1,207.1875,0|0,1:0|0:0,0:0:0:0:
449,233,38703,1,0,1:0:0:0:
260,103,38839,1,8,3:1:0:0:
301,380,38975,1,0,1:0:0:0:
429,96,39111,6,0,B|449:233,1,138.125,4|0,3:2|1:0,0:0:0:0:
466,374,39382,1,8,3:1:0:0:
336,136,39518,2,0,B|356:273,1,138.125,0|0,1:0|3:0,0:0:0:0:
430,96,39789,1,0,1:0:0:0:
142,190,39925,2,0,B|207:180|207:180|238:152|238:152|336:137,1,207.1875,8|0,3:1|0:0,0:0:0:0:
332,117,40196,5,0,3:0:0:0:
93,133,40332,1,0,1:0:0:0:
274,352,40468,2,0,B|296:288|296:288|274:220,1,138.125,8|0,3:1|1:0,0:0:0:0:
75,221,40739,2,0,B|53:285|53:285|74:352,1,138.125,0|0,3:0|1:0,0:0:0:0:
87,368,40943,1,0,1:0:0:0:
87,368,41011,1,8,3:1:0:0:
174,286,41147,1,0,1:0:0:0:
111,45,41282,5,4,3:2:0:0:
339,126,41418,1,0,1:0:0:0:
339,126,41486,1,0,1:0:0:0:
339,126,41554,2,0,B|373:173|373:173|357:263,1,138.125,8|0,3:1|1:0,0:0:0:0:
233,89,41825,1,0,3:0:0:0:
458,165,41961,1,0,1:0:0:0:
270,328,42097,2,0,L|296:177,1,138.125,8|0,3:1|1:0,0:0:0:0:
388,55,42368,6,0,B|322:43|322:43|285:61|285:61|187:44,1,207.1875,0|0,3:0|0:0,0:0:0:0:
194,24,42640,1,8,3:1:0:0:
22,154,42776,2,0,B|191:182,1,138.125,0|0,1:0|3:0,0:0:0:0:
11,25,43047,1,0,1:0:0:0:
31,285,43183,1,8,3:1:0:0:
251,194,43319,1,0,1:0:0:0:
105,79,43454,5,0,3:0:0:0:
163,355,43590,1,0,1:0:0:0:
168,320,43658,1,0,1:0:0:0:
174,286,43726,2,0,B|219:263|219:263|304:279,1,138.125,8|0,3:1|1:0,0:0:0:0:
463,307,43997,1,0,3:0:0:0:
251,194,44133,2,0,B|386:220,1,138.125,0|8,1:0|3:1,0:0:0:0:
182,25,44405,6,0,B|167:99|167:99|177:132|177:132|161:207|161:207|152:181,1,207.1875,4|0,1:2|0:0,0:0:0:0:
150,171,44676,1,8,1:0:0:0:
356,24,44812,1,8,3:1:0:0:
312,287,44948,1,0,1:0:0:0:
312,287,45015,1,0,1:0:0:0:
312,287,45083,6,0,B|295:372,1,69.0625,0|0,3:0|0:0,0:0:0:0:
251,194,45219,2,0,B|263:126,1,69.0625,8|0,1:0|0:0,0:0:0:0:
428,86,45355,2,0,B|415:154,1,69.0625,8|0,3:1|0:0,0:0:0:0:
299,354,45491,1,8,1:0:0:0:
182,25,45626,6,0,B|148:251,1,223.762500853586,4|0,3:1|0:0,0:0:0:0:
180,384,45898,2,0,B|189:313|189:313|220:280|220:280|236:175,1,223.762500853586,8|0,3:1|0:0,0:0:0:0:
90,153,46169,2,0,B|74:258|74:258|93:298|93:298|82:369,1,223.762500853586,0|0,3:0|0:0,0:0:0:0:
149,246,46441,1,8,3:1:0:0:
182,25,46577,1,0,1:0:0:0:
361,170,46712,6,0,B|311:194|311:194|236:174,1,132.599995953369,0|0,3:0|1:0,0:0:0:0:
355,28,46984,1,8,3:1:0:0:
374,296,47120,1,0,1:0:0:0:
374,296,47187,1,0,1:0:0:0:
374,296,47255,1,0,3:0:0:0:
162,153,47391,1,0,1:0:0:0:
422,114,47527,2,0,B|446:163|446:163|426:238,1,132.599995953369,8|0,3:1|1:0,0:0:0:0:
151,178,47798,6,0,B|235:137|235:137|361:170,1,223.762500853586,0|0,3:0|0:0,0:0:0:0:
502,0,48070,2,0,B|418:40|418:40|292:8,1,223.762500853586,8|0,3:1|0:0,0:0:0:0:
205,57,48341,2,0,L|422:114,1,223.762500853586,0|0,3:0|0:0,0:0:0:0:
292,8,48613,1,8,3:1:0:0:
140,203,48749,1,0,1:0:0:0:
361,170,48884,6,0,L|216:132,1,132.599995953369,0|0,3:0|1:0,0:0:0:0:
422,114,49156,1,8,3:1:0:0:
354,328,49292,1,0,1:0:0:0:
217,133,49427,1,0,3:1:0:0:
486,201,49563,1,0,1:0:0:0:
335,329,49699,1,8,3:1:0:0:
316,331,49767,1,0,1:0:0:0:
298,333,49835,1,0,1:0:0:0:
279,335,49903,1,0,1:0:0:0:
260,337,49970,6,0,B|237:316|237:316|360:304,1,154.699995278931,4|0,3:2|1:0,0:0:0:0:
156,321,50242,1,8,3:1:0:0:
217,133,50377,6,0,B|246:123|246:123|195:236,1,149.175000569057,0|0,1:0|3:0,0:0:0:0:
282,50,50650,1,0,1:0:0:0:
415,197,50785,6,0,B|408:227|408:227|336:126,1,143.649993424225,8|0,3:1|1:0,0:0:0:0:
454,294,51056,5,0,3:0:0:0:
298,222,51192,1,0,1:0:0:0:
512,176,51328,1,8,3:1:0:0:
335,329,51463,6,0,B|197:342,1,132.599995953369,0|0,1:0|3:0,0:0:0:0:
50,113,51735,1,0,1:0:0:0:
50,113,51803,1,0,1:0:0:0:
50,113,51871,2,0,B|72:70|72:70|80:152|80:152|66:186|66:186|73:268,1,248.625009484291,8|0,3:1|0:0,0:0:0:0:
79,301,52142,5,0,3:0:0:0:
157,51,52279,1,0,1:0:0:0:
161,92,52346,1,0,1:0:0:0:
165,133,52414,2,0,B|213:109|213:109|311:132,1,154.699995278931,8|0,3:1|1:0,0:0:0:0:
490,173,52685,1,0,3:0:0:0:
229,194,52821,1,0,1:0:0:0:
229,194,52889,1,0,1:0:0:0:
229,194,52957,2,0,B|358:224,1,132.599995953369,8|0,3:1|1:0,0:0:0:0:
178,316,53228,5,0,3:0:0:0:
280,72,53364,1,8,1:0:0:0:
445,244,53500,1,8,3:1:0:0:
413,7,53636,1,0,1:0:0:0:
405,39,53703,1,0,1:0:0:0:
397,71,53771,5,8,3:1:0:0:
358,224,53907,1,8,3:0:0:0:
247,285,54043,1,8,1:3:0:0:
154,236,54178,1,8,1:3:0:0:
280,72,54314,5,4,3:2:0:0:
254,96,54381,1,0,1:0:0:0:
240,129,54449,1,0,1:0:0:0:
240,165,54517,1,0,1:0:0:0:
253,198,54586,2,0,L|329:192,1,66.2999979766846,8|0,3:1|1:0,0:0:0:0:
184,51,54721,2,0,L|108:45,1,66.2999979766846,0|0,1:0|1:0,0:0:0:0:
25,122,54857,6,0,B|13:156|13:156|19:187,1,66.2999979766846,0|0,3:0|1:0,0:0:0:0:
154,236,54993,2,0,B|166:202|166:202|160:171,1,66.2999979766846,0|0,1:0|1:0,0:0:0:0:
22,338,55129,5,8,3:1:0:0:
64,362,55196,1,0,1:0:0:0:
113,367,55264,1,0,1:0:0:0:
160,351,55332,1,0,1:0:0:0:
196,318,55401,1,0,3:0:0:0:
238,294,55468,1,0,1:0:0:0:
287,289,55536,1,0,1:0:0:0:
334,305,55604,1,0,1:0:0:0:
370,338,55672,5,8,3:1:0:0:
317,351,55739,1,0,1:0:0:0:
263,340,55807,1,0,1:0:0:0:
220,308,55875,1,0,1:0:0:0:
194,263,55943,1,0,3:0:0:0:
190,202,56011,1,0,1:0:0:0:
213,146,56079,1,0,1:0:0:0:
256,105,56147,1,0,1:0:0:0:
310,87,56215,6,0,L|399:104,1,77.3499976394654,8|0,3:1|1:0,0:0:0:0:
196,318,56350,2,0,L|107:301,1,77.3499976394654,0|0,1:0|1:0,0:0:0:0:
465,11,56486,6,0,B|481:118|481:118|450:178|450:178|472:353,1,353.6,4|8,3:1|3:1,0:0:0:0:
222,72,56893,6,0,B|385:101,1,165.750006322861,0|0,1:0|3:0,0:0:0:0:
196,318,57165,2,0,B|32:288,1,165.750006322861,0|8,1:0|3:1,0:0:0:0:
320,211,57436,1,0,1:0:0:0:
176,0,57572,6,0,B|141:50|141:50|164:152,1,165.750006322861,0|8,3:0|1:0,0:0:0:0:
219,384,57844,1,8,3:1:0:0:
385,101,57979,1,0,1:0:0:0:
54,180,58115,1,8,3:1:0:0:
363,353,58251,1,0,1:0:0:0:
392,9,58387,1,8,3:1:0:0:
198,296,58522,1,8,1:0:0:0:
138,10,58658,5,4,1:0:0:0:
177,0,58725,1,0,1:0:0:0:
218,0,58793,1,0,1:0:0:0:
257,11,58861,1,0,1:0:0:0:
289,37,58930,2,0,L|266:172,1,132.599995953369,8|0,3:1|1:0,0:0:0:0:
53,384,59201,6,0,P|60:319|109:277,1,132.599995953369,0|0,3:0|1:0,0:0:0:0:
260,357,59405,2,0,P|200:382|139:361,1,132.599995953369,0|0,1:0|1:0,0:0:0:0:
134,192,59608,2,0,P|185:231|197:294,1,132.599995953369,0|0,1:0|3:0,0:0:0:0:
53,384,59812,5,0,1:0:0:0:
53,340,59879,1,0,1:0:0:0:
73,301,59947,1,0,1:0:0:0:
109,277,60015,2,0,L|207:297,1,66.2999979766846,8|0,3:1|0:0,0:0:0:0:
325,155,60151,6,0,B|280:194|280:194|261:349,1,198.899993930054,0|0,1:0|0:0,0:0:0:0:
260,357,60423,1,0,1:0:0:0:
288,134,60558,1,8,3:1:0:0:
486,259,60694,1,0,1:0:0:0:
368,35,60830,6,0,B|312:27|312:27|260:48,1,110.5,0|0,3:0|1:0,0:0:0:0:
241,66,61034,1,0,1:0:0:0:
241,66,61101,1,8,3:1:0:0:
352,255,61237,1,0,1:0:0:0:
480,0,61373,5,4,1:2:0:0:
256,192,61554,5,4,1:2:0:0:
32,0,61735,5,4,1:2:0:0:
48,256,61916,6,0,B|35:204|35:204|60:152|60:152|48:100,1,165.75,4|0,1:2|0:0,0:0:0:0:
64,64,62187,6,0,B|79:125,1,55.25,0|0,1:0|1:0,0:0:0:0:
128,336,62323,2,0,B|112:274,1,55.25,8|0,1:0|1:0,0:0:0:0:
256,64,62459,6,0,B|256:119,1,55.25,8|0,1:3|1:0,0:0:0:0:
256,320,62595,2,0,B|255:256,1,55.25,8|0,1:3|1:0,0:0:0:0:
448,64,62730,6,0,B|433:125,1,55.25,8|0,1:0|1:0,0:0:0:0:
384,336,62866,2,0,B|399:274,1,55.25,8|0,1:0|1:0,0:0:0:0:
368,48,63002,6,0,B|256:0|256:0|144:48,1,242.98950730422,4|0,3:2|0:0,0:0:0:0:
80,80,63273,5,8,3:1:0:0:
256,192,63545,1,0,3:0:0:0:
256,96,63681,1,0,1:0:0:0:
176,240,63816,1,8,3:1:0:0:
368,48,63952,6,0,B|304:48|256:0|256:0|208:48|144:48,1,249.508999733496,4|0,1:2|1:0,0:0:0:0:
256,96,64359,5,8,3:1:0:0:
256,240,64631,2,0,L|256:192,2,48.1779989119959,0|0|8,3:0|1:0|3:1,0:0:0:0:
368,336,65174,6,0,B|256:384|256:384|144:336,1,242.98950730422,4|0,3:2|0:0,0:0:0:0:
80,304,65445,5,8,3:1:0:0:
256,192,65717,1,0,3:0:0:0:
256,288,65853,1,0,1:0:0:0:
176,144,65988,1,8,3:1:0:0:
368,336,66124,6,0,B|304:336|256:384|256:384|208:336|144:336,1,249.508999733496,4|0,1:2|1:0,0:0:0:0:
256,288,66531,5,8,3:1:0:0:
256,143,66803,2,0,L|256:191,2,48.1779989119959,0|0|8,3:0|1:0|3:1,0:0:0:0:
144,48,67346,6,0,B|256:0|256:0|368:48,1,242.98950730422,4|0,3:2|0:0,0:0:0:0:
432,80,67617,5,8,3:1:0:0:
256,192,67889,1,0,3:0:0:0:
256,96,68025,1,0,1:0:0:0:
336,240,68160,1,8,3:1:0:0:
144,48,68296,6,0,B|208:48|256:0|256:0|304:48|368:48,1,249.508999733496,4|0,1:2|1:0,0:0:0:0:
256,96,68703,5,8,3:1:0:0:
256,240,68975,2,0,L|256:192,2,48.1779989119959,0|0|8,3:0|1:0|3:1,0:0:0:0:
448,64,69518,6,0,B|432:128|464:176|464:176|432:208|432:208|464:256|448:320,1,279.564997973734,4|8,3:2|3:1,0:0:0:0:
352,272,69925,1,0,1:0:0:0:
448,208,70061,6,0,B|480:256|464:320,1,110.5,4|0,3:2|1:0,0:0:0:0:
256,272,70332,1,8,3:1:0:0:
256,0,70468,6,0,B|224:48|240:96|240:96|272:144|256:192,1,202.214991668999,4|0,1:2|0:0,0:0:0:0:
190,239,70739,1,8,1:0:0:0:
176,209,70807,1,0,1:0:0:0:
176,176,70875,2,0,P|198:160|224:152,1,55.25,8|0,1:3|0:0,0:0:0:0:
336,368,71011,2,0,P|313:383|287:391,1,55.25,8|0,1:3|0:0,0:0:0:0:
256,272,71147,1,8,1:0:0:0:
352,192,71282,1,0,1:0:0:0:
352,192,71350,1,0,1:0:0:0:
352,192,71418,6,0,P|368:215|376:241,1,55.25,8|0,1:3|0:0,0:0:0:0:
160,352,71554,2,0,P|144:329|136:303,1,55.25,8|0,1:0|0:0,0:0:0:0:
400,128,71690,6,0,B|464:144|464:144|496:240|432:320,1,252.437250847415,4|0,3:2|0:0,0:0:0:0:
352,192,71961,5,8,3:1:0:0:
160,352,72233,1,0,3:0:0:0:
176,176,72368,1,0,1:0:0:0:
336,368,72504,1,8,3:1:0:0:
112,224,72640,6,0,B|64:192|16:224|16:224|-16:320|48:384,1,275.145003988461,4|0,3:2|0:0,0:0:0:0:
67,370,72911,1,0,1:0:0:0:
39,334,72978,1,0,1:0:0:0:
30,289,73046,1,8,3:1:0:0:
331,69,73319,5,0,3:0:0:0:
352,192,73454,1,0,3:0:0:0:
256,272,73589,1,8,3:1:0:0:
432,320,73862,6,0,B|496:240|464:144|464:144|400:128,1,252.437250847415,4|0,3:2|0:0,0:0:0:0:
352,192,74133,1,8,3:1:0:0:
160,352,74405,1,0,3:0:0:0:
336,368,74541,1,0,1:0:0:0:
176,176,74676,1,8,3:1:0:0:
48,384,74812,6,0,B|-16:320|16:224|16:224|64:192|112:224,1,275.145003988461,4|0,1:2|0:0,0:0:0:0:
176,176,75083,1,0,1:0:0:0:
192,218,75150,1,0,1:0:0:0:
182,262,75219,2,0,P|165:284|142:298,1,55.25,8|0,3:1|0:0,0:0:0:0:
256,144,75355,2,0,P|266:169|267:196,1,55.25,0|0,1:0|0:0,0:0:0:0:
112,224,75491,5,0,3:0:0:0:
160,0,75626,1,0,1:0:0:0:
368,128,75762,1,8,3:1:0:0:
64,96,75898,1,0,1:0:0:0:
64,96,75966,1,0,1:0:0:0:
64,96,76034,6,0,B|128:128|188:92|188:92|180:84|180:84|240:48|304:80,1,270.504001651025,4|0,3:2|0:0,0:0:0:0:
368,128,76305,1,8,3:1:0:0:
256,272,76577,1,0,3:0:0:0:
303,79,76712,1,0,1:0:0:0:
480,208,76848,1,8,3:1:0:0:
304,352,76984,6,0,B|256:384|192:352|192:352|128:320|80:352|80:352|128:368,1,286.747507000672,4|0,1:2|0:0,0:0:0:0:
250,280,77255,1,0,1:0:0:0:
273,242,77322,1,0,1:0:0:0:
271,197,77391,5,8,3:1:0:0:
209,137,77482,5,8,1:3:0:0:
126,160,77572,5,8,1:3:0:0:
104,243,77663,6,0,B|132:268|132:268|161:143,1,132.599995953369,4|0,1:2|0:0,0:0:0:0:
92,83,77866,2,0,B|56:95|56:95|126:160,1,132.599995953369,8|0,1:0|0:0,0:0:0:0:
236,152,78070,2,0,B|243:115|243:115|152:142,1,132.599995953369,0|0,1:0|3:0,0:0:0:0:
0,190,78341,1,0,1:0:0:0:
208,294,78477,1,8,3:1:0:0:
208,294,78749,5,0,3:0:0:0:
92,83,78884,1,0,1:0:0:0:
104,243,79020,1,8,3:1:0:0:
196,32,79156,6,0,B|241:19|278:38|278:38|302:33|302:33|343:53|389:39,1,198.899993930054,4|0,1:2|0:0,0:0:0:0:
406,28,79427,5,8,1:0:0:0:
425,26,79495,1,0,1:0:0:0:
457,33,79563,1,8,1:0:0:0:
480,56,79631,1,0,1:0:0:0:
492,100,79699,1,8,1:0:0:0:
478,144,79767,1,0,1:0:0:0:
434,185,79835,5,8,1:0:0:0:
420,242,79902,1,0,1:0:0:0:
438,312,79970,1,8,1:0:0:0:
501,347,80038,1,0,1:0:0:0:
420,316,80106,1,8,1:0:0:0:
335,368,80174,1,8,1:0:0:0:
237,347,80242,1,8,1:0:0:0:
178,266,80310,1,8,1:0:0:0:
210,152,80377,6,0,B|276:114|335:161|335:161|391:145|391:145|461:186|445:263,1,309.399990557862,4|8,3:1|3:1,0:0:0:0:
244,383,80785,2,0,P|174:342|154:264,1,154.699995278931,0|0,1:0|3:0,0:0:0:0:
377,125,81056,2,0,P|446:166|466:244,1,154.699995278931,0|8,1:0|3:1,0:0:0:0:
90,56,81328,6,0,B|134:36|174:54|174:54|208:46|208:46|260:74|312:43,1,232.049992918396,0|0,1:0|0:0,0:0:0:0:
331,29,81599,1,0,1:0:0:0:
136,135,81735,2,0,B|105:193|140:249|140:249|162:223,1,154.699995278931,8|0,3:1|1:0,0:0:0:0:
0,66,82006,1,0,3:0:0:0:
105,330,82142,1,0,1:0:0:0:
143,337,82209,1,0,1:0:0:0:
179,328,82278,2,0,P|210:316|234:293,1,66.2999979766846,8|0,3:1|0:0,0:0:0:0:
301,61,82414,2,0,P|295:94|303:126,1,66.2999979766846,0|0,1:0|0:0,0:0:0:0:
463,306,82549,6,0,B|501:283|501:283|523:227|487:178,1,154.699995278931,0|0,3:0|1:0,0:0:0:0:
327,29,82821,2,0,B|289:52|289:52|267:108|302:156,1,154.699995278931,8|0,3:1|1:0,0:0:0:0:
319,174,83025,1,0,1:0:0:0:
319,174,83092,1,0,3:0:0:0:
485,335,83228,1,0,1:0:0:0:
479,71,83364,1,8,3:1:0:0:
213,197,83500,6,0,B|286:233|355:192|355:192|346:182|346:182|414:141|488:177,1,309.399990557862,4|0,1:2|1:0,0:0:0:0:
278,99,83907,1,8,3:1:0:0:
351,343,84043,1,0,1:0:0:0:
424,138,84178,1,0,3:0:0:0:
172,265,84314,1,0,1:0:0:0:
172,265,84382,1,0,1:0:0:0:
172,265,84450,2,0,B|134:242|134:242|112:186|147:137,1,154.699995278931,8|0,3:1|1:0,0:0:0:0:
442,350,84721,6,0,B|382:377|329:353|329:353|284:364|284:364|215:327|145:368,1,309.399990557862,4|8,3:2|3:1,0:0:0:0:
378,160,85129,2,0,B|347:218|382:274|382:274|404:248,1,154.699995278931,0|0,1:0|3:0,0:0:0:0:
335,95,85400,1,0,1:0:0:0:
335,95,85468,1,0,1:0:0:0:
335,95,85536,2,0,B|288:137|302:202,1,66.2999979766846,8|0,3:1|0:0,0:0:0:0:
487,284,85672,2,0,B|505:223|461:174,1,66.2999979766846,0|0,1:0|0:0,0:0:0:0:
392,27,85807,6,0,B|353:-4|303:12|303:12|245:59|174:30,1,232.049992918396,0|0,3:0|0:0,0:0:0:0:
153,15,86079,1,8,3:1:0:0:
167,266,86215,1,0,1:0:0:0:
335,95,86350,2,0,B|290:103|290:103|254:154|283:209,1,154.699995278931,0|0,3:0|1:0,0:0:0:0:
226,384,86622,1,8,3:1:0:0:
115,156,86758,1,0,1:0:0:0:
115,156,86825,1,0,1:0:0:0:
115,156,86893,6,0,B|98:127|101:91|101:91|54:132|65:195|65:195|104:259|85:317,1,309.399990557862,4|8,3:2|3:1,0:0:0:0:
0,271,87301,1,0,1:0:0:0:
189,107,87436,1,0,3:0:0:0:
345,274,87572,1,0,1:0:0:0:
345,274,87640,1,0,1:0:0:0:
345,274,87708,2,0,P|355:308|347:342,1,66.2999979766846,8|0,3:1|0:0,0:0:0:0:
163,344,87844,2,0,P|187:318|220:308,1,66.2999979766846,0|0,1:0|0:0,0:0:0:0:
459,370,87979,5,0,3:0:0:0:
258,210,88115,1,8,1:0:0:0:
495,149,88251,1,8,3:1:0:0:
394,14,88387,1,0,1:0:0:0:
388,46,88454,1,0,1:0:0:0:
382,79,88522,5,8,1:0:0:0:
341,51,88589,1,0,1:0:0:0:
292,46,88657,1,8,1:3:0:0:
246,62,88725,1,8,1:3:0:0:
212,98,88793,1,8,1:3:0:0:
171,125,88861,1,0,1:0:0:0:
122,131,88929,1,8,1:0:0:0:
75,114,88997,1,0,1:0:0:0:
41,78,89065,6,0,P|71:47|104:38,1,71.8249967121126,4|0,3:1|1:0,0:0:0:0:
382,79,89201,1,0,1:0:0:0:
122,325,89337,6,0,P|109:284|118:251,1,71.8249967121126,8|0,3:1|1:0,0:0:0:0:
292,31,89473,1,0,1:0:0:0:
375,379,89608,6,0,P|333:369|309:345,1,71.8249967121126,0|0,3:0|1:0,0:0:0:0:
213,91,89744,1,8,1:0:0:0:
213,91,89812,1,0,1:0:0:0:
213,91,89880,2,0,P|201:131|210:164,1,71.8249967121126,0|0,3:0|1:0,0:0:0:0:
509,276,90015,6,0,B|470:266|434:283|434:283|407:268|407:268|376:283|334:273,1,182.325005564118,4|0,1:2|0:0,0:0:0:0:
262,226,90288,1,8,1:3:0:0:
308,188,90355,1,8,1:3:0:0:
368,192,90423,1,8,1:3:0:0:
484,350,90558,1,8,1:3:0:0:
330,384,90694,1,8,1:3:0:0:
236,318,90830,1,8,1:3:0:0:
254,219,90966,5,8,1:2:0:0:
257,204,91033,1,8,1:2:0:0:
260,189,91101,1,8,1:2:0:0:
263,174,91169,1,8,1:2:0:0:
266,159,91237,2,0,P|225:138|180:146,1,77.3499976394654,8|0,3:1|1:0,0:0:0:0:
313,384,91373,5,0,1:0:0:0:
313,384,91441,1,0,1:0:0:0:
313,384,91509,2,0,P|351:358|367:316,1,77.3499976394654,8|0,3:1|1:0,0:0:0:0:
93,313,91644,5,0,1:0:0:0:
93,313,91712,1,0,1:0:0:0:
93,313,91780,2,0,P|95:359|124:393,1,77.3499976394654,8|0,3:1|1:0,0:0:0:0:
383,195,91916,1,8,1:0:0:0:
104,100,92052,1,8,3:1:0:0:
247,341,92187,6,0,B|273:297|262:248|262:248|284:219|284:219|278:181|297:140|297:140|265:158,1,248.625009484291,4|0,1:2|0:0,0:0:0:0:
383,194,92459,1,8,1:3:0:0:
396,155,92526,1,8,1:3:0:0:
393,114,92594,1,8,1:3:0:0:
219,29,92730,1,0,1:0:0:0:
178,283,92866,5,8,3:1:0:0:
453,333,93001,1,0,1:0:0:0:
267,158,93137,1,0,3:0:0:0:
488,195,93273,1,0,1:0:0:0:
219,28,93409,6,0,B|184:43|184:43|153:88|177:143,1,143.649993424225,4|0,3:2|1:0,0:0:0:0:
302,237,93681,1,8,3:1:0:0:
88,188,93816,2,0,P|138:236|209:238,1,143.649993424225,0|0,1:0|3:0,0:0:0:0:
324,76,94088,1,0,1:0:0:0:
88,73,94224,1,8,3:1:0:0:
261,309,94359,1,0,1:0:0:0:
293,28,94495,6,0,B|328:43|328:43|359:88|335:143,1,121.550003709412,4|0,3:2|1:0,0:0:0:0:
177,143,94767,1,8,3:1:0:0:
431,167,94902,2,0,P|381:215|310:217,1,121.550003709412,0|0,1:0|3:0,0:0:0:0:
461,64,95174,1,8,1:0:0:0:
388,313,95310,1,0,3:0:0:0:
260,106,95445,1,0,1:0:0:0:
260,106,95513,1,0,1:0:0:0:
260,106,95581,5,4,3:1:0:0:
139,199,95717,2,0,B|103:212|103:212|119:161|176:143,1,143.649993424225,8|0,1:0|3:0,0:0:0:0:
373,199,95988,2,0,B|408:212|408:212|392:161|335:143,1,143.649993424225,8|0,1:0|3:0,0:0:0:0:
28,230,96260,5,8,1:3:0:0:
93,291,96396,1,8,1:3:0:0:
178,266,96532,1,8,1:3:0:0:
72,377,96667,1,4,3:2:0:0:
114,205,96803,1,8,1:0:0:0:
119,183,96871,1,8,1:0:0:0:
124,161,96939,1,8,1:0:0:0:
243,327,97074,1,8,1:0:0:0:
8,316,97210,5,8,1:3:0:0:
256,64,97391,5,8,1:3:0:0:
432,192,97617,5,8,1:3:0:0:
365,249,97753,5,0,3:0:0:0:
343,198,97844,1,0,1:0:0:0:
356,144,97934,1,0,1:0:0:0:
432,192,98024,5,0,3:0:0:0:
453,243,98115,1,0,1:0:0:0:
440,297,98205,1,0,1:0:0:0:
398,332,98296,6,0,L|309:326,1,73.6666666666667,8|0,3:1|1:0,0:0:0:0:
217,239,98477,1,0,1:0:0:0:
291,244,98568,2,0,L|379:249,1,73.6666666666667,0|0,3:0|1:0,0:0:0:0:
177,318,98749,1,0,1:0:0:0:
251,323,98839,2,0,L|339:328,2,73.6666666666667,0|0|0,3:0|1:0|1:0,0:0:0:0:
128,243,99111,5,0,3:0:0:0:
121,206,99201,1,0,1:0:0:0:
115,170,99291,1,0,1:0:0:0:
170,114,99383,5,8,3:1:0:0:
174,84,99473,1,0,1:0:0:0:
179,55,99563,1,0,1:0:0:0:
26,91,99654,5,0,3:0:0:0:
37,112,99744,1,0,1:0:0:0:
48,133,99834,1,0,1:0:0:0:
115,170,99925,6,0,L|181:163,1,58.9333333333333,4|0,3:2|1:0,0:0:0:0:
256,110,100106,1,0,1:0:0:0:
270,111,100196,2,0,L|335:118,1,51.5666650929769,0|0,3:0|1:0,0:0:0:0:
402,170,100378,1,0,1:0:0:0:
416,169,100468,2,0,L|479:161,1,44.1999986511231,8|0,3:1|1:0,0:0:0:0:
352,46,100649,1,0,1:0:0:0:
338,45,100739,2,0,L|296:40,1,29.4666666666667,0|0,3:0|1:0,0:0:0:0:
341,238,100920,1,0,1:0:0:0:
411,192,101011,6,2,B|447:247|421:311|421:311|401:298|401:298|343:345|284:301,1,276.25,4|0,3:2|3:0,0:1:0:0:
115,170,101418,1,0,1:0:0:0:
321,119,101554,1,8,3:1:0:0:
171,287,101690,1,0,1:0:0:0:
74,91,101825,2,0,P|41:122|43:222,1,138.125,8|0,3:1|1:0,0:0:0:0:
194,129,102097,5,0,3:0:0:0:
162,95,102187,1,0,1:0:0:0:
119,82,102277,1,0,1:0:0:0:
68,244,102369,5,0,3:0:0:0:
111,257,102459,1,0,1:0:0:0:
156,248,102550,1,0,1:0:0:0:
234,208,102640,5,8,3:1:0:0:
277,195,102730,1,0,1:0:0:0:
322,204,102821,1,0,1:0:0:0:
400,244,102911,5,0,3:0:0:0:
443,257,103001,1,0,1:0:0:0:
488,248,103092,1,0,1:0:0:0:
447,169,103183,5,4,3:2:0:0:
400,244,103273,1,0,1:0:0:0:
441,323,103364,1,0,1:0:0:0:
465,286,103454,6,0,L|451:411,1,110.5,0|0,3:0|1:0,0:0:0:0:
322,204,103726,5,8,3:1:0:0:
318,176,103816,1,0,1:0:0:0:
315,149,103906,1,0,1:0:0:0:
224,125,103997,5,0,3:0:0:0:
234,208,104088,1,0,1:0:0:0:
244,291,104178,1,0,1:0:0:0:
254,374,104269,6,0,L|336:383,1,73.6666666666667,0|0,3:0|1:0,0:0:0:0:
244,291,104450,1,0,1:0:0:0:
170,283,104540,2,0,L|88:274,1,73.6666666666667,0|0,3:0|1:0,0:0:0:0:
234,208,104722,1,0,1:0:0:0:
308,216,104812,6,0,L|422:228,1,110.5,8|0,3:1|1:0,0:0:0:0:
224,125,105083,1,0,3:0:0:0:
244,291,105219,1,0,1:0:0:0:
21,104,105355,6,2,B|38:145|19:185|19:185|29:222|29:222|0:268|23:316,1,221,4|0,3:2|3:0,0:1:0:0:
151,280,105762,1,0,1:0:0:0:
124,277,105829,1,0,1:0:0:0:
96,274,105897,5,8,3:1:0:0:
224,125,106034,1,0,1:0:0:0:
254,374,106169,1,8,3:1:0:0:
159,199,106305,1,8,1:0:0:0:
417,228,106441,6,0,L|308:216,1,110.5,4|0,3:2|1:0,0:0:0:0:
145,82,106712,1,0,3:0:0:0:
173,51,106779,1,0,1:0:0:0:
211,36,106847,1,0,1:0:0:0:
252,41,106915,1,0,1:0:0:0:
287,63,106985,5,8,3:1:0:0:
319,98,107052,1,0,1:0:0:0:
365,116,107120,1,8,1:3:0:0:
414,110,107188,1,0,1:0:0:0:
456,84,107256,5,8,3:0:0:0:
430,75,107323,1,0,1:0:0:0:
402,78,107391,1,8,1:3:0:0:
379,93,107459,1,0,1:0:0:0:
365,116,107527,5,4,3:2:0:0:
402,155,107594,1,0,1:0:0:0:
414,209,107662,1,0,1:0:0:0:
397,260,107730,1,0,1:0:0:0:
356,296,107798,5,0,3:0:0:0:
342,297,107865,1,0,1:0:0:0:
328,297,107933,1,0,1:0:0:0:
314,298,108002,1,0,1:0:0:0:
301,299,108070,5,8,3:1:0:0:
264,339,108138,1,0,1:0:0:0:
212,357,108206,1,8,1:3:0:0:
158,349,108274,1,0,1:0:0:0:
114,317,108341,5,8,3:3:0:0:
106,277,108408,1,0,1:0:0:0:
126,241,108476,1,8,1:3:0:0:
164,227,108545,1,0,1:0:0:0:
202,241,108613,5,4,3:2:0:0:
168,245,108680,1,0,1:0:0:0:
133,249,108748,1,0,1:0:0:0:
99,252,108816,1,0,1:0:0:0:
65,256,108884,1,0,3:0:0:0:
263,166,109020,1,0,1:0:0:0:
65,76,109156,5,8,3:1:0:0:
99,79,109224,1,0,1:0:0:0:
134,83,109292,1,8,1:3:0:0:
168,87,109360,1,8,1:3:0:0:
203,91,109427,1,8,3:0:0:0:
19,166,109563,1,8,1:3:0:0:
304,244,109699,5,4,3:2:0:0:
331,221,109766,1,0,1:0:0:0:
346,191,109834,1,0,1:0:0:0:
349,157,109902,1,0,1:0:0:0:
339,124,109970,2,0,L|194:109,1,110.5,0|0,3:0|1:0,0:0:0:0:
340,310,110242,2,0,L|449:298,1,110.5,8|0,3:1|1:0,0:0:0:0:
478,299,110445,1,0,1:0:0:0:
478,299,110513,1,8,3:1:0:0:
339,124,110649,1,8,1:0:0:0:
512,0,110785,6,0,L|502:73,2,73.6666666666667,4|0|0,3:2|1:0|1:0,0:0:0:0:
487,155,111056,1,0,3:0:0:0:
331,69,111192,1,0,1:0:0:0:
335,97,111259,1,0,1:0:0:0:
339,124,111328,2,0,L|353:233,1,110.5,8|0,3:1|1:0,0:0:0:0:
158,233,111600,1,0,3:0:0:0:
161,206,111667,1,0,1:0:0:0:
165,178,111735,1,0,1:0:0:0:
169,151,111803,1,0,1:0:0:0:
173,123,111871,6,2,B|190:164|173:196|173:196|190:219|190:219|154:272|182:333,1,221,4|0,3:2|3:0,0:1:0:0:
269,282,112278,1,0,1:0:0:0:
101,166,112414,1,8,3:1:0:0:
101,166,112482,1,0,1:0:0:0:
101,166,112549,1,0,1:0:0:0:
285,78,112685,1,0,3:0:0:0:
51,39,112821,1,0,3:0:0:0:
272,166,112957,5,4,3:2:0:0:
299,164,113025,1,0,1:0:0:0:
325,155,113093,1,0,1:0:0:0:
347,139,113161,1,0,1:0:0:0:
365,117,113229,5,0,1:0:0:0:
395,89,113296,1,0,1:0:0:0:
435,82,113364,1,0,1:0:0:0:
474,96,113432,1,0,1:0:0:0:
499,129,113500,5,8,1:0:0:0:
506,177,113567,1,0,1:0:0:0:
490,222,113635,1,0,1:0:0:0:
451,253,113703,1,0,1:0:0:0:
404,261,113771,6,0,L|425:155,1,88.4,0|0,3:0|1:0,0:0:0:0:
268,0,113907,2,0,L|289:106,1,88.4,0|0,1:0|1:0,0:0:0:0:
131,368,114043,6,2,B|108:308|147:257|147:257|137:199|137:199|171:128|133:70,1,309.399990557862,4|0,3:2|3:1,0:1:0:0:
299,333,114450,1,0,1:0:0:0:
261,328,114517,1,0,1:0:0:0:
223,324,114585,1,8,3:1:0:0:
0,294,114721,1,0,1:0:0:0:
229,212,114857,1,8,3:1:0:0:
40,134,114993,1,0,1:0:0:0:
268,0,115129,6,0,P|343:1|396:55,1,154.699995278931,4|0,3:2|1:0,0:0:0:0:
394,79,115332,1,0,1:0:0:0:
394,79,115400,1,8,3:1:0:0:
307,238,115536,2,0,B|276:164|276:164|304:95,1,154.699995278931,0|0,3:0|1:0,0:0:0:0:
484,95,115807,2,0,B|512:164|512:164|481:238,1,154.699995278931,0|8,1:0|3:1,0:0:0:0:
400,343,116079,1,0,1:0:0:0:
396,167,116215,5,0,3:0:0:0:
232,315,116350,1,0,1:0:0:0:
232,315,116418,1,0,1:0:0:0:
232,315,116486,2,0,B|302:343|302:343|401:323,1,154.699995278931,8|0,3:1|1:0,0:0:0:0:
148,89,116758,2,0,B|154:162|154:162|131:202|131:202|140:314,1,232.049992918396,0|0,3:0|1:0,0:0:0:0:
126,336,117029,2,0,B|119:258,1,66.2999979766846,8|0,3:1|1:0,0:0:0:0:
61,41,117165,2,0,B|67:118,1,66.2999979766846,0|0,1:0|1:0,0:0:0:0:
300,182,117301,6,2,B|256:199|214:179|214:179|176:190|176:190|127:159|77:184,1,232.049992918396,4|0,3:2|3:0,0:1:0:0:
58,206,117572,1,8,3:1:0:0:
259,102,117708,1,0,1:0:0:0:
40,18,117844,2,0,B|199:30,1,154.699995278931,0|0,3:0|1:0,0:0:0:0:
424,91,118115,1,8,3:1:0:0:
259,211,118251,1,0,1:0:0:0:
446,4,118387,6,0,P|502:52|500:133,1,154.699995278931,0|0,3:0|1:0,0:0:0:0:
496,148,118590,1,0,1:0:0:0:
496,148,118658,1,8,3:1:0:0:
209,266,118794,6,2,B|251:299|300:274|300:274|337:293|337:293|379:273|424:292|424:292|468:312|508:293,1,309.399990557862,4|0,1:2|1:0,0:1:0:0:
383,372,119201,1,8,3:1:0:0:
349,148,119337,1,0,1:0:0:0:
132,201,119473,6,0,B|109:247|109:247|137:357,1,154.699995278931,4|0,3:2|1:0,0:0:0:0:
145,371,119676,1,0,1:0:0:0:
145,371,119744,1,8,3:1:0:0:
237,162,119880,6,2,B|249:137|245:115|245:115|252:109|252:109|251:90|251:90|259:85|248:56|248:56|259:50|259:50|263:31|259:18|259:18|264:0,1,176.8,0|0,1:2|3:0,0:1:0:0:
117,185,120151,1,0,1:0:0:0:
349,148,120287,1,8,3:1:0:0:
131,9,120423,1,0,1:0:0:0:
397,80,120558,6,0,B|429:133|429:133|408:234,1,154.699995278931,0|0,3:0|1:0,0:0:0:0:
406,249,120762,1,0,1:0:0:0:
406,249,120830,1,8,3:1:0:0:
69,253,120966,6,0,B|37:200|37:200|58:99,1,154.699995278931,0|0,1:0|3:0,0:0:0:0:
240,173,121237,1,0,1:0:0:0:
240,173,121305,1,0,1:0:0:0:
240,173,121373,2,0,L|256:338,1,154.699995278931,8|0,3:1|1:0,0:0:0:0:
226,63,121644,5,0,1:0:0:0:
410,253,121780,1,0,1:0:0:0:
410,253,121848,1,0,1:0:0:0:
410,253,121916,1,8,3:1:0:0:
174,369,122052,2,0,L|159:215,1,154.699995278931,0|0,1:0|3:0,0:0:0:0:
349,148,122323,1,0,1:0:0:0:
255,327,122459,1,8,3:1:0:0:
138,85,122595,1,0,1:0:0:0:
386,74,122730,6,0,P|433:145|405:216,1,165.750006322861,0|8,3:0|1:0,0:0:0:0:
226,63,123002,1,8,3:1:0:0:
491,22,123138,1,0,1:0:0:0:
297,241,123273,1,8,3:1:0:0:
308,47,123409,1,0,1:0:0:0:
459,294,123545,1,8,3:1:0:0:
151,198,123681,1,8,1:0:0:0:
151,198,123749,1,0,1:0:0:0:
151,198,123816,6,0,B|139:237|139:237|146:276,1,77.3499976394654,4|0,3:2|1:0,0:0:0:0:
302,121,123952,2,0,B|314:82|314:82|307:43,1,77.3499976394654,0|0,1:0|1:0,0:0:0:0:
74,188,124088,6,0,L|166:199,1,77.3499976394654,8|0,3:1|1:0,0:0:0:0:
378,111,124224,2,0,L|286:122,1,77.3499976394654,0|0,1:0|1:0,0:0:0:0:
50,283,124359,5,0,3:0:0:0:
60,319,124426,1,0,1:0:0:0:
85,349,124494,1,0,1:0:0:0:
120,364,124562,1,0,1:0:0:0:
158,364,124631,5,8,3:1:0:0:
196,350,124698,1,0,1:0:0:0:
229,323,124766,1,0,1:0:0:0:
246,285,124834,1,0,1:0:0:0:
246,244,124902,5,0,3:0:0:0:
246,199,124970,1,0,1:0:0:0:
265,158,125038,1,0,1:0:0:0:
301,128,125106,1,0,1:0:0:0:
343,112,125174,5,8,3:1:0:0:
386,112,125242,1,0,1:0:0:0:
427,131,125310,1,0,1:0:0:0:
457,166,125377,1,0,1:0:0:0:
474,209,125445,5,0,3:0:0:0:
431,237,125513,1,0,1:0:0:0:
381,247,125581,1,0,1:0:0:0:
332,236,125649,1,0,1:0:0:0:
290,204,125717,5,8,3:1:0:0:
228,163,125785,1,0,1:0:0:0:
156,149,125853,1,0,1:0:0:0:
85,165,125920,1,0,1:0:0:0:
25,211,125988,5,0,3:0:0:0:
62,181,126056,1,0,1:0:0:0:
83,138,126124,1,0,1:0:0:0:
82,90,126192,1,0,1:0:0:0:
59,47,126260,6,0,L|40:129,1,77.3499976394654,8|0,3:1|1:0,0:0:0:0:
138,224,126396,2,0,L|156:149,1,77.3499976394654,0|0,1:0|1:0,0:0:0:0:
246,10,126531,5,0,3:0:0:0:
271,81,126599,1,0,1:0:0:0:
336,119,126667,1,0,1:0:0:0:
411,106,126735,1,0,1:0:0:0:
459,48,126803,5,8,3:1:0:0:
389,22,126872,1,0,1:0:0:0:
317,48,126939,1,0,1:0:0:0:
280,114,127006,1,0,1:0:0:0:
295,189,127074,5,0,3:0:0:0:
310,264,127142,1,0,1:0:0:0:
273,330,127209,1,8,1:0:0:0:
201,356,127277,1,0,1:0:0:0:
117,342,127346,5,8,3:1:0:0:
74,266,127414,1,0,1:0:0:0:
73,182,127482,1,0,1:0:0:0:
127,118,127550,1,0,1:0:0:0:
209,104,127617,6,0,L|193:225,1,88.4,8|0,3:1|1:0,0:0:0:0:
418,366,127753,2,0,L|402:244,1,88.4,8|0,1:1|1:0,0:0:0:0:
127,118,127889,5,8,3:1:0:0:
124,139,127956,1,0,1:0:0:0:
121,161,128024,1,0,1:0:0:0:
118,183,128092,1,0,1:0:0:0:
115,205,128160,6,0,B|162:180|202:205|202:205|247:234|303:205,1,198.899993930054,4|0,3:1|1:0,0:0:0:0:
292,16,128364,2,0,P|250:66|251:131,1,132.599995953369,0|0,1:3|1:0,0:0:0:0:
419,214,128568,2,0,P|397:152|340:120,1,132.599995953369,0|4,1:3|3:2,0:0:0:0:
191,350,128839,5,0,1:0:0:0:
191,350,128907,2,0,B|172:370|172:370|158:261,1,132.599995953369,0|0,1:3|1:0,0:0:0:0:
47,241,129111,2,0,B|55:306,1,66.2999979766846,0|0,1:3|0:0,0:0:0:0:
270,290,129246,6,0,B|253:158,1,110.5,4|0,1:2|1:0,0:0:0:0:
144,156,129450,2,0,B|158:266,1,110.5,0|0,1:3|1:0,0:0:0:0:
216,72,129654,1,0,1:3:0:0:
30,109,129790,5,4,1:2:0:0:
34,142,129857,1,0,1:0:0:0:
38,175,129925,1,0,1:0:0:0:
42,208,129993,1,0,1:0:0:0:
47,241,130061,6,0,L|111:257,1,44.2,8|0,3:1|1:0,0:0:0:0:
255,180,130196,2,0,L|330:199,1,44.2,0|0,1:0|1:0,0:0:0:0:
416,368,130332,5,4,3:2:0:0:
439,353,130400,1,0,1:0:0:0:
457,332,130467,1,0,1:0:0:0:
468,307,130535,1,0,1:0:0:0:
472,280,130603,1,8,3:1:0:0:
468,252,130671,1,0,1:0:0:0:
457,227,130739,1,0,1:0:0:0:
439,207,130807,1,0,1:0:0:0:
416,192,130876,5,4,3:2:0:0:
256,384,131056,5,4,1:2:0:0:
96,192,131237,5,4,3:2:0:0:
193,41,131418,6,0,B|237:26|282:41|282:41|312:26|312:26|357:41|417:26,1,232.049992918396,4|0,1:2|0:0,0:0:0:0:
432,32,131690,6,0,L|421:108,1,66.2999979766846,0|0,1:0|1:0,0:0:0:0:
432,352,131825,2,0,L|421:275,1,66.2999979766846,8|0,1:0|1:0,0:0:0:0:
336,128,131961,6,0,L|325:204,1,66.2999979766846,8|0,1:3|1:0,0:0:0:0:
186,204,132097,2,0,L|174:129,1,66.2999979766846,8|0,1:3|1:0,0:0:0:0:
80,32,132233,6,0,L|90:108,1,66.2999979766846,8|0,1:0|1:0,0:0:0:0:
80,352,132368,2,0,L|90:275,1,66.2999979766846,8|0,1:0|1:0,0:0:0:0:
0,192,132504,6,0,B|64:176|64:176|112:208|112:208|208:192,1,220.447490917843,4|0,3:2|0:0,0:0:0:0:
304,176,132776,5,8,3:1:0:0:
208,352,133047,1,0,3:0:0:0:
112,208,133183,1,0,1:0:0:0:
304,256,133319,1,8,3:1:0:0:
0,192,133454,6,0,B|32:192|64:176|64:176|112:208|112:208|160:176|208:192,1,225.420001375854,4|0,1:2|1:0,0:0:0:0:
16,112,133862,5,8,3:1:0:0:
176,272,134133,2,0,L|176:336,2,48.1779989119959,0|0|8,3:0|1:0|3:1,0:0:0:0:
512,192,134676,6,0,B|448:176|448:176|400:208|400:208|304:192,1,220.447490917843,4|0,3:2|0:0,0:0:0:0:
208,176,134948,5,8,3:1:0:0:
304,352,135219,1,0,3:0:0:0:
400,208,135355,1,0,1:0:0:0:
208,256,135491,1,8,3:1:0:0:
512,192,135626,6,0,B|480:192|448:176|448:176|400:208|400:208|352:176|304:192,1,225.420001375854,4|0,1:2|1:0,0:0:0:0:
496,112,136034,5,8,3:1:0:0:
336,272,136305,2,0,L|336:336,2,48.1779989119959,0|0|8,3:0|1:0|3:1,0:0:0:0:
0,192,136848,6,0,B|64:208|64:208|112:176|112:176|208:192,1,220.447490917843,4|0,3:2|0:0,0:0:0:0:
304,208,137120,5,8,3:1:0:0:
208,32,137391,1,0,3:0:0:0:
112,176,137527,1,0,1:0:0:0:
304,128,137663,1,8,3:1:0:0:
0,192,137798,6,0,B|32:192|64:208|64:208|112:176|112:176|160:208|208:192,1,225.420001375854,4|0,1:2|1:0,0:0:0:0:
16,272,138206,5,8,3:1:0:0:
176,112,138477,2,0,L|176:48,2,48.1779989119959,0|0|8,3:0|1:0|3:1,0:0:0:0:
400,368,139020,6,0,B|423:275|423:275|376:206|376:206|396:92,1,293.929987890458,4|8,3:2|3:1,0:0:0:0:
328,276,139427,1,0,1:0:0:0:
480,48,139563,2,0,B|455:192,1,146.964993945229,4|0,3:2|1:0,0:0:0:0:
352,32,139835,1,8,3:1:0:0:
256,320,139970,6,0,B|240:272|256:240|256:240|240:208|240:208|272:160|256:112,1,218.789999332306,4|0,1:2|0:0,0:0:0:0:
224,48,140243,1,8,1:0:0:0:
197,72,140310,1,0,1:0:0:0:
184,106,140377,2,0,L|166:192,1,55.25,8|0,1:3|0:0,0:0:0:0:
32,320,140513,2,0,L|43:265,1,55.25,8|0,1:3|0:0,0:0:0:0:
96,64,140649,1,8,1:0:0:0:
112,352,140785,1,0,1:0:0:0:
112,352,140853,1,0,1:0:0:0:
112,352,140920,6,0,L|123:297,1,55.25,8|0,1:3|0:0,0:0:0:0:
176,48,141056,1,8,1:0:0:0:
240,352,141192,6,0,B|192:384|192:384|208:320|208:320|192:272|192:272|224:240|224:240|240:176,1,285.090004350128,4|0,3:2|0:0,0:0:0:0:
256,96,141463,5,8,3:1:0:0:
320,304,141735,1,0,3:0:0:0:
144,256,141871,1,0,1:0:0:0:
320,160,142007,1,8,3:1:0:0:
400,352,142142,6,0,B|432:384|432:384|448:320|416:288|416:288|384:256|400:192,1,248.625009484291,4|0,3:2|0:0,0:0:0:0:
469,145,142414,1,0,1:0:0:0:
483,183,142481,1,0,1:0:0:0:
478,224,142549,1,8,3:1:0:0:
320,32,142821,5,0,3:0:0:0:
256,96,142957,1,0,3:0:0:0:
320,160,143092,1,8,3:1:0:0:
144,80,143364,6,0,B|192:48|192:48|176:112|176:112|192:160|192:160|160:192|160:192|144:256,1,285.090004350128,4|0,3:2|0:0,0:0:0:0:
128,336,143635,5,8,3:1:0:0:
64,128,143907,1,0,3:0:0:0:
240,176,144043,1,0,1:0:0:0:
64,272,144179,1,8,3:1:0:0:
320,160,144314,6,0,B|288:128|288:128|272:192|304:224|304:224|336:256|320:320,1,248.625009484291,4|0,1:2|0:0,0:0:0:0:
251,367,144586,1,0,1:0:0:0:
236,329,144653,1,0,1:0:0:0:
241,288,144721,6,0,L|295:277,1,55.25,8|0,3:1|0:0,0:0:0:0:
512,288,144857,2,0,L|457:277,1,55.25,0|0,1:0|0:0,0:0:0:0:
192,224,144993,1,0,3:0:0:0:
384,96,145129,1,0,1:0:0:0:
368,384,145264,1,8,3:1:0:0:
192,112,145400,1,0,1:0:0:0:
192,112,145468,1,0,1:0:0:0:
192,112,145536,6,0,B|240:144|288:128|288:128|336:96|336:96|384:80|432:112,1,260.227500992689,4|0,3:2|0:0,0:0:0:0:
480,176,145807,1,8,3:1:0:0:
256,32,146079,1,0,3:0:0:0:
368,192,146215,1,0,1:0:0:0:
464,32,146350,1,8,3:1:0:0:
192,112,146486,6,0,B|176:176|208:224|208:224|192:256|192:256|224:304|192:368,1,270.172499793875,4|0,1:2|0:0,0:0:0:0:
29,311,146758,1,0,1:0:0:0:
74,311,146825,1,0,1:0:0:0:
120,311,146893,5,8,3:1:0:0:
192,256,146984,5,8,1:3:0:0:
167,167,147074,5,8,1:3:0:0:
84,133,147165,6,0,B|61:166|61:166|106:206|179:182,1,154.699995278931,4|0,1:2|0:0,0:0:0:0:
278,65,147368,6,0,B|262:28|262:28|204:47|189:122,1,154.699995278931,0|0,1:0|0:0,0:0:0:0:
240,266,147572,6,0,B|279:270|279:270|292:211|234:160,1,154.699995278931,8|0,1:0|3:0,0:0:0:0:
85,134,147844,1,0,1:0:0:0:
354,37,147979,1,8,3:1:0:0:
354,37,148251,5,0,3:0:0:0:
240,266,148387,1,0,1:0:0:0:
157,4,148522,1,8,3:1:0:0:
394,204,148658,1,4,1:0:0:0:
256,192,148726,12,2,149880,2:0:0:0:
