osu file format v14

[General]
AudioFilename: audio.mp3
AudioLeadIn: 0
PreviewTime: 53407
Countdown: 1
SampleSet: Soft
StackLeniency: 0.7
Mode: 0
LetterboxInBreaks: 0
WidescreenStoryboard: 0

[Editor]
Bookmarks: 8824,17851,35629,53407,71185,88962,106740
DistanceSpacing: 0.6
BeatDivisor: 4
GridSize: 4
TimelineZoom: 2.2

[Metadata]
Title:Dat $tick
TitleUnicode:Dat $tick
Artist:Rich Chigga
ArtistUnicode:Rich Chigga
Creator:Bullhax
Version:Chigga
Source:
Tags:hip hop rap brian imanuel stick
BeatmapID:1358424
BeatmapSetID:640531

[Difficulty]
HPDrainRate:6
CircleSize:4.2
OverallDifficulty:8.7
ApproachRate:9.3
SliderMultiplier:2.1
SliderTickRate:1

[Events]
//Background and Video events
0,0,"rich chigga.jpg",0,0
//Break Periods
//Storyboard Layer 0 (Background)
//Storyboard Layer 1 (Fail)
//Storyboard Layer 2 (Pass)
//Storyboard Layer 3 (Foreground)
//Storyboard Sound Samples

[TimingPoints]
74,555.555555555556,4,2,0,100,1,0
97851,-133.333333333333,4,2,0,100,0,0
106185,-100,4,2,0,100,0,0

[HitObjects]
90,167,8962,5,0,0:0:0:0:
86,183,9101,1,0,0:0:0:0:
82,198,9240,1,0,0:0:0:0:
77,213,9518,1,0,0:0:0:0:
73,229,9796,1,0,0:0:0:0:
204,175,10074,1,0,0:0:0:0:
270,327,10351,1,0,0:0:0:0:
266,312,10629,1,0,0:0:0:0:
262,296,10907,1,0,0:0:0:0:
343,309,11185,5,0,0:0:0:0:
160,271,11462,1,0,0:0:0:0:
317,198,11740,1,0,0:0:0:0:
313,214,12018,1,0,0:0:0:0:
174,141,12296,2,0,L|182:181,6,26.25
170,124,12851,1,0,0:0:0:0:
165,104,13129,1,0,0:0:0:0:
344,144,13407,5,0,0:0:0:0:
341,159,13546,1,0,0:0:0:0:
338,175,13685,1,0,0:0:0:0:
335,188,13962,1,0,0:0:0:0:
332,204,14240,1,0,0:0:0:0:
185,94,14518,1,0,0:0:0:0:
192,274,14796,1,0,0:0:0:0:
188,258,15074,1,0,0:0:0:0:
185,242,15351,1,0,0:0:0:0:
268,243,15629,5,0,0:0:0:0:
88,136,15907,1,0,0:0:0:0:
270,29,16185,1,0,0:0:0:0:
268,243,16462,1,0,0:0:0:0:
467,141,16740,1,0,0:0:0:0:
51,274,17018,2,0,L|48:251,1,13.125
455,238,17296,2,0,L|453:251,1,13.125
69,159,17574,2,0,L|67:145,1,13.125
340,288,17851,6,0,L|327:179,1,105
377,105,18268,1,0,0:0:0:0:
242,201,18407,2,0,L|179:209,1,52.5
415,204,18685,2,0,L|478:212,1,52.5
228,287,18962,2,0,P|171:293|130:271,1,105
195,151,19379,1,0,0:0:0:0:
339,289,19518,2,0,L|348:354,1,52.5
131,272,19796,6,0,L|24:283,1,105
72,188,20212,1,0,0:0:0:0:
211,343,20351,2,0,L|268:348,1,52.5
292,192,20629,2,0,L|235:197,1,52.5
360,359,20907,2,0,L|412:354,1,52.5
165,270,21185,2,0,P|118:247|67:254,1,105
258,306,21601,1,0,0:0:0:0:
31,168,21740,1,0,0:0:0:0:
67,253,21879,1,0,0:0:0:0:
192,115,22018,1,0,0:0:0:0:
192,115,22296,5,0,0:0:0:0:
256,188,22435,1,0,0:0:0:0:
280,100,22574,1,0,0:0:0:0:
166,201,22712,1,0,0:0:0:0:
350,172,22851,1,0,0:0:0:0:
98,123,22990,1,0,0:0:0:0:
230,282,23129,2,0,L|310:291,1,52.5
224,33,23407,2,0,L|349:47,1,105
365,134,23824,1,0,0:0:0:0:
154,142,23962,2,0,L|139:78,1,52.5
223,218,24240,1,0,0:0:0:0:
131,232,24379,1,0,0:0:0:0:
365,134,24518,6,0,L|424:135,1,52.5
258,310,24796,2,0,L|199:311,1,52.5
325,205,25074,2,0,P|366:172|382:123,1,105
342,47,25490,1,0,0:0:0:0:
472,154,25629,2,0,L|481:205,1,52.5
451,55,25907,1,0,0:0:0:0:
408,258,26046,1,0,0:0:0:0:
249,79,26185,2,0,L|240:130,1,52.5
299,212,26462,1,0,0:0:0:0:
209,219,26601,1,0,0:0:0:0:
381,123,26740,6,0,L|390:174,1,52.5
377,268,27018,1,0,0:0:0:0:
299,212,27157,1,0,0:0:0:0:
466,228,27296,1,0,0:0:0:0:
459,323,27435,1,0,0:0:0:0:
477,137,27574,2,0,L|468:86,1,52.5
299,212,27851,2,0,B|274:235|274:235|136:246,1,157.5
181,155,28407,1,0,0:0:0:0:
238,323,28546,1,0,0:0:0:0:
270,141,28685,1,0,0:0:0:0:
142,332,28824,1,0,0:0:0:0:
362,124,28962,6,0,L|414:116,1,52.5
339,225,29240,1,0,0:0:0:0:
270,141,29379,1,0,0:0:0:0:
441,202,29518,2,0,P|460:252|441:315,1,105
317,360,29935,1,0,0:0:0:0:
362,124,30074,2,0,P|351:73|370:24,1,105
446,74,30490,1,0,0:0:0:0:
368,258,30629,2,0,L|301:267,1,52.5
225,131,30907,2,0,L|292:140,1,52.5
182,283,31185,6,0,L|66:298,1,105
134,112,31601,1,0,0:0:0:0:
315,264,31740,2,0,L|382:273,1,52.5
426,146,32018,2,0,L|359:155,1,52.5
29,98,32296,2,0,L|133:111,1,105
208,184,32712,1,0,0:0:0:0:
133,9,32851,1,0,0:0:0:0:
77,203,32990,1,0,0:0:0:0:
0,5,33129,1,0,0:0:0:0:
208,184,33268,1,0,0:0:0:0:
24,330,33407,6,0,P|87:351|137:341,1,105
285,300,33824,2,0,L|233:295,1,52.5
50,229,34101,2,0,L|103:224,1,52.5
224,114,34379,1,0,0:0:0:0:
259,376,34518,2,0,L|329:384,1,52.5
66,145,34796,2,0,L|-4:153,1,52.5
316,223,35074,2,0,P|367:226|409:208,1,78.75
414,198,35351,2,0,L|403:292,1,78.75
400,301,35629,5,0,0:0:0:0:
355,113,35768,2,0,B|243:119|243:119|261:124,1,105
223,218,36185,1,0,0:0:0:0:
288,20,36324,2,0,B|400:26|400:26|382:31,1,105
486,111,36740,1,0,0:0:0:0:
147,121,36879,2,0,B|35:127|35:127|53:132,1,105
108,240,37296,1,0,0:0:0:0:
100,25,37435,2,0,B|212:31|212:31|194:36,1,105
222,216,37851,5,0,0:0:0:0:
363,65,37990,2,0,P|412:51|494:71,1,105
399,230,38407,1,0,0:0:0:0:
147,121,38546,2,0,P|96:135|45:128,1,105
268,33,38962,2,0,L|271:71,6,26.25
360,94,39518,1,0,0:0:0:0:
188,112,39657,2,0,L|191:220,1,105
68,21,40074,5,0,0:0:0:0:
279,151,40212,2,0,B|302:179|302:179|303:248,1,105
35,180,40629,1,0,0:0:0:0:
213,53,40768,2,0,B|241:30|241:30|309:29,1,105
468,170,41185,1,0,0:0:0:0:
226,229,41324,2,0,B|198:206|198:206|129:205,1,105
331,371,41740,1,0,0:0:0:0:
405,111,41879,2,0,B|382:139|382:139|381:207,1,105
491,333,42296,5,0,0:0:0:0:
293,262,42435,2,0,B|165:277|167:277,1,105
85,346,42851,1,0,0:0:0:0:
180,109,42990,2,0,B|308:124|306:124,1,105
82,179,43407,2,0,L|89:215,6,26.25
306,196,43962,2,0,B|271:269|271:269|246:191|246:191,1,157.5
384,106,44518,5,0,0:0:0:0:
463,291,44657,2,0,L|347:302,1,105
488,150,45074,1,0,0:0:0:0:
251,338,45212,2,0,L|146:328,1,105
217,117,45629,1,0,0:0:0:0:
358,300,45768,2,0,L|463:291,1,105
295,49,46185,1,0,0:0:0:0:
146,328,46324,2,0,L|251:338,1,105
183,68,46740,5,0,0:0:0:0:
370,314,46879,2,0,P|383:263|371:203,1,105
512,125,47296,1,0,0:0:0:0:
286,255,47435,2,0,P|234:246|183:259,1,105
344,104,47851,2,0,L|339:57,6,26.25
443,159,48407,1,0,0:0:0:0:
235,103,48546,2,0,B|203:85|203:85|135:97,1,105
77,346,48962,5,0,0:0:0:0:
58,160,49101,2,0,L|31:48,1,105
8,254,49518,1,0,0:0:0:0:
328,265,49657,2,0,L|431:290,1,105
234,370,50074,1,0,0:0:0:0:
315,129,50212,2,0,P|351:91|371:33,1,105
485,222,50629,1,0,0:0:0:0:
229,255,50768,2,0,P|192:218|144:200,1,105
155,369,51185,5,0,0:0:0:0:
337,178,51324,2,0,L|315:57,1,105
441,272,51740,1,0,0:0:0:0:
219,129,51879,2,0,L|197:8,1,105
252,233,52296,2,0,L|259:274,6,26.25
186,290,52851,2,0,P|193:363|233:322,1,157.5
92,188,53407,5,0,0:0:0:0:
92,188,53962,6,0,L|185:170,2,70
342,259,54518,2,0,L|435:241,1,70
181,265,54888,2,0,L|112:278,1,70
342,259,55999,1,0,0:0:0:0:
271,100,56185,5,0,0:0:0:0:
216,172,56370,1,0,0:0:0:0:
216,262,56555,1,0,0:0:0:0:
133,219,56740,5,0,0:0:0:0:
216,262,56925,1,0,0:0:0:0:
224,353,57111,1,0,0:0:0:0:
298,301,57296,5,0,0:0:0:0:
224,353,57481,1,0,0:0:0:0:
141,314,57666,1,0,0:0:0:0:
419,323,57851,5,0,0:0:0:0:
404,233,58036,1,0,0:0:0:0:
389,142,58222,1,0,0:0:0:0:
284,384,58407,5,0,0:0:0:0:
299,294,58592,1,0,0:0:0:0:
314,203,58778,1,0,0:0:0:0:
191,331,58962,5,0,0:0:0:0:
101,350,59148,1,0,0:0:0:0:
14,321,59333,1,0,0:0:0:0:
404,233,59518,5,0,0:0:0:0:
317,204,59703,1,0,0:0:0:0:
227,223,59889,1,0,0:0:0:0:
375,55,60074,5,0,0:0:0:0:
389,144,60259,1,0,0:0:0:0:
404,233,60444,1,0,0:0:0:0:
512,1,60629,5,0,0:0:0:0:
498,90,60814,1,0,0:0:0:0:
483,179,60999,1,0,0:0:0:0:
206,36,61185,5,0,0:0:0:0:
287,76,61370,1,0,0:0:0:0:
375,55,61555,1,0,0:0:0:0:
108,64,61740,5,0,0:0:0:0:
262,346,62018,1,0,0:0:0:0:
285,257,62157,1,0,0:0:0:0:
358,328,62296,6,0,L|417:313,1,52.5
189,280,62574,2,0,L|138:292,1,52.5
376,231,62851,1,0,0:0:0:0:
358,328,62990,1,0,0:0:0:0:
285,257,63129,1,0,0:0:0:0:
376,231,63268,1,0,0:0:0:0:
189,280,63407,2,0,P|134:288|80:261,1,105
219,186,63824,1,0,0:0:0:0:
448,313,63962,2,0,L|504:307,1,52.5
222,365,64240,2,0,L|275:360,1,52.5
118,177,64518,5,0,0:0:0:0:
174,98,64657,1,0,0:0:0:0:
69,345,64796,2,0,L|122:340,1,52.5
431,166,65074,2,0,P|382:146|331:155,1,105
344,256,65490,1,0,0:0:0:0:
226,109,65629,2,0,L|243:213,1,105
254,317,66046,1,0,0:0:0:0:
107,97,66185,2,0,L|122:25,1,52.5
320,103,66462,2,0,L|330:154,1,52.5
86,203,66740,5,0,0:0:0:0:
184,221,66879,1,0,0:0:0:0:
147,319,67018,1,0,0:0:0:0:
245,301,67157,1,0,0:0:0:0:
150,118,67296,1,0,0:0:0:0:
253,131,67435,1,0,0:0:0:0:
209,26,67574,1,0,0:0:0:0:
312,13,67713,1,0,0:0:0:0:
43,106,67851,2,0,L|54:220,1,105
267,312,68268,1,0,0:0:0:0:
278,170,68407,2,0,P|236:165|206:168,1,52.5
398,283,68685,2,0,P|424:282|450:278,1,52.5
430,36,68962,5,0,0:0:0:0:
447,136,69101,1,0,0:0:0:0:
358,103,69240,1,0,0:0:0:0:
430,36,69379,1,0,0:0:0:0:
374,202,69518,1,0,0:0:0:0:
280,162,69657,1,0,0:0:0:0:
358,103,69796,1,0,0:0:0:0:
465,239,69935,1,0,0:0:0:0:
189,226,70074,2,0,L|53:216,1,105
140,123,70490,1,0,0:0:0:0:
184,323,70629,2,0,L|247:320,1,52.5
417,307,70907,2,0,L|364:309,1,52.5
296,154,71185,5,0,0:0:0:0:
294,164,71324,1,0,0:0:0:0:
293,174,71462,1,0,0:0:0:0:
290,184,71740,1,0,0:0:0:0:
289,194,72018,2,0,L|299:250,1,52.5
138,93,72296,1,0,0:0:0:0:
205,243,72435,2,0,L|225:366,1,105
240,71,72851,1,0,0:0:0:0:
109,237,72990,2,0,L|129:360,1,105
342,75,73407,6,0,P|284:62|233:73,1,105
160,164,73824,1,0,0:0:0:0:
13,18,73962,1,0,0:0:0:0:
43,138,74101,1,0,0:0:0:0:
239,70,74240,2,0,L|187:66,1,52.5
485,191,74518,2,0,P|407:178|455:106,1,157.5
311,195,75074,1,0,0:0:0:0:
418,117,75212,1,0,0:0:0:0:
222,270,75351,2,0,L|212:201,1,52.5
348,330,75629,6,0,P|399:321|450:334,1,105
483,225,76046,1,0,0:0:0:0:
201,352,76185,1,0,0:0:0:0:
211,229,76324,1,0,0:0:0:0:
56,319,76462,2,0,L|3:322,1,52.5
297,163,76740,2,0,P|347:175|394:167,1,52.5
448,135,77018,1,0,0:0:0:0:
427,236,77157,1,0,0:0:0:0:
208,117,77296,2,0,P|158:105|111:113,1,52.5
297,163,77574,1,0,0:0:0:0:
298,52,77712,1,0,0:0:0:0:
50,138,77851,6,0,P|25:146|0:150,1,52.5
396,112,78129,1,0,0:0:0:0:
297,163,78268,1,0,0:0:0:0:
392,217,78407,1,0,0:0:0:0:
396,112,78546,1,0,0:0:0:0:
297,271,78685,2,0,P|288:295|284:321,1,52.5
298,52,78962,2,0,P|244:37|176:59,1,105
133,146,79379,1,0,0:0:0:0:
392,217,79518,1,0,0:0:0:0:
298,52,79657,1,0,0:0:0:0:
227,311,79796,1,0,0:0:0:0:
133,146,79935,1,0,0:0:0:0:
391,113,80074,6,0,L|395:51,1,52.5
313,290,80351,2,0,L|309:237,1,52.5
401,273,80629,1,0,0:0:0:0:
227,311,80768,1,0,0:0:0:0:
418,366,80907,1,0,0:0:0:0:
207,221,81046,1,0,0:0:0:0:
491,306,81185,2,0,L|477:178,1,105
391,113,81601,1,0,0:0:0:0:
309,237,81740,2,0,L|313:290,1,52.5
394,60,82018,2,0,L|390:112,1,52.5
174,101,82296,5,0,0:0:0:0:
309,89,82435,1,0,0:0:0:0:
186,236,82573,1,0,0:0:0:0:
321,224,82712,1,0,0:0:0:0:
155,56,82851,1,0,0:0:0:0:
357,74,82990,1,0,0:0:0:0:
137,257,83129,1,0,0:0:0:0:
339,275,83268,1,0,0:0:0:0:
0,124,83407,2,0,P|49:154|132:141,1,105
226,95,83824,1,0,0:0:0:0:
142,273,83962,2,0,L|145:325,1,52.5
226,95,84240,2,0,L|222:147,1,52.5
302,349,84518,6,0,L|294:247,2,70
409,100,85074,2,0,L|417:202,1,70
115,39,85444,1,0,0:0:0:0:
440,280,85629,1,0,0:0:0:0:
243,353,85814,1,0,0:0:0:0:
284,165,85999,1,0,0:0:0:0:
384,364,86185,1,0,0:0:0:0:
140,242,86370,1,0,0:0:0:0:
354,69,86555,1,0,0:0:0:0:
213,357,86740,5,0,0:0:0:0:
127,48,86925,1,0,0:0:0:0:
495,143,87111,1,0,0:0:0:0:
70,291,87296,1,0,0:0:0:0:
274,28,87481,1,0,0:0:0:0:
392,344,87666,1,0,0:0:0:0:
83,80,87851,1,0,0:0:0:0:
451,19,88036,1,0,0:0:0:0:
259,290,88222,1,0,0:0:0:0:
80,209,88407,2,0,L|155:198,1,52.5
483,134,88685,2,0,L|402:148,1,78.75
368,156,88962,5,0,0:0:0:0:
304,326,89101,2,0,L|153:307,1,105
252,125,89518,1,0,0:0:0:0:
408,274,89657,2,0,L|559:255,1,105
361,48,90074,1,0,0:0:0:0:
201,235,90212,2,0,L|50:216,1,105
136,23,90629,1,0,0:0:0:0:
365,199,90768,2,0,L|516:180,1,105
276,7,91185,5,0,0:0:0:0:
105,338,91324,2,0,L|-46:319,1,105
134,29,91740,1,0,0:0:0:0:
356,357,91879,2,0,L|507:338,1,105
274,74,92296,2,0,L|280:117,6,26.25
269,36,92851,1,0,0:0:0:0:
134,106,92990,2,0,L|29:119,1,105
471,175,93407,5,0,0:0:0:0:
323,295,93546,2,0,P|276:311|213:302,1,105
505,285,93962,1,0,0:0:0:0:
268,177,94101,2,0,P|216:171|166:187,1,105
473,139,94518,1,0,0:0:0:0:
221,305,94657,2,0,P|169:310|119:294,1,105
505,285,95074,1,0,0:0:0:0:
166,187,95212,2,0,P|116:170|64:176,1,105
489,94,95629,5,0,0:0:0:0:
119,294,95768,2,0,P|69:310|17:304,1,105
477,303,96185,1,0,0:0:0:0:
101,97,96324,2,0,P|49:91|0:107,1,105
305,136,96740,2,0,L|310:89,6,26.25
300,178,97296,2,0,P|303:231|243:191,1,157.5
235,49,97851,5,0,0:0:0:0:
132,128,97990,2,0,L|45:137,1,78.7500030040742
155,11,98407,1,0,0:0:0:0:
234,164,98546,2,0,L|321:173,1,78.7500030040742
317,19,98962,1,0,0:0:0:0:
154,210,99101,2,0,L|67:219,1,78.7500030040742
235,52,99518,1,0,0:0:0:0:
240,255,99657,2,0,L|327:264,1,78.7500030040742
146,38,100074,5,0,0:0:0:0:
152,299,100212,2,0,L|65:308,1,78.7500030040742
302,41,100629,1,0,0:0:0:0:
242,331,100768,2,0,L|329:340,1,78.7500030040742
153,84,101185,2,0,L|31:98,1,118.125004506111
136,208,101740,1,0,0:0:0:0:
272,109,101879,2,0,L|280:22,1,78.7500030040742
235,213,102296,5,0,0:0:0:0:
358,268,102435,2,0,P|371:228|369:178,1,78.7500030040742
241,311,102851,1,0,0:0:0:0:
371,191,102990,2,0,P|370:151|357:114,1,78.7500030040742
320,362,103407,1,0,0:0:0:0:
480,250,103546,2,0,P|467:210|469:160,1,78.7500030040742
203,341,103962,1,0,0:0:0:0:
466,173,104101,2,0,P|466:133|479:96,1,78.7500030040742
368,355,104518,5,0,0:0:0:0:
273,131,104657,2,0,P|273:91|286:54,1,78.7500030040742
265,353,105074,1,0,0:0:0:0:
178,113,105212,2,0,P|177:73|164:36,1,78.7500030040742
190,327,105629,2,0,P|218:287|294:280,1,118.125004506111
354,343,106185,2,0,B|365:238|365:238|420:321,1,157.5
283,118,106740,5,0,0:0:0:0:
