osu file format v14

[General]
AudioFilename: audio.mp3
AudioLeadIn: 0
PreviewTime: 76710
Countdown: 0
SampleSet: Soft
StackLeniency: 0.7
Mode: 2
LetterboxInBreaks: 0
WidescreenStoryboard: 0

[Editor]
Bookmarks: 310,13110,25910,38710,51510,64310,77110,89910,102710,115510,128310,141110,153910,166710,179510,192310,205110
DistanceSpacing: 1.1
BeatDivisor: 4
GridSize: 32
TimelineZoom: 1

[Metadata]
Title:History
TitleUnicode:History
Artist:Rich Brian
ArtistUnicode:Rich Brian
Creator:Seija
Version:Bittersweet Reunion
Source:
Tags:Head on the clouds hip hop rap Brian Imanuel 88rising AJamez
BeatmapID:1963760
BeatmapSetID:940248

[Difficulty]
HPDrainRate:5
CircleSize:4.2
OverallDifficulty:8.8
ApproachRate:8.8
SliderMultiplier:2
SliderTickRate:2

[Events]
//Background and Video events
0,0,"Konachan.com - 243462 black_hair book brown_eyes bubbles ilya_kuvshinov jpeg_artifacts kneehighs long_hair male original rainbow seifuku short_hair skirt underwater water.jpg",0,0
//Break Periods
2,103310,109681
//Storyboard Layer 0 (Background)
//Storyboard Layer 1 (Fail)
//Storyboard Layer 2 (Pass)
//Storyboard Layer 3 (Foreground)
//Storyboard Sound Samples

[TimingPoints]
310,400,4,2,1,100,1,0
13110,-100,4,2,1,100,0,1
16310,-66.6666666666667,4,2,1,100,0,1
17510,-66.6666666666667,4,2,1,100,0,1
18110,-100,4,2,1,100,0,1
19510,-66.6666666666667,4,2,1,100,0,1
20110,-100,4,2,1,100,0,1
22710,-66.6666666666667,4,2,1,100,0,1
23310,-100,4,2,1,100,0,1
25910,-66.6666666666667,4,2,1,100,0,1
26710,-100,4,2,1,100,0,1
29110,-66.6666666666667,4,2,1,100,0,1
29710,-100,4,2,1,100,0,1
32310,-66.6666666666667,4,2,1,100,0,1
32510,-100,4,2,1,100,0,1
35510,-66.6666666666667,4,2,1,100,0,1
35910,-100,4,2,1,100,0,1
38710,-66.6666666666667,4,2,1,100,0,0
39510,-100,4,2,1,100,0,0
51510,-66.6666666666667,4,2,1,100,0,0
51910,-100,4,2,1,100,0,0
52310,-66.6666666666667,4,2,1,100,0,0
52510,-100,4,2,1,100,0,0
62710,-66.6666666666667,4,2,1,100,0,0
63310,-100,4,2,1,100,0,0
63510,-66.6666666666667,4,2,1,100,0,0
64210,-100,4,2,1,100,0,0
72310,-66.6666666666667,4,2,1,100,0,0
73110,-100,4,2,1,100,0,0
77110,-66.6666666666667,4,2,1,100,0,1
78310,-100,4,2,1,100,0,1
80310,-66.6666666666667,4,2,1,100,0,1
81510,-100,4,2,1,100,0,1
89910,-66.6666666666667,4,2,1,100,0,1
90310,-100,4,2,1,100,0,1
93110,-66.6666666666667,4,2,1,100,0,1
93710,-100,4,2,1,100,0,1
96310,-66.6666666666667,4,2,1,100,0,1
96910,-100,4,2,1,100,0,1
99510,-66.6666666666667,4,2,1,100,0,1
99910,-100,4,2,1,100,0,1
103110,-100,4,2,1,100,0,0
153910,-66.6666666666667,4,2,1,100,0,1
155110,-100,4,2,1,100,0,1
157110,-66.6666666666667,4,2,1,100,0,1
158310,-100,4,2,1,100,0,1
160310,-66.6666666666667,4,2,1,100,0,1
160710,-100,4,2,1,100,0,1
163510,-66.6666666666667,4,2,1,100,0,1
164310,-100,4,2,1,100,0,1
166710,-66.6666666666667,4,2,1,100,0,1
167310,-100,4,2,1,100,0,1
169910,-66.6666666666667,4,2,1,100,0,1
170310,-100,4,2,1,100,0,1
173110,-66.6666666666667,4,2,1,100,0,1
173510,-100,4,2,1,100,0,1
176310,-66.6666666666667,4,2,1,100,0,1
176910,-100,4,2,1,100,0,1
177910,-66.6666666666667,4,2,1,100,0,1
178510,-100,4,2,1,100,0,1
179910,-100,4,2,1,100,0,0

[Colours]
Combo1 : 96,99,242
Combo2 : 126,223,228
Combo3 : 147,147,147
Combo4 : 220,172,137

[HitObjects]
383,323,310,5,0,0:0:0:0:
383,323,510,1,0,0:0:0:0:
230,323,710,1,0,0:0:0:0:
383,323,910,2,0,P|434:294|364:192,1,200,2|0,0:0|0:0,0:0:0:0:
117,275,1710,6,0,P|67:233|155:139,1,200
341,157,2510,1,0,0:0:0:0:
191,151,2710,2,0,P|142:182|194:295,1,200,2|0,0:0|0:0,0:0:0:0:
341,157,3310,1,0,0:0:0:0:
66,182,3510,6,0,P|28:246|130:300,1,200,2|0,0:0|0:0,0:0:0:0:
235,308,4110,1,0,0:0:0:0:
360,308,4310,1,0,0:0:0:0:
68,219,4510,2,0,L|284:215,2,200
290,333,5710,1,0,0:0:0:0:
157,330,5910,2,0,L|156:191,1,100,2|0,0:0|0:0,0:0:0:0:
297,221,6310,1,0,0:0:0:0:
160,143,6510,2,0,L|231:142,1,50
411,138,6710,6,0,L|417:250,1,100,2|0,0:0|0:0,0:0:0:0:
260,239,7110,1,0,0:0:0:0:
416,237,7310,2,0,P|468:203|384:105,1,200
286,97,7910,1,0,0:0:0:0:
82,123,8110,2,0,L|61:336,1,200
257,312,8910,1,0,0:0:0:0:
130,223,9110,2,0,L|329:218,1,200,2|0,0:0|0:0,0:0:0:0:
446,295,9710,1,0,0:0:0:0:
175,277,9910,6,0,L|419:278,2,200,2|0|0,0:0|0:0|0:0,0:0:0:0:
322,331,10910,1,0,0:0:0:0:
150,338,11110,2,0,L|149:219,1,100
419,249,11510,6,0,P|472:206|395:120,1,200,2|0,0:0|0:0,0:0:0:0:
265,126,12110,1,0,0:0:0:0:
134,144,12310,2,0,L|125:21,1,100,2|0,0:0|0:0,0:0:0:0:
327,35,12710,1,0,0:0:0:0:
159,106,12910,1,0,0:0:0:0:
461,175,13110,6,0,L|463:308,1,100,6|0,0:0|0:0,0:0:0:0:
285,277,13510,2,2,L|202:275,2,50
462,274,13910,2,0,L|464:153,1,100,10|0,0:0|0:0,0:0:0:0:
307,175,14310,1,0,0:0:0:0:
463,174,14510,2,2,L|516:174,2,33.3333333333333
233,164,14710,6,0,L|223:278,1,100,2|0,0:0|0:0,0:0:0:0:
428,335,15110,2,0,L|315:333,1,100,2|0,0:0|0:0,0:0:0:0:
99,342,15510,2,0,L|86:227,1,100,10|0,0:0|0:0,0:0:0:0:
276,217,15910,2,0,L|392:216,1,100,2|0,0:0|0:0,0:0:0:0:
88,119,16310,6,0,L|292:119,2,150.000005722046,2|0|2,0:0|0:0|0:0,0:0:0:0:
162,120,16810,1,2,0:0:0:0:
238,119,16910,1,2,0:0:0:0:
28,272,17110,2,0,L|195:270,2,150.000005722046,10|0|0,0:0|0:0|0:0,0:0:0:0:
177,270,17710,1,0,0:0:0:0:
459,289,17910,6,0,P|472:209|446:130,1,150.000005722046,2|0,0:0|0:0,0:0:0:0:
265,134,18310,1,0,0:0:0:0:
398,137,18510,1,0,0:0:0:0:
238,202,18710,2,2,L|168:204,2,50,10|2|2,0:0|0:0|0:0,0:0:0:0:
450,281,19110,2,0,L|321:278,1,100,2|0,0:0|0:0,0:0:0:0:
52,209,19510,6,0,L|248:211,2,150.000005722046,0|0|2,0:0|0:0|0:0,0:0:0:0:
128,241,20010,1,2,0:0:0:0:
196,268,20110,1,2,0:0:0:0:
401,314,20310,2,0,L|402:168,1,100,10|0,0:0|0:0,0:0:0:0:
256,205,20710,1,0,0:0:0:0:
401,214,20910,2,2,L|436:182,2,33.3333333333333
127,290,21110,6,0,L|121:174,1,100,2|0,0:0|0:0,0:0:0:0:
272,183,21510,2,0,L|278:58,1,100
69,41,21910,2,0,L|192:40,1,100,10|0,0:0|0:0,0:0:0:0:
390,169,22310,2,0,L|394:49,1,100,2|0,0:0|0:0,0:0:0:0:
67,153,22710,6,0,L|269:151,2,150.000005722046,2|0|2,0:0|0:0|0:0,0:0:0:0:
67,153,23210,1,2,0:0:0:0:
151,156,23310,1,2,0:0:0:0:
369,87,23510,2,0,L|235:88,2,100,10|0|0,0:0|0:0|0:0,0:0:0:0:
172,200,24110,2,0,L|248:200,1,50
443,263,24310,5,2,0:0:0:0:
273,268,24510,1,0,0:0:0:0:
443,263,24710,2,0,L|447:139,1,100,2|2,0:0|0:0,0:0:0:0:
370,156,25010,1,2,0:0:0:0:
145,180,25110,2,0,L|141:73,1,100,10|0,0:0|0:0,0:0:0:0:
347,53,25510,2,0,L|208:52,1,100,2|0,0:0|0:0,0:0:0:0:
452,207,25910,6,0,L|237:205,2,150.000005722046,6|0|0,0:0|0:0|0:0,0:0:0:0:
381,208,26410,1,0,0:0:0:0:
303,206,26510,1,0,0:0:0:0:
492,240,26710,2,0,L|498:357,1,100,10|0,0:0|0:0,0:0:0:0:
310,352,27110,1,0,0:0:0:0:
454,347,27310,2,2,L|502:344,2,33.3333333333333
192,338,27510,6,0,L|184:230,1,100,2|0,0:0|0:0,0:0:0:0:
337,209,27910,2,0,L|347:98,1,100,2|0,0:0|0:0,0:0:0:0:
271,99,28210,1,0,0:0:0:0:
193,95,28310,2,0,L|180:220,1,100,10|0,0:0|0:0,0:0:0:0:
326,224,28710,2,0,L|459:223,1,100
63,235,29110,6,0,L|269:233,2,150.000005722046,2|0|0,0:0|0:0|0:0,0:0:0:0:
135,260,29610,1,0,0:0:0:0:
217,264,29710,1,2,0:0:0:0:
61,348,29910,2,0,L|207:347,1,100,10|0,0:0|0:0,0:0:0:0:
350,343,30310,2,0,L|358:213,1,100,2|2,0:0|0:0,0:0:0:0:
278,244,30610,1,2,0:0:0:0:
118,240,30710,6,0,L|113:131,1,100,2|0,0:0|0:0,0:0:0:0:
294,125,31110,1,2,0:0:0:0:
149,77,31310,1,0,0:0:0:0:
355,62,31510,1,10,0:0:0:0:
219,151,31710,1,0,0:0:0:0:
355,62,31910,1,2,0:0:0:0:
163,59,32110,1,0,0:0:0:0:
440,301,32310,6,0,L|251:302,2,150.000005722046,6|0|0,0:0|0:0|0:0,0:0:0:0:
440,301,32810,1,0,0:0:0:0:
368,302,32910,1,2,0:0:0:0:
187,320,33110,2,0,L|190:173,1,100,10|0,0:0|0:0,0:0:0:0:
336,217,33510,1,2,0:0:0:0:
189,220,33710,2,2,L|144:220,2,33.3333333333333
467,200,33910,6,0,L|468:309,1,100,2|0,0:0|0:0,0:0:0:0:
303,272,34310,1,2,0:0:0:0:
445,273,34510,1,0,0:0:0:0:
176,205,34710,1,10,0:0:0:0:
459,213,34910,1,0,0:0:0:0:
259,158,35110,1,2,0:0:0:0:
235,107,35210,1,2,0:0:0:0:
218,58,35310,1,2,0:0:0:0:
483,224,35510,6,0,L|301:224,2,150.000005722046,2|0|0,0:0|0:0|0:0,0:0:0:0:
403,253,36010,1,0,0:0:0:0:
208,235,36110,1,0,0:0:0:0:
356,227,36310,2,10,L|354:118,1,100,10|0,0:0|0:0,0:0:0:0:
224,132,36710,1,0,0:0:0:0:
431,87,36910,2,2,L|367:84,1,50
142,124,37110,5,2,0:0:0:0:
297,126,37310,1,0,0:0:0:0:
132,220,37510,1,2,0:0:0:0:
210,221,37610,1,0,0:0:0:0:
288,221,37710,1,0,0:0:0:0:
99,151,37910,2,0,L|95:35,1,100,10|0,0:0|0:0,0:0:0:0:
400,351,38310,2,0,L|405:247,1,100
183,247,38710,6,0,L|356:237,2,150,6|0|0,0:0|0:0|0:0,0:0:0:0:
245,271,39210,1,0,0:0:0:0:
436,295,39310,1,0,0:0:0:0:
267,305,39510,2,0,L|260:174,1,100,10|0,0:0|0:0,0:0:0:0:
385,202,39910,1,2,0:0:0:0:
229,139,40110,2,2,L|183:134,2,33.3333333333333
377,157,40310,6,0,L|379:284,1,100,2|0,0:0|0:0,0:0:0:0:
227,275,40710,2,0,L|165:275,2,50
383,268,41110,2,0,L|384:162,1,100,10|0,0:0|0:0,0:0:0:0:
200,139,41510,2,0,L|148:136,2,50
462,179,41910,6,0,L|462:297,1,100,2|0,0:0|0:0,0:0:0:0:
290,349,42310,1,0,0:0:0:0:
354,338,42410,1,0,0:0:0:0:
416,324,42510,1,0,0:0:0:0:
239,205,42710,2,0,L|116:198,1,100,10|0,0:0|0:0,0:0:0:0:
286,304,43110,1,0,0:0:0:0:
432,306,43310,2,2,L|473:305,2,33.3333333333333
168,324,43510,6,0,L|151:201,1,100,2|0,0:0|0:0,0:0:0:0:
314,217,43910,2,0,L|384:217,2,50
108,209,44310,2,0,L|110:93,1,100,10|0,0:0|0:0,0:0:0:0:
243,110,44710,1,2,0:0:0:0:
435,103,44910,6,0,P|488:168|421:227,1,150
393,221,45310,1,0,0:0:0:0:
246,214,45510,1,2,0:0:0:0:
106,213,45710,2,0,P|61:180|119:112,1,150
170,112,46110,1,0,0:0:0:0:
341,117,46310,1,2,0:0:0:0:
170,112,46510,2,2,L|113:110,2,33.3333333333333
411,194,46710,6,0,L|421:313,1,100,2|0,0:0|0:0,0:0:0:0:
248,304,47110,1,2,0:0:0:0:
390,300,47310,1,0,0:0:0:0:
239,271,47510,2,0,L|236:137,1,100,10|0,0:0|0:0,0:0:0:0:
416,159,47910,1,2,0:0:0:0:
416,159,48110,1,0,0:0:0:0:
159,148,48310,5,0,0:0:0:0:
325,171,48510,1,0,0:0:0:0:
171,225,48710,2,2,L|132:227,2,33.3333333333333
233,221,48910,1,2,0:0:0:0:
77,166,49110,2,0,L|75:58,1,100,10|0,0:0|0:0,0:0:0:0:
244,62,49510,2,0,L|353:61,1,100
277,97,49810,1,0,0:0:0:0:
66,174,49910,6,0,L|35:293,1,100,2|2,0:0|0:0,0:0:0:0:
126,285,50210,1,2,0:0:0:0:
209,299,50310,2,0,L|317:298,1,100,2|0,0:0|0:0,0:0:0:0:
119,235,50710,2,0,L|15:234,1,100,10|0,0:0|0:0,0:0:0:0:
211,148,51110,1,0,0:0:0:0:
132,146,51210,1,0,0:0:0:0:
48,145,51310,1,0,0:0:0:0:
348,103,51510,6,0,P|446:187|300:259,1,300.000011444092,6|0,0:0|0:0,0:0:0:0:
272,280,52010,1,0,0:0:0:0:
94,282,52110,1,2,0:0:0:0:
225,202,52310,2,0,L|52:202,1,150.000005722046,10|0,0:0|0:0,0:0:0:0:
241,144,52710,1,2,0:0:0:0:
99,105,52910,2,2,L|56:105,2,33.3333333333333
381,204,53110,5,2,0:0:0:0:
243,205,53310,1,0,0:0:0:0:
421,352,53510,2,0,L|421:214,1,100,2|0,0:0|0:0,0:0:0:0:
286,235,53910,2,0,L|138:232,1,100,10|0,0:0|0:0,0:0:0:0:
260,220,54210,1,0,0:0:0:0:
323,180,54310,2,0,L|453:181,1,100,2|0,0:0|0:0,0:0:0:0:
33,206,54710,6,0,L|31:318,1,100,2|0,0:0|0:0,0:0:0:0:
201,317,55110,2,2,L|264:318,2,50
33,206,55510,2,0,L|140:207,1,100,10|0,0:0|0:0,0:0:0:0:
335,235,55910,2,0,L|339:344,1,100,2|0,0:0|0:0,0:0:0:0:
79,313,56310,5,0,0:0:0:0:
246,314,56510,1,0,0:0:0:0:
84,258,56710,2,0,L|86:135,1,100,2|0,0:0|0:0,0:0:0:0:
295,136,57110,1,10,0:0:0:0:
163,133,57310,1,0,0:0:0:0:
340,208,57510,2,2,L|396:205,2,50
62,154,57910,6,0,L|47:280,1,100,6|0,0:0|0:0,0:0:0:0:
200,274,58310,1,0,0:0:0:0:
134,251,58410,1,0,0:0:0:0:
72,228,58510,1,0,0:0:0:0:
235,193,58710,2,0,L|372:191,1,100,10|0,0:0|0:0,0:0:0:0:
181,124,59110,1,2,0:0:0:0:
354,118,59310,2,2,L|401:120,2,33.3333333333333
112,212,59510,5,2,0:0:0:0:
268,212,59710,1,0,0:0:0:0:
433,221,59910,2,0,L|440:330,1,100,2|0,0:0|0:0,0:0:0:0:
360,324,60210,1,0,0:0:0:0:
188,338,60310,1,10,0:0:0:0:
343,324,60510,1,0,0:0:0:0:
188,338,60710,1,2,0:0:0:0:
343,324,60910,1,0,0:0:0:0:
55,189,61110,6,0,L|199:189,1,100,2|0,0:0|0:0,0:0:0:0:
316,142,61510,1,2,0:0:0:0:
247,142,61610,1,2,0:0:0:0:
180,143,61710,1,2,0:0:0:0:
379,58,61910,2,0,P|425:98|390:171,1,150,10|0,0:0|0:0,0:0:0:0:
154,221,62310,2,0,L|142:337,1,100
231,324,62610,1,0,0:0:0:0:
419,229,62710,6,0,L|220:227,2,150.000005722046,2|0|0,0:0|0:0|0:0,0:0:0:0:
419,229,63210,1,0,0:0:0:0:
339,226,63310,1,0,0:0:0:0:
170,137,63510,2,0,L|386:138,1,150.000005722046,10|0,0:0|0:0,0:0:0:0:
94,247,63910,2,0,P|30:282|130:368,1,225.000008583069
371,342,64310,5,6,0:0:0:0:
165,325,64710,1,2,0:0:0:0:
310,314,64910,1,0,0:0:0:0:
451,291,65110,1,2,0:0:0:0:
310,314,65310,1,0,0:0:0:0:
451,291,65510,1,0,0:0:0:0:
269,253,65710,2,0,P|214:229|292:149,1,200,2|0,0:0|0:0,0:0:0:0:
421,133,66310,5,2,0:0:0:0:
253,194,66510,1,0,0:0:0:0:
89,275,66710,1,2,0:0:0:0:
253,194,66910,1,0,0:0:0:0:
89,275,67110,1,0,0:0:0:0:
263,342,67310,2,0,P|326:286|221:246,1,200,2|0,0:0|0:0,0:0:0:0:
132,221,67910,5,2,0:0:0:0:
296,217,68110,1,0,0:0:0:0:
132,221,68310,1,2,0:0:0:0:
296,217,68510,1,0,0:0:0:0:
455,215,68710,1,0,0:0:0:0:
239,151,68910,6,0,P|176:195|261:257,1,200,2|0,0:0|0:0,0:0:0:0:
403,266,69510,1,2,0:0:0:0:
403,266,69710,1,0,0:0:0:0:
256,266,69910,1,2,0:0:0:0:
112,266,70110,1,0,0:0:0:0:
263,265,70310,1,0,0:0:0:0:
95,277,70510,6,0,P|28:245|106:181,1,200,2|0,0:0|0:0,0:0:0:0:
309,146,71110,1,2,0:0:0:0:
175,146,71310,1,0,0:0:0:0:
332,249,71510,2,0,L|347:361,1,100,2|0,0:0|0:0,0:0:0:0:
158,239,71910,2,0,L|147:138,1,100,2|0,0:0|0:0,0:0:0:0:
437,232,72310,6,0,L|128:320,2,300.000011444092,2|0|0,0:0|0:0|0:0,0:0:0:0:
230,332,73510,1,2,0:0:0:0:
366,320,73710,1,0,0:0:0:0:
237,288,73910,5,2,0:0:0:0:
82,289,74110,1,0,0:0:0:0:
232,287,74310,1,2,0:0:0:0:
370,287,74510,1,0,0:0:0:0:
237,248,74710,1,2,0:0:0:0:
381,227,74910,1,0,0:0:0:0:
224,162,75110,1,2,0:0:0:0:
371,153,75310,1,0,0:0:0:0:
74,187,75510,6,0,P|35:252|131:308,1,200,2|0,0:0|0:0,0:0:0:0:
276,305,76110,1,0,0:0:0:0:
132,250,76310,1,0,0:0:0:0:
328,281,76710,1,2,0:0:0:0:
180,217,76910,1,0,0:0:0:0:
449,175,77110,6,0,L|273:175,2,150.000005722046,6|0|0,0:0|0:0|0:0,0:0:0:0:
398,204,77610,1,0,0:0:0:0:
190,209,77710,1,0,0:0:0:0:
342,150,77910,2,0,L|182:240,2,150.000005722046,10|0|0,0:0|0:0|0:0,0:0:0:0:
191,104,78510,2,2,L|140:104,2,33.3333333333333
425,127,78710,6,0,L|427:251,1,100,2|0,0:0|0:0,0:0:0:0:
278,276,79110,2,0,L|144:281,1,100,2|0,0:0|0:0,0:0:0:0:
248,248,79410,1,0,0:0:0:0:
331,244,79510,2,0,L|336:130,1,100,10|0,0:0|0:0,0:0:0:0:
163,128,79910,2,2,L|91:128,2,50
425,221,80310,6,0,L|209:218,2,150.000005722046,2|0|0,0:0|0:0|0:0,0:0:0:0:
363,250,80810,1,0,0:0:0:0:
193,251,80910,1,0,0:0:0:0:
342,164,81110,2,0,L|144:164,2,150.000005722046,10|0|2,0:0|0:0|0:0,0:0:0:0:
197,327,81710,2,0,L|267:327,1,50
459,324,81910,6,2,L|460:194,1,100
289,218,82310,1,2,0:0:0:0:
459,224,82510,1,0,0:0:0:0:
289,160,82710,2,0,L|282:22,1,100,10|0,0:0|0:0,0:0:0:0:
429,50,83110,2,2,L|499:48,2,50
111,200,83510,5,2,0:0:0:0:
255,200,83710,1,0,0:0:0:0:
415,173,83910,1,0,0:0:0:0:
343,174,84010,1,0,0:0:0:0:
269,175,84110,1,0,0:0:0:0:
444,240,84310,2,0,L|450:356,1,100,10|0,0:0|0:0,0:0:0:0:
323,342,84710,1,0,0:0:0:0:
449,339,84910,1,2,0:0:0:0:
493,316,84976,1,2,0:0:0:0:
447,281,85043,1,2,0:0:0:0:
152,217,85110,6,0,L|134:337,1,100,2|0,0:0|0:0,0:0:0:0:
276,263,85510,2,0,L|289:367,1,100
213,364,85810,1,0,0:0:0:0:
140,360,85910,2,0,L|134:241,1,100,10|0,0:0|0:0,0:0:0:0:
279,241,86310,1,2,0:0:0:0:
344,240,86410,1,2,0:0:0:0:
407,241,86510,1,2,0:0:0:0:
83,260,86710,6,0,L|85:120,1,100,2|0,0:0|0:0,0:0:0:0:
245,137,87110,1,0,0:0:0:0:
171,137,87210,1,0,0:0:0:0:
101,137,87310,1,0,0:0:0:0:
292,221,87510,2,0,L|305:339,1,100,10|0,0:0|0:0,0:0:0:0:
184,329,87910,1,2,0:0:0:0:
342,342,88110,2,0,L|259:344,1,50
66,295,88310,6,0,L|194:293,1,100,2|0,0:0|0:0,0:0:0:0:
312,218,88710,1,0,0:0:0:0:
245,215,88810,1,0,0:0:0:0:
179,215,88910,1,0,0:0:0:0:
339,165,89110,2,0,L|465:163,1,100,10|0,0:0|0:0,0:0:0:0:
377,140,89410,1,0,0:0:0:0:
308,131,89510,2,0,L|183:131,1,100,2|0,0:0|0:0,0:0:0:0:
466,203,89910,6,0,L|268:204,2,150.000005722046,6|0|0,0:0|0:0|0:0,0:0:0:0:
404,235,90410,1,0,0:0:0:0:
201,238,90510,1,0,0:0:0:0:
375,352,90710,2,0,L|379:207,1,100,10|0,0:0|0:0,0:0:0:0:
201,238,91110,1,2,0:0:0:0:
368,221,91310,2,2,L|422:220,2,33.3333333333333
71,231,91510,6,0,L|202:229,1,100,2|0,0:0|0:0,0:0:0:0:
309,222,91910,2,0,L|306:157,1,50,2|0,0:0|0:0,0:0:0:0:
229,170,92110,1,0,0:0:0:0:
381,109,92310,2,0,L|488:106,1,100,10|0,0:0|0:0,0:0:0:0:
302,228,92710,2,2,L|434:225,1,100
350,204,93010,1,2,0:0:0:0:
68,219,93110,6,0,L|256:213,2,150,2|0|0,0:0|0:0|0:0,0:0:0:0:
138,255,93610,1,0,0:0:0:0:
335,255,93710,1,2,0:0:0:0:
187,165,93910,2,0,L|328:164,1,100,10|0,0:0|0:0,0:0:0:0:
84,246,94310,2,0,L|214:246,1,100,2|0,0:0|0:0,0:0:0:0:
258,247,94610,1,0,0:0:0:0:
431,276,94710,6,0,L|427:148,1,100,2|0,0:0|0:0,0:0:0:0:
268,194,95110,2,0,L|264:114,1,50
347,134,95310,1,0,0:0:0:0:
81,122,95510,2,0,L|79:252,1,100,10|0,0:0|0:0,0:0:0:0:
230,224,95910,1,2,0:0:0:0:
380,226,96110,2,0,L|379:143,1,50
172,144,96310,6,0,L|14:142,2,150,6|0|0,0:0|0:0|0:0,0:0:0:0:
246,146,96810,1,0,0:0:0:0:
52,248,96910,1,0,0:0:0:0:
228,209,97110,2,0,L|89:208,1,100,10|0,0:0|0:0,0:0:0:0:
320,313,97510,1,2,0:0:0:0:
147,310,97710,2,2,L|106:309,2,33.3333333333333
397,230,97910,6,0,L|397:342,1,100,2|0,0:0|0:0,0:0:0:0:
230,337,98310,2,0,L|161:338,2,50,2|0|0,0:0|0:0|0:0,0:0:0:0:
374,338,98710,2,0,L|377:215,1,100,10|0,0:0|0:0,0:0:0:0:
216,188,99110,1,0,0:0:0:0:
286,188,99210,1,0,0:0:0:0:
356,184,99310,1,0,0:0:0:0:
61,194,99510,6,0,L|261:192,2,150.000005722046,2|0|0,0:0|0:0|0:0,0:0:0:0:
139,244,100010,1,0,0:0:0:0:
334,238,100110,1,0,0:0:0:0:
205,162,100310,2,0,L|346:162,1,100,10|0,0:0|0:0,0:0:0:0:
136,274,100710,2,0,L|11:274,1,100,2|0,0:0|0:0,0:0:0:0:
111,252,101010,1,0,0:0:0:0:
389,246,101110,6,0,L|386:136,1,100,2|0,0:0|0:0,0:0:0:0:
183,133,101510,2,0,L|121:135,2,50
331,198,101910,1,10,0:0:0:0:
208,254,102110,1,0,0:0:0:0:
474,310,102310,1,0,0:0:0:0:
126,303,102510,1,0,0:0:0:0:
444,294,102710,5,2,0:0:0:0:
444,294,102910,1,0,0:0:0:0:
183,295,103110,1,2,0:0:0:0:
108,226,110310,5,2,0:0:0:0:
342,263,111910,5,2,0:0:0:0:
131,262,112710,5,2,0:0:0:0:
366,277,113110,2,0,L|187:277,1,150
286,248,113510,1,0,0:0:0:0:
454,237,113710,1,0,0:0:0:0:
193,278,113910,6,0,L|194:152,1,100,2|0,0:0|0:0,0:0:0:0:
365,181,114310,2,0,L|367:297,1,100
199,321,114710,2,0,L|87:322,1,100,2|0,0:0|0:0,0:0:0:0:
310,252,115110,2,0,L|429:249,1,100
112,331,115510,6,0,P|52:307|123:224,1,200,6|0,0:0|0:0,0:0:0:0:
178,220,116010,1,0,0:0:0:0:
341,222,116110,1,0,0:0:0:0:
175,190,116310,2,0,L|175:83,1,100,10|0,0:0|0:0,0:0:0:0:
329,82,116710,1,2,0:0:0:0:
175,90,116910,2,2,L|148:114,2,33.3333333333333
420,90,117110,6,0,L|419:213,1,100,2|0,0:0|0:0,0:0:0:0:
250,210,117510,1,2,0:0:0:0:
181,206,117610,1,2,0:0:0:0:
111,202,117710,1,2,0:0:0:0:
252,211,117910,1,10,0:0:0:0:
396,211,118110,1,0,0:0:0:0:
271,130,118310,1,2,0:0:0:0:
343,132,118410,1,2,0:0:0:0:
415,135,118510,1,2,0:0:0:0:
131,144,118710,6,0,P|80:183|162:270,1,200,2|0,0:0|0:0,0:0:0:0:
215,274,119210,1,0,0:0:0:0:
379,277,119310,1,0,0:0:0:0:
215,274,119510,2,0,P|169:349|242:357,1,150,10|0,0:0|0:0,0:0:0:0:
373,272,119910,2,0,L|475:267,1,100,2|2,0:0|0:0,0:0:0:0:
423,259,120210,1,2,0:0:0:0:
170,151,120310,5,2,0:0:0:0:
335,184,120510,1,0,0:0:0:0:
169,253,120710,2,0,L|120:278,2,50,2|0|0,0:0|0:0|0:0,0:0:0:0:
340,263,121110,1,10,0:0:0:0:
168,327,121310,1,0,0:0:0:0:
334,351,121510,1,2,0:0:0:0:
481,322,121710,1,0,0:0:0:0:
201,275,121910,6,0,L|422:260,1,200,6|0,0:0|0:0,0:0:0:0:
340,240,122410,1,0,0:0:0:0:
130,222,122510,2,0,L|126:106,1,100,0|10,0:0|0:0,0:0:0:0:
266,120,122910,1,0,0:0:0:0:
429,122,123110,1,2,0:0:0:0:
303,122,123310,1,0,0:0:0:0:
36,134,123510,6,0,L|34:243,1,100,2|0,0:0|0:0,0:0:0:0:
117,238,123810,1,0,0:0:0:0:
201,240,123910,2,0,L|207:362,1,100,2|0,0:0|0:0,0:0:0:0:
60,338,124310,1,10,0:0:0:0:
226,336,124510,1,0,0:0:0:0:
390,333,124710,2,0,L|468:331,2,50,2|0|0,0:0|0:0|0:0,0:0:0:0:
103,253,125110,5,0,0:0:0:0:
103,253,125310,1,0,0:0:0:0:
269,260,125510,1,0,0:0:0:0:
196,257,125610,1,0,0:0:0:0:
124,258,125710,1,0,0:0:0:0:
277,187,125910,1,10,0:0:0:0:
132,184,126110,1,0,0:0:0:0:
293,138,126310,1,2,0:0:0:0:
462,185,126510,2,2,L|385:182,1,50
178,174,126710,5,2,0:0:0:0:
339,177,126910,1,0,0:0:0:0:
168,231,127110,2,0,P|120:301|152:333,1,100,2|0,0:0|0:0,0:0:0:0:
199,315,127410,1,0,0:0:0:0:
279,315,127510,2,0,L|403:317,1,100,10|0,0:0|0:0,0:0:0:0:
321,275,127810,1,0,0:0:0:0:
123,258,127910,2,0,L|114:141,1,100,2|0,0:0|0:0,0:0:0:0:
386,126,128310,6,0,P|449:156|381:248,1,200,6|2,0:0|0:0,0:0:0:0:
248,261,128910,1,0,0:0:0:0:
411,266,129110,2,0,P|446:215|391:156,1,150,10|0,0:0|0:0,0:0:0:0:
194,140,129510,2,0,L|63:142,1,100,0|2,0:0|0:0,0:0:0:0:
141,124,129776,1,2,0:0:0:0:
178,126,129843,1,2,0:0:0:0:
387,148,129910,6,0,P|414:177|377:258,1,100,2|0,0:0|0:0,0:0:0:0:
233,326,130310,2,0,L|376:313,1,100,2|0,0:0|0:0,0:0:0:0:
154,238,130710,2,0,L|129:106,1,100,10|0,0:0|0:0,0:0:0:0:
297,133,131110,2,0,L|423:129,1,100,2|0,0:0|0:0,0:0:0:0:
336,108,131410,1,0,0:0:0:0:
81,141,131510,6,0,P|27:199|108:271,1,200,2|0,0:0|0:0,0:0:0:0:
174,273,132010,1,0,0:0:0:0:
351,278,132110,1,0,0:0:0:0:
196,255,132310,2,0,L|196:137,1,100,10|0,0:0|0:0,0:0:0:0:
329,142,132710,2,0,L|452:140,1,100
356,136,133010,1,0,0:0:0:0:
156,221,133110,6,0,L|371:220,1,200,2|0,0:0|0:0,0:0:0:0:
288,192,133610,1,0,0:0:0:0:
123,162,133710,1,0,0:0:0:0:
314,160,133910,2,0,L|317:269,1,100,10|0,0:0|0:0,0:0:0:0:
152,259,134310,2,0,L|137:373,1,100,2|0,0:0|0:0,0:0:0:0:
208,355,134610,1,0,0:0:0:0:
397,348,134710,6,0,P|430:268|372:242,1,150,2|0,0:0|0:0,0:0:0:0:
222,223,135110,2,0,L|101:224,1,100
325,213,135510,2,0,L|333:351,1,100,10|0,0:0|0:0,0:0:0:0:
142,311,135910,2,0,L|27:308,1,100,0|2,0:0|0:0,0:0:0:0:
95,296,136176,1,2,0:0:0:0:
145,299,136243,1,2,0:0:0:0:
372,269,136310,6,0,L|377:156,1,100,2|0,0:0|0:0,0:0:0:0:
230,139,136710,1,0,0:0:0:0:
172,138,136810,1,0,0:0:0:0:
113,140,136910,1,0,0:0:0:0:
303,237,137110,2,0,L|433:236,1,100,10|0,0:0|0:0,0:0:0:0:
177,295,137510,2,0,L|176:179,1,100
444,147,137910,6,0,L|223:144,1,200,2|0,0:0|0:0,0:0:0:0:
313,122,138410,1,0,0:0:0:0:
477,123,138510,1,0,0:0:0:0:
339,207,138710,2,0,L|216:206,1,100,10|0,0:0|0:0,0:0:0:0:
433,193,139110,2,0,L|435:73,1,100,2|0,0:0|0:0,0:0:0:0:
360,84,139410,1,0,0:0:0:0:
128,143,139510,6,0,P|63:201|150:247,1,200,2|0,0:0|0:0,0:0:0:0:
255,251,140110,1,0,0:0:0:0:
95,259,140310,2,0,P|56:326|128:357,1,150,10|0,0:0|0:0,0:0:0:0:
294,361,140710,2,0,L|428:361,1,100
105,262,141110,5,6,0:0:0:0:
248,265,141310,1,0,0:0:0:0:
61,211,141510,2,0,L|46:150,2,50
240,241,141910,2,0,L|370:239,1,100,10|0,0:0|0:0,0:0:0:0:
195,329,142310,1,0,0:0:0:0:
359,322,142510,6,0,P|418:302|354:220,1,200,2|0,0:0|0:0,0:0:0:0:
182,207,143110,1,2,0:0:0:0:
28,221,143310,1,0,0:0:0:0:
178,210,143510,1,10,0:0:0:0:
178,210,143710,1,0,0:0:0:0:
28,221,143910,1,0,0:0:0:0:
300,252,144110,6,0,P|364:327|281:371,1,200,2|0,0:0|0:0,0:0:0:0:
98,353,144710,1,2,0:0:0:0:
239,351,144910,1,0,0:0:0:0:
78,295,145110,1,10,0:0:0:0:
238,282,145310,1,0,0:0:0:0:
399,330,145510,1,0,0:0:0:0:
227,253,145710,2,0,P|165:216|250:140,1,200,2|0,0:0|0:0,0:0:0:0:
372,142,146310,6,2,L|399:195,2,50
237,128,146710,1,10,0:0:0:0:
394,133,146910,1,0,0:0:0:0:
239,202,147110,1,0,0:0:0:0:
90,148,147310,2,0,P|34:225|137:232,1,200,2|0,0:0|0:0,0:0:0:0:
413,267,147910,5,2,0:0:0:0:
252,268,148110,1,0,0:0:0:0:
100,272,148310,1,10,0:0:0:0:
269,222,148510,1,0,0:0:0:0:
122,213,148710,1,0,0:0:0:0:
285,224,148910,1,2,0:0:0:0:
324,223,148976,1,2,0:0:0:0:
285,224,149043,1,2,0:0:0:0:
95,131,149110,6,0,L|328:191,2,200,2|0|10,0:0|0:0|0:0,0:0:0:0:
296,278,150110,1,0,0:0:0:0:
157,278,150310,1,2,0:0:0:0:
157,278,150410,1,0,0:0:0:0:
157,278,150510,1,0,0:0:0:0:
416,171,150710,6,0,L|434:277,1,100,2|0,0:0|0:0,0:0:0:0:
259,273,151110,2,0,L|241:378,1,100
457,238,151510,2,0,L|466:132,1,100,10|0,0:0|0:0,0:0:0:0:
287,129,151910,2,0,L|162:128,1,100,0|2,0:0|0:0,0:0:0:0:
251,112,152210,1,2,0:0:0:0:
430,186,152310,6,0,L|210:213,2,200,2|0|0,0:0|0:0|0:0,0:0:0:0:
259,165,153510,1,2,0:0:0:0:
383,143,153710,1,0,0:0:0:0:
60,217,153910,6,0,L|256:217,2,150,6|0|0,0:0|0:0|0:0,0:0:0:0:
133,251,154410,1,0,0:0:0:0:
322,264,154510,1,0,0:0:0:0:
222,150,154710,2,0,L|363:227,2,150.000005722046,10|0|0,0:0|0:0|0:0,0:0:0:0:
379,124,155310,2,2,L|422:123,2,33.3333333333333
117,163,155510,6,0,L|104:265,1,100,2|0,0:0|0:0,0:0:0:0:
269,275,155910,2,0,L|392:275,1,100,2|0,0:0|0:0,0:0:0:0:
310,242,156210,1,0,0:0:0:0:
227,231,156310,2,0,L|231:102,1,100,10|0,0:0|0:0,0:0:0:0:
365,133,156710,1,2,0:0:0:0:
224,75,156910,2,2,L|288:75,1,50
463,195,157110,6,0,L|294:196,2,150,2|0|0,0:0|0:0|0:0,0:0:0:0:
395,225,157610,1,0,0:0:0:0:
210,235,157710,1,0,0:0:0:0:
395,166,157910,2,0,L|177:164,2,150.000005722046
225,94,158510,2,2,L|148:93,1,50
435,128,158710,6,0,L|442:243,1,100,2|0,0:0|0:0,0:0:0:0:
227,261,159110,2,0,L|222:368,1,100,2|0,0:0|0:0,0:0:0:0:
302,362,159410,1,0,0:0:0:0:
388,363,159510,2,0,L|390:255,1,100,10|0,0:0|0:0,0:0:0:0:
210,260,159910,1,2,0:0:0:0:
389,263,160110,1,0,0:0:0:0:
130,152,160310,6,0,L|306:158,2,150.000005722046,6|0|0,0:0|0:0|0:0,0:0:0:0:
130,152,160810,1,0,0:0:0:0:
219,153,160910,1,0,0:0:0:0:
404,169,161110,2,0,L|407:302,1,100,10|0,0:0|0:0,0:0:0:0:
147,275,161510,2,0,L|146:173,1,100,2|2,0:0|0:0,0:0:0:0:
206,172,161776,1,2,0:0:0:0:
257,174,161843,1,2,0:0:0:0:
443,197,161910,5,2,0:0:0:0:
288,196,162110,1,0,0:0:0:0:
441,197,162310,1,2,0:0:0:0:
441,197,162510,1,0,0:0:0:0:
242,153,162710,1,10,0:0:0:0:
402,197,162910,1,0,0:0:0:0:
198,236,163110,2,0,L|191:128,1,100,2|0,0:0|0:0,0:0:0:0:
269,134,163410,1,0,0:0:0:0:
443,81,163510,6,0,L|276:84,2,150,2|0|0,0:0|0:0|0:0,0:0:0:0:
383,112,164010,1,0,0:0:0:0:
181,122,164110,1,0,0:0:0:0:
332,140,164310,2,0,L|341:267,1,100,10|0,0:0|0:0,0:0:0:0:
180,245,164710,1,2,0:0:0:0:
352,253,164910,2,2,L|351:182,1,50
181,158,165110,6,0,L|48:158,1,100,2|0,0:0|0:0,0:0:0:0:
226,253,165510,1,0,0:0:0:0:
287,255,165610,1,0,0:0:0:0:
350,257,165710,1,0,0:0:0:0:
214,173,165910,2,0,L|97:173,1,100,10|0,0:0|0:0,0:0:0:0:
311,96,166310,2,0,L|376:97,2,50
28,140,166710,6,0,L|224:140,2,150,6|0|0,0:0|0:0|0:0,0:0:0:0:
100,170,167210,1,0,0:0:0:0:
312,180,167310,1,0,0:0:0:0:
162,184,167510,2,0,L|160:315,1,100,10|0,0:0|0:0,0:0:0:0:
328,282,167910,1,2,0:0:0:0:
165,222,168110,2,2,L|104:221,2,33.3333333333333
403,230,168310,6,0,L|408:115,1,100,2|0,0:0|0:0,0:0:0:0:
215,156,168710,2,0,L|211:89,1,50
299,97,168910,1,0,0:0:0:0:
457,203,169110,2,0,L|328:204,1,100,10|0,0:0|0:0,0:0:0:0:
200,199,169510,1,0,0:0:0:0:
357,203,169710,2,0,L|357:282,1,50
103,324,169910,6,0,L|308:319,2,150.000005722046,2|0|0,0:0|0:0|0:0,0:0:0:0:
184,302,170410,1,0,0:0:0:0:
374,294,170510,1,0,0:0:0:0:
193,293,170710,2,0,L|194:166,1,100,10|0,0:0|0:0,0:0:0:0:
348,182,171110,1,2,0:0:0:0:
424,183,171210,1,2,0:0:0:0:
348,182,171310,1,2,0:0:0:0:
50,257,171510,6,0,L|38:132,1,100,2|0,0:0|0:0,0:0:0:0:
223,140,171910,2,0,L|232:32,1,100
153,33,172210,1,0,0:0:0:0:
396,102,172310,2,0,L|420:216,1,100,10|0,0:0|0:0,0:0:0:0:
304,244,172710,1,2,0:0:0:0:
471,300,172910,1,0,0:0:0:0:
174,230,173110,6,0,L|15:233,2,150,6|0|0,0:0|0:0|0:0,0:0:0:0:
254,231,173610,1,0,0:0:0:0:
48,311,173710,1,0,0:0:0:0:
218,327,173910,2,0,L|217:180,1,100,10|0,0:0|0:0,0:0:0:0:
64,221,174310,1,2,0:0:0:0:
242,226,174510,1,2,0:0:0:0:
287,197,174576,1,2,0:0:0:0:
239,167,174643,1,2,0:0:0:0:
55,164,174710,6,0,L|39:271,1,100,2|0,0:0|0:0,0:0:0:0:
117,271,175010,1,0,0:0:0:0:
184,330,175110,2,0,L|44:320,1,100,2|0,0:0|0:0,0:0:0:0:
251,237,175510,2,0,L|368:226,1,100,10|0,0:0|0:0,0:0:0:0:
137,153,175910,1,2,0:0:0:0:
137,153,176010,1,2,0:0:0:0:
137,153,176110,1,2,0:0:0:0:
467,305,176310,6,0,L|295:293,2,150,2|0|0,0:0|0:0|0:0,0:0:0:0:
394,331,176810,1,0,0:0:0:0:
200,332,176910,1,0,0:0:0:0:
356,272,177110,2,0,L|217:271,1,100
445,213,177510,2,0,L|446:100,1,100,2|0,0:0|0:0,0:0:0:0:
363,115,177810,1,0,0:0:0:0:
33,174,177910,6,0,L|185:179,2,150,2|0|0,0:0|0:0|0:0,0:0:0:0:
33,174,178410,1,0,0:0:0:0:
121,176,178510,1,0,0:0:0:0:
311,178,178710,2,0,L|309:290,1,100,10|0,0:0|0:0,0:0:0:0:
178,275,179110,1,2,0:0:0:0:
362,329,179310,1,0,0:0:0:0:
100,274,179510,5,6,0:0:0:0:
100,274,179710,1,0,0:0:0:0:
369,282,179910,1,0,0:0:0:0:
210,192,180110,2,0,L|445:159,2,200
371,318,181310,5,0,0:0:0:0:
223,322,181710,1,0,0:0:0:0:
371,318,181910,2,0,P|432:261|349:182,1,200,2|0,0:0|0:0,0:0:0:0:
245,174,182510,1,0,0:0:0:0:
124,145,182710,6,0,L|339:118,2,200,2|0|0,0:0|0:0|0:0,0:0:0:0:
295,219,183710,2,0,P|343:268|265:366,1,200,2|0,0:0|0:0,0:0:0:0:
165,361,184310,5,0,0:0:0:0:
342,340,184510,2,0,P|401:265|330:198,1,200
238,195,185110,1,0,0:0:0:0:
121,197,185310,1,0,0:0:0:0:
243,193,185510,1,0,0:0:0:0:
401,162,185710,2,0,L|337:161,1,50
287,169,185910,6,0,P|251:234|347:284,1,200,2|0,0:0|0:0,0:0:0:0:
184,318,186510,2,0,L|22:188,2,200
371,261,187710,5,0,0:0:0:0:
205,194,188110,1,0,0:0:0:0:
324,189,188310,1,0,0:0:0:0:
206,197,188510,1,0,0:0:0:0:
90,196,188710,2,0,L|77:87,1,100
354,80,189110,6,0,P|440:120|341:276,1,300,2|0,0:0|0:0,0:0:0:0:
147,212,189910,2,0,P|88:268|229:336,1,300,2|0,0:0|0:0,0:0:0:0:
388,286,190710,6,0,L|385:153,1,100,2|0,0:0|0:0,0:0:0:0:
225,178,191110,2,0,L|220:71,1,100
389,131,191510,2,0,P|440:169|329:328,1,300,2|0,0:0|0:0,0:0:0:0:
56,294,192310,5,2,0:0:0:0:
275,288,192710,1,0,0:0:0:0:
142,199,192910,2,0,P|196:144|140:328,1,700
325,308,194510,1,0,0:0:0:0:
203,293,194710,1,2,0:0:0:0:
317,242,194910,1,0,0:0:0:0:
181,264,195110,2,0,P|166:208|178:151,1,100
411,144,195510,5,2,0:0:0:0:
224,151,195910,1,0,0:0:0:0:
350,115,196110,2,0,L|132:109,2,200,2|0|0,0:0|0:0|0:0,0:0:0:0:
161,243,197310,1,0,0:0:0:0:
282,244,197510,1,2,0:0:0:0:
282,244,197710,1,0,0:0:0:0:
161,240,197910,1,0,0:0:0:0:
374,246,198310,1,0,0:0:0:0:
209,158,198510,2,0,L|277:157,1,50
320,154,198710,6,0,L|111:158,1,200,2|0,0:0|0:0,0:0:0:0:
334,291,199310,2,0,P|399:246|285:86,1,300,2|0,0:0|0:0,0:0:0:0:
153,117,200310,6,0,L|461:214,1,300,2|0,0:0|0:0,0:0:0:0:
159,271,201510,1,2,0:0:0:0:
346,302,201910,5,0,0:0:0:0:
454,255,202110,1,0,0:0:0:0:
349,203,202310,1,0,0:0:0:0:
142,205,202510,1,0,0:0:0:0:
362,188,203110,1,2,0:0:0:0:
126,182,203510,5,0,0:0:0:0:
443,55,204110,2,0,L|480:373,1,300,2|2,0:0|0:0,0:0:0:0:
