osu file format v14

[General]
AudioFilename: audio.mp3
AudioLeadIn: 0
PreviewTime: 35248
Countdown: 0
SampleSet: Normal
StackLeniency: 0.7
Mode: 1
LetterboxInBreaks: 0
WidescreenStoryboard: 1

[Editor]
DistanceSpacing: 1.2
BeatDivisor: 4
GridSize: 32
TimelineZoom: 1.9

[Metadata]
Title:Dat $tick
TitleUnicode:Dat $tick
Artist:Rich Brian
ArtistUnicode:Rich Brian
Creator:Chromoxx
Version:Dat Oni
Source:
Tags:stick hiphop hip-hop rap english chigga 88rising
BeatmapID:3561073
BeatmapSetID:1741472

[Difficulty]
HPDrainRate:5
CircleSize:5
OverallDifficulty:5
ApproachRate:5
SliderMultiplier:1.4
SliderTickRate:1

[Events]
//Background and Video events
0,0,"bg.jpg",0,80
//Break Periods
//Storyboard Layer 0 (Background)
//Storyboard Layer 1 (Fail)
//Storyboard Layer 2 (Pass)
//Storyboard Layer 3 (Foreground)
//Storyboard Layer 4 (Overlay)
//Storyboard Sound Samples

[TimingPoints]
8860,555.555555555556,4,1,0,50,1,0
8860,-111.111111111111,4,1,0,50,0,0
16637,-111.111111111111,4,1,0,60,0,0
17748,-100,4,1,0,70,0,0
35526,-80,4,1,0,70,0,1
53304,-80,4,1,0,70,0,0
53721,-111.111111111111,4,1,0,60,0,0
61776,-100,4,1,0,70,0,0
88860,-80,4,1,0,70,0,1
97748,-100,4,1,0,70,0,1
106637,-111.111111111111,4,1,0,50,0,0

[HitObjects]
222,268,8860,5,0,0:0:0:0:
202,135,8998,1,0,0:0:0:0:
202,135,9137,1,0,0:0:0:0:
36,153,9415,1,8,0:0:0:0:
61,141,9693,1,8,0:0:0:0:
61,141,9971,1,0,0:0:0:0:
320,101,10526,1,0,0:0:0:0:
320,101,10804,1,0,0:0:0:0:
320,101,11082,1,8,0:0:0:0:
320,101,11360,1,0,0:0:0:0:
211,113,11637,1,8,0:0:0:0:
211,113,11915,1,8,0:0:0:0:
211,82,12193,1,0,0:0:0:0:
211,82,12332,1,0,0:0:0:0:
153,93,12471,1,8,0:0:0:0:
153,93,12610,1,8,0:0:0:0:
153,93,12748,1,0,0:0:0:0:
239,68,13304,1,8,0:0:0:0:
239,68,13443,1,8,0:0:0:0:
239,68,13582,1,8,0:0:0:0:
222,115,13860,1,0,0:0:0:0:
253,145,14137,1,0,0:0:0:0:
232,178,14415,1,8,0:0:0:0:
207,193,14971,1,8,0:0:0:0:
207,193,15248,1,8,0:0:0:0:
207,193,15526,1,0,0:0:0:0:
206,198,15804,1,8,0:0:0:0:
246,200,16082,1,0,0:0:0:0:
246,200,16360,1,0,0:0:0:0:
156,195,16637,1,12,0:0:0:0:
246,130,17748,1,4,0:0:0:0:
227,208,18026,1,0,0:0:0:0:
227,208,18165,1,0,0:0:0:0:
178,173,18304,1,8,0:0:0:0:
143,176,18443,1,8,0:0:0:0:
143,176,18582,1,0,0:0:0:0:
282,201,18860,1,8,0:0:0:0:
282,201,19137,1,8,0:0:0:0:
282,201,19276,1,8,0:0:0:0:
230,154,19415,1,0,0:0:0:0:
134,188,19554,1,0,0:0:0:0:
114,229,19693,1,8,0:0:0:0:
249,223,19971,1,0,0:0:0:0:
249,223,20110,1,8,0:0:0:0:
186,162,20248,1,0,0:0:0:0:
248,154,20526,1,8,0:0:0:0:
248,154,20804,1,8,0:0:0:0:
248,154,21082,1,0,0:0:0:0:
153,230,21221,1,0,0:0:0:0:
142,67,21360,1,8,0:0:0:0:
142,72,21498,1,0,0:0:0:0:
142,72,21637,1,8,0:0:0:0:
142,72,21776,1,8,0:0:0:0:
142,72,21915,1,0,0:0:0:0:
276,171,22193,1,8,0:0:0:0:
386,199,22471,1,0,0:0:0:0:
386,199,22610,1,8,0:0:0:0:
175,198,22748,1,0,0:0:0:0:
175,198,22887,1,0,0:0:0:0:
177,180,23026,1,8,0:0:0:0:
210,189,23304,1,8,0:0:0:0:
206,222,23582,1,0,0:0:0:0:
206,222,23721,1,0,0:0:0:0:
216,229,23860,1,8,0:0:0:0:
166,228,23998,1,8,0:0:0:0:
166,228,24137,1,0,0:0:0:0:
251,231,24276,1,8,0:0:0:0:
160,232,24415,1,0,0:0:0:0:
239,209,24693,1,8,0:0:0:0:
224,201,24832,1,0,0:0:0:0:
224,201,24971,1,0,0:0:0:0:
235,250,25248,1,0,0:0:0:0:
214,240,25526,1,8,0:0:0:0:
214,240,25665,1,8,0:0:0:0:
181,223,25804,1,0,0:0:0:0:
117,185,25943,1,8,0:0:0:0:
129,226,26082,1,0,0:0:0:0:
168,229,26221,1,0,0:0:0:0:
129,226,26360,1,8,0:0:0:0:
146,216,26637,1,0,0:0:0:0:
226,244,26915,1,8,0:0:0:0:
196,245,27054,1,8,0:0:0:0:
196,245,27193,1,0,0:0:0:0:
196,245,27332,1,0,0:0:0:0:
196,245,27471,1,0,0:0:0:0:
196,245,27748,1,8,0:0:0:0:
282,196,28304,1,8,0:0:0:0:
191,285,28443,1,8,0:0:0:0:
277,262,28582,1,0,0:0:0:0:
209,265,28721,1,8,0:0:0:0:
209,265,28860,1,0,0:0:0:0:
222,253,29137,1,8,0:0:0:0:
192,268,29276,1,0,0:0:0:0:
192,268,29415,1,8,0:0:0:0:
203,242,29693,1,8,0:0:0:0:
203,242,29971,1,0,0:0:0:0:
202,238,30110,1,0,0:0:0:0:
203,242,30248,1,8,0:0:0:0:
203,242,30387,1,8,0:0:0:0:
203,242,30526,1,0,0:0:0:0:
200,237,30665,1,8,0:0:0:0:
200,237,30804,1,0,0:0:0:0:
208,236,31082,1,8,0:0:0:0:
224,280,31360,1,0,0:0:0:0:
224,280,31498,1,8,0:0:0:0:
214,251,31637,1,0,0:0:0:0:
214,251,31776,1,0,0:0:0:0:
214,251,31915,1,0,0:0:0:0:
214,251,32193,1,8,0:0:0:0:
339,185,32471,1,0,0:0:0:0:
232,242,32610,1,0,0:0:0:0:
229,240,32748,1,8,0:0:0:0:
229,240,32887,1,8,0:0:0:0:
201,229,33026,1,0,0:0:0:0:
201,229,33304,1,8,0:0:0:0:
201,229,33582,1,0,0:0:0:0:
201,229,33721,1,8,0:0:0:0:
277,205,33860,1,8,0:0:0:0:
277,205,33998,1,8,0:0:0:0:
277,205,34137,1,0,0:0:0:0:
259,208,34415,1,8,0:0:0:0:
259,208,34554,1,8,0:0:0:0:
259,208,34693,1,0,0:0:0:0:
259,208,34832,1,8,0:0:0:0:
259,208,34971,1,0,0:0:0:0:
259,208,35110,1,0,0:0:0:0:
259,208,35248,1,8,0:0:0:0:
181,247,35526,1,0,0:0:0:0:
181,247,35665,1,8,0:0:0:0:
181,247,36082,1,8,0:0:0:0:
181,247,36221,1,0,0:0:0:0:
183,262,36637,1,8,0:0:0:0:
183,262,36776,1,8,0:0:0:0:
268,257,37193,1,0,0:0:0:0:
268,257,37332,1,0,0:0:0:0:
139,214,37748,1,8,0:0:0:0:
139,214,37887,1,0,0:0:0:0:
139,214,38304,1,0,0:0:0:0:
139,214,38443,1,8,0:0:0:0:
213,213,38860,1,0,0:0:0:0:
277,237,39415,1,0,0:0:0:0:
277,237,39554,1,0,0:0:0:0:
243,173,39971,1,8,0:0:0:0:
216,183,40110,1,0,0:0:0:0:
204,189,40526,1,0,0:0:0:0:
204,189,40665,1,8,0:0:0:0:
171,240,41082,1,0,0:0:0:0:
171,240,41221,1,0,0:0:0:0:
171,240,41637,1,8,0:0:0:0:
171,240,41776,1,8,0:0:0:0:
171,240,42193,1,0,0:0:0:0:
171,240,42332,1,8,0:0:0:0:
171,240,42748,1,8,0:0:0:0:
171,240,42887,1,0,0:0:0:0:
285,187,43304,1,8,0:0:0:0:
231,241,43860,1,0,0:0:0:0:
139,174,44137,1,0,0:0:0:0:
181,247,44415,1,0,0:0:0:0:
181,247,44554,1,8,0:0:0:0:
181,247,44971,1,8,0:0:0:0:
181,247,45110,1,0,0:0:0:0:
183,262,45526,1,8,0:0:0:0:
183,262,45665,1,8,0:0:0:0:
268,257,46082,1,0,0:0:0:0:
268,257,46221,1,0,0:0:0:0:
139,214,46637,1,8,0:0:0:0:
139,214,46776,1,0,0:0:0:0:
139,214,47193,1,0,0:0:0:0:
139,214,47332,1,8,0:0:0:0:
213,213,47748,1,0,0:0:0:0:
277,237,48304,1,0,0:0:0:0:
277,237,48443,1,0,0:0:0:0:
243,173,48860,1,8,0:0:0:0:
216,183,48998,1,0,0:0:0:0:
204,189,49415,1,0,0:0:0:0:
204,189,49554,1,8,0:0:0:0:
171,240,49971,1,0,0:0:0:0:
171,240,50110,1,0,0:0:0:0:
171,240,50526,1,8,0:0:0:0:
171,240,50665,1,8,0:0:0:0:
171,240,51082,1,0,0:0:0:0:
171,240,51221,1,8,0:0:0:0:
171,240,51637,1,8,0:0:0:0:
171,240,51776,1,0,0:0:0:0:
285,187,52193,1,8,0:0:0:0:
48,163,52748,1,12,0:0:0:0:
268,145,53304,1,4,0:0:0:0:
202,216,53860,1,8,0:0:0:0:
150,205,54045,1,0,0:0:0:0:
150,205,54230,1,0,0:0:0:0:
150,205,54415,1,8,0:0:0:0:
150,205,54785,1,8,0:0:0:0:
270,148,55897,1,0,0:0:0:0:
270,148,56082,1,8,0:0:0:0:
190,171,56267,1,8,0:0:0:0:
160,201,56452,1,0,0:0:0:0:
169,172,56637,1,8,0:0:0:0:
169,172,56822,1,8,0:0:0:0:
169,172,57008,1,8,0:0:0:0:
169,172,57193,1,0,0:0:0:0:
262,206,57748,1,8,0:0:0:0:
262,206,57934,1,0,0:0:0:0:
262,206,58119,1,0,0:0:0:0:
262,206,58304,1,8,0:0:0:0:
159,176,58489,1,8,0:0:0:0:
166,179,58674,1,0,0:0:0:0:
166,179,58860,1,8,0:0:0:0:
166,179,59045,1,8,0:0:0:0:
166,179,59230,1,8,0:0:0:0:
166,179,59415,1,0,0:0:0:0:
174,180,59971,1,8,0:0:0:0:
174,180,60156,1,8,0:0:0:0:
174,180,60341,1,8,0:0:0:0:
181,217,60526,1,0,0:0:0:0:
181,217,60711,1,0,0:0:0:0:
181,217,60897,1,0,0:0:0:0:
181,217,61082,1,8,0:0:0:0:
181,217,61267,1,8,0:0:0:0:
181,217,61452,1,0,0:0:0:0:
181,217,61637,1,8,0:0:0:0:
249,167,61915,1,8,0:0:0:0:
249,167,62054,1,8,0:0:0:0:
225,189,62193,1,0,0:0:0:0:
288,269,62471,1,0,0:0:0:0:
288,269,62748,1,8,0:0:0:0:
288,269,62887,1,8,0:0:0:0:
174,241,63026,1,0,0:0:0:0:
174,241,63165,1,0,0:0:0:0:
144,222,63304,1,8,0:0:0:0:
144,222,63582,1,8,0:0:0:0:
198,274,63721,1,8,0:0:0:0:
147,275,63860,1,0,0:0:0:0:
157,239,64137,1,0,0:0:0:0:
256,226,64415,1,8,0:0:0:0:
159,88,64554,1,0,0:0:0:0:
159,88,64693,1,8,0:0:0:0:
211,293,64971,1,0,0:0:0:0:
248,264,65248,1,8,0:0:0:0:
53,214,65387,1,8,0:0:0:0:
226,188,65526,1,0,0:0:0:0:
226,188,65665,1,0,0:0:0:0:
196,200,65804,1,8,0:0:0:0:
196,200,65943,1,0,0:0:0:0:
195,185,66082,1,8,0:0:0:0:
120,251,66360,1,8,0:0:0:0:
219,258,66637,1,0,0:0:0:0:
219,258,66776,1,0,0:0:0:0:
230,289,66915,1,8,0:0:0:0:
230,289,67054,1,8,0:0:0:0:
181,235,67193,1,0,0:0:0:0:
181,235,67332,1,8,0:0:0:0:
181,235,67471,1,0,0:0:0:0:
175,216,67748,1,8,0:0:0:0:
226,208,68026,1,0,0:0:0:0:
226,208,68165,1,0,0:0:0:0:
204,193,68304,1,8,0:0:0:0:
204,193,68582,1,8,0:0:0:0:
308,217,68860,1,0,0:0:0:0:
308,217,68998,1,8,0:0:0:0:
241,193,69137,1,0,0:0:0:0:
241,193,69276,1,0,0:0:0:0:
241,193,69415,1,8,0:0:0:0:
262,216,69693,1,8,0:0:0:0:
262,216,69971,1,0,0:0:0:0:
262,216,70110,1,0,0:0:0:0:
267,208,70248,1,8,0:0:0:0:
224,217,70387,1,0,0:0:0:0:
224,217,70526,1,8,0:0:0:0:
76,152,70665,1,8,0:0:0:0:
76,152,70804,1,0,0:0:0:0:
243,262,71082,1,8,0:0:0:0:
243,262,71221,1,8,0:0:0:0:
243,262,71360,1,8,0:0:0:0:
193,254,71637,1,0,0:0:0:0:
193,254,71915,1,0,0:0:0:0:
212,261,72193,1,8,0:0:0:0:
212,261,72332,1,8,0:0:0:0:
212,261,72748,1,0,0:0:0:0:
212,261,72887,1,0,0:0:0:0:
232,228,73304,1,12,0:0:0:0:
222,257,73582,1,0,0:0:0:0:
222,257,73721,1,0,0:0:0:0:
153,228,73860,1,8,0:0:0:0:
153,228,73998,1,8,0:0:0:0:
139,212,74137,1,0,0:0:0:0:
139,212,74415,1,8,0:0:0:0:
233,96,74971,1,8,0:0:0:0:
233,96,75110,1,8,0:0:0:0:
165,132,75248,1,0,0:0:0:0:
213,142,75526,1,8,0:0:0:0:
289,212,75804,1,0,0:0:0:0:
289,212,75943,1,0,0:0:0:0:
185,173,76082,1,8,0:0:0:0:
182,211,76221,1,0,0:0:0:0:
182,211,76360,1,0,0:0:0:0:
212,189,76637,1,8,0:0:0:0:
212,189,76915,1,0,0:0:0:0:
212,189,77054,1,0,0:0:0:0:
212,189,77193,1,8,0:0:0:0:
217,203,77471,1,8,0:0:0:0:
167,228,77610,1,8,0:0:0:0:
167,228,77748,1,0,0:0:0:0:
214,226,78026,1,8,0:0:0:0:
240,205,78165,1,8,0:0:0:0:
226,198,78304,1,0,0:0:0:0:
189,231,78443,1,8,0:0:0:0:
179,241,78582,1,0,0:0:0:0:
179,241,78860,1,8,0:0:0:0:
199,237,79137,1,0,0:0:0:0:
199,237,79276,1,0,0:0:0:0:
199,227,79415,1,8,0:0:0:0:
195,239,79554,1,8,0:0:0:0:
194,235,79693,1,0,0:0:0:0:
197,253,79832,1,8,0:0:0:0:
197,253,79971,1,0,0:0:0:0:
211,239,80248,1,8,0:0:0:0:
211,239,80526,1,0,0:0:0:0:
250,217,80665,1,0,0:0:0:0:
237,210,80804,1,8,0:0:0:0:
237,210,80943,1,0,0:0:0:0:
151,216,81082,1,8,0:0:0:0:
151,216,81360,1,8,0:0:0:0:
181,193,81498,1,8,0:0:0:0:
181,193,81637,1,0,0:0:0:0:
181,193,81915,1,0,0:0:0:0:
200,188,82193,1,8,0:0:0:0:
200,188,82332,1,8,0:0:0:0:
187,180,82471,1,0,0:0:0:0:
167,259,82610,1,0,0:0:0:0:
185,179,82748,1,8,0:0:0:0:
175,270,83026,1,0,0:0:0:0:
175,270,83304,1,8,0:0:0:0:
207,268,83443,1,8,0:0:0:0:
133,136,83582,1,0,0:0:0:0:
133,136,83721,1,8,0:0:0:0:
133,136,83860,1,0,0:0:0:0:
133,136,83998,1,0,0:0:0:0:
133,136,84137,1,8,0:0:0:0:
261,287,84415,1,0,0:0:0:0:
185,202,84971,1,8,0:0:0:0:
185,202,85156,1,0,0:0:0:0:
185,202,85341,1,0,0:0:0:0:
185,202,85526,1,8,0:0:0:0:
185,202,85711,1,8,0:0:0:0:
185,264,85897,1,8,0:0:0:0:
185,264,86082,1,0,0:0:0:0:
195,245,86637,1,8,0:0:0:0:
183,326,86822,1,8,0:0:0:0:
211,322,87008,1,8,0:0:0:0:
144,274,87193,1,0,0:0:0:0:
211,322,87378,1,0,0:0:0:0:
211,322,87563,1,0,0:0:0:0:
144,274,87748,1,8,0:0:0:0:
144,274,87934,1,0,0:0:0:0:
144,274,88119,1,0,0:0:0:0:
144,274,88304,1,8,0:0:0:0:
251,232,88582,1,8,0:0:0:0:
181,247,88860,1,0,0:0:0:0:
181,247,88998,1,8,0:0:0:0:
181,247,89415,1,8,0:0:0:0:
181,247,89554,1,0,0:0:0:0:
183,262,89971,1,8,0:0:0:0:
183,262,90110,1,8,0:0:0:0:
268,257,90526,1,0,0:0:0:0:
268,257,90665,1,0,0:0:0:0:
139,214,91082,1,8,0:0:0:0:
139,214,91221,1,0,0:0:0:0:
139,214,91637,1,0,0:0:0:0:
139,214,91776,1,8,0:0:0:0:
213,213,92193,1,0,0:0:0:0:
277,237,92748,1,0,0:0:0:0:
277,237,92887,1,0,0:0:0:0:
243,173,93304,1,8,0:0:0:0:
216,183,93443,1,0,0:0:0:0:
204,189,93860,1,0,0:0:0:0:
204,189,93998,1,8,0:0:0:0:
171,240,94415,1,0,0:0:0:0:
171,240,94554,1,0,0:0:0:0:
171,240,94971,1,8,0:0:0:0:
171,240,95110,1,8,0:0:0:0:
171,240,95526,1,0,0:0:0:0:
171,240,95665,1,8,0:0:0:0:
171,240,96082,1,8,0:0:0:0:
171,240,96221,1,0,0:0:0:0:
285,187,96637,1,8,0:0:0:0:
231,241,97193,1,0,0:0:0:0:
181,247,97748,1,0,0:0:0:0:
181,247,97887,1,8,0:0:0:0:
181,247,98304,1,8,0:0:0:0:
181,247,98443,1,0,0:0:0:0:
183,262,98860,1,8,0:0:0:0:
183,262,98998,1,8,0:0:0:0:
268,257,99415,1,0,0:0:0:0:
268,257,99554,1,0,0:0:0:0:
139,214,99971,1,8,0:0:0:0:
139,214,100110,1,0,0:0:0:0:
139,214,100526,1,0,0:0:0:0:
139,214,100665,1,8,0:0:0:0:
213,213,101082,1,0,0:0:0:0:
277,237,101637,1,0,0:0:0:0:
277,237,101776,1,0,0:0:0:0:
243,173,102193,1,8,0:0:0:0:
216,183,102332,1,0,0:0:0:0:
204,189,102748,1,0,0:0:0:0:
204,189,102887,1,8,0:0:0:0:
171,240,103304,1,0,0:0:0:0:
171,240,103443,1,0,0:0:0:0:
171,240,103860,1,8,0:0:0:0:
171,240,103998,1,8,0:0:0:0:
171,240,104415,1,0,0:0:0:0:
171,240,104554,1,8,0:0:0:0:
171,240,104971,1,8,0:0:0:0:
171,240,105110,1,0,0:0:0:0:
285,187,105526,1,8,0:0:0:0:
157,194,106082,1,12,0:0:0:0:
222,268,106637,1,0,0:0:0:0:
202,135,106776,1,0,0:0:0:0:
202,135,106915,1,0,0:0:0:0:
36,153,107193,1,8,0:0:0:0:
61,141,107471,1,8,0:0:0:0:
61,141,107748,1,0,0:0:0:0:
169,237,107887,1,0,0:0:0:0:
165,293,108026,1,8,0:0:0:0:
320,101,108304,1,0,0:0:0:0:
320,101,108582,1,0,0:0:0:0:
320,101,108860,1,8,0:0:0:0:
320,101,109137,1,0,0:0:0:0:
211,113,109415,1,8,0:0:0:0:
211,113,109693,1,8,0:0:0:0:
211,82,109971,1,0,0:0:0:0:
211,82,110110,1,0,0:0:0:0:
153,93,110248,1,8,0:0:0:0:
153,93,110387,1,8,0:0:0:0:
153,93,110526,1,0,0:0:0:0:
239,68,111082,1,8,0:0:0:0:
239,68,111221,1,8,0:0:0:0:
239,68,111360,1,8,0:0:0:0:
222,115,111637,1,0,0:0:0:0:
253,145,111915,1,0,0:0:0:0:
232,178,112193,1,8,0:0:0:0:
130,246,112471,1,0,0:0:0:0:
207,193,112748,1,8,0:0:0:0:
207,193,113026,1,8,0:0:0:0:
207,193,113304,1,0,0:0:0:0:
206,198,113582,1,8,0:0:0:0:
246,200,113860,1,0,0:0:0:0:
246,200,114137,1,0,0:0:0:0:
156,195,114415,1,8,0:0:0:0:
258,278,114554,1,8,0:0:0:0:
184,251,114693,1,0,0:0:0:0:
174,274,114832,1,0,0:0:0:0:
174,274,114971,1,8,0:0:0:0:
222,268,115526,1,0,0:0:0:0:
202,135,115665,1,0,0:0:0:0:
202,135,115804,1,0,0:0:0:0:
36,153,116082,1,8,0:0:0:0:
61,141,116360,1,8,0:0:0:0:
61,141,116637,1,0,0:0:0:0:
320,101,117193,1,0,0:0:0:0:
320,101,117471,1,0,0:0:0:0:
320,101,117748,1,8,0:0:0:0:
320,101,118026,1,0,0:0:0:0:
211,113,118304,1,8,0:0:0:0:
211,113,118582,1,8,0:0:0:0:
211,82,118860,1,0,0:0:0:0:
211,82,118998,1,0,0:0:0:0:
153,93,119137,1,8,0:0:0:0:
153,93,119276,1,8,0:0:0:0:
153,93,119415,1,0,0:0:0:0:
239,68,119971,1,8,0:0:0:0:
239,68,120110,1,8,0:0:0:0:
239,68,120248,1,8,0:0:0:0:
222,115,120526,1,0,0:0:0:0:
253,145,120804,1,0,0:0:0:0:
232,178,121082,1,8,0:0:0:0:
207,193,121637,1,8,0:0:0:0:
207,193,121915,1,8,0:0:0:0:
207,193,122193,1,0,0:0:0:0:
206,198,122471,1,8,0:0:0:0:
246,200,122748,1,0,0:0:0:0:
246,200,123026,1,0,0:0:0:0:
156,195,123304,1,8,0:0:0:0:
258,278,123443,1,8,0:0:0:0:
184,251,123582,1,0,0:0:0:0:
174,274,123721,1,0,0:0:0:0:
174,274,123860,1,8,0:0:0:0:
286,193,124137,1,8,0:0:0:0:
