osu file format v14

[General]
AudioFilename: audio.mp3
AudioLeadIn: 0
PreviewTime: 35248
Countdown: 0
SampleSet: Normal
StackLeniency: 0.7
Mode: 1
LetterboxInBreaks: 0
WidescreenStoryboard: 0

[Editor]
DistanceSpacing: 1.2
BeatDivisor: 8
GridSize: 32
TimelineZoom: 1.9

[Metadata]
Title:Dat $tick
TitleUnicode:Dat $tick
Artist:Rich Brian
ArtistUnicode:Rich Brian
Creator:Chromoxx
Version:Dat Inner Oni
Source:
Tags:stick hiphop hip-hop rap english chigga 88rising
BeatmapID:3560119
BeatmapSetID:1741472

[Difficulty]
HPDrainRate:6
CircleSize:5
OverallDifficulty:6
ApproachRate:5
SliderMultiplier:1.4
SliderTickRate:1

[Events]
//Background and Video events
0,0,"bg.jpg",0,80
//Break Periods
//Storyboard Layer 0 (Background)
//Storyboard Layer 1 (Fail)
//Storyboard Layer 2 (Pass)
//Storyboard Layer 3 (Foreground)
//Storyboard Layer 4 (Overlay)
//Storyboard Sound Samples

[TimingPoints]
8860,555.555555555556,4,1,0,50,1,0
8860,-133.333333333333,4,1,0,50,0,0
16637,-33.3333333333333,4,1,0,60,0,0
16915,-153.846153846154,4,1,0,60,0,0
17193,-166.666666666667,4,1,0,60,0,0
17471,-181.818181818182,4,1,0,60,0,0
17748,-200,4,1,0,70,0,0
35526,-200,4,1,0,70,0,1
36082,-50,4,1,0,70,0,1
36637,-200,4,1,0,70,0,1
37193,-50,4,1,0,70,0,1
37748,-200,4,1,0,70,0,1
38304,-50,4,1,0,70,0,1
38860,-200,4,1,0,70,0,1
40526,-50,4,1,0,70,0,1
41082,-200,4,1,0,70,0,1
41637,-50,4,1,0,70,0,1
42193,-200,4,1,0,70,0,1
42748,-50,4,1,0,70,0,1
43304,-200,4,1,0,70,0,1
44971,-50,4,1,0,70,0,1
45526,-200,4,1,0,70,0,1
46082,-50,4,1,0,70,0,1
46637,-200,4,1,0,70,0,1
47193,-50,4,1,0,70,0,1
47748,-200,4,1,0,70,0,1
49415,-50,4,1,0,70,0,1
49971,-200,4,1,0,70,0,1
50526,-50,4,1,0,70,0,1
51082,-200,4,1,0,70,0,1
51637,-50,4,1,0,70,0,1
52193,-200,4,1,0,70,0,1
53304,-228.571428571429,4,1,0,70,0,0
53721,-266.666666666667,4,1,0,60,0,0
61776,-200,4,1,0,70,0,0
88860,-200,4,1,0,70,0,1
89415,-25,4,1,0,70,0,1
89971,-200,4,1,0,70,0,1
90526,-25,4,1,0,70,0,1
91082,-200,4,1,0,70,0,1
91637,-25,4,1,0,70,0,1
92193,-200,4,1,0,70,0,1
93860,-25,4,1,0,70,0,1
94415,-200,4,1,0,70,0,1
94971,-25,4,1,0,70,0,1
95526,-200,4,1,0,70,0,1
96082,-25,4,1,0,70,0,1
96637,-200,4,1,0,70,0,1
98304,-25,4,1,0,70,0,1
98860,-200,4,1,0,70,0,1
99415,-25,4,1,0,70,0,1
99971,-200,4,1,0,70,0,1
100526,-25,4,1,0,70,0,1
101082,-200,4,1,0,70,0,1
101637,-25,4,1,0,70,0,1
102193,-200,4,1,0,70,0,1
102748,-25,4,1,0,70,0,1
103304,-200,4,1,0,70,0,1
103860,-25,4,1,0,70,0,1
104415,-200,4,1,0,70,0,1
104971,-25,4,1,0,70,0,1
105526,-200,4,1,0,70,0,1
106082,-33.3333333333333,4,1,0,70,0,1
106637,-133.333333333333,4,1,0,50,0,0

[HitObjects]
207,253,8860,5,8,0:0:0:0:
207,253,8998,1,8,0:0:0:0:
207,253,9137,1,8,0:0:0:0:
165,226,9415,1,0,0:0:0:0:
165,226,9693,1,0,0:0:0:0:
165,226,9971,1,8,0:0:0:0:
246,265,10248,1,0,0:0:0:0:
187,238,10526,1,8,0:0:0:0:
261,259,10804,1,8,0:0:0:0:
261,259,11082,1,0,0:0:0:0:
261,259,11360,1,8,0:0:0:0:
187,170,11637,1,0,0:0:0:0:
187,170,11915,1,0,0:0:0:0:
325,152,12193,1,8,0:0:0:0:
325,152,12262,1,8,0:0:0:0:
325,152,12332,1,8,0:0:0:0:
325,152,12401,1,8,0:0:0:0:
325,152,12471,1,8,0:0:0:0:
325,152,12540,1,8,0:0:0:0:
104,138,12610,1,8,0:0:0:0:
104,138,12679,1,8,0:0:0:0:
325,152,12748,1,0,0:0:0:0:
318,243,13026,1,0,0:0:0:0:
202,235,13304,1,8,0:0:0:0:
202,235,13443,1,8,0:0:0:0:
202,235,13582,1,8,0:0:0:0:
163,218,13860,1,0,0:0:0:0:
163,218,14137,1,0,0:0:0:0:
163,218,14415,1,8,0:0:0:0:
196,184,14693,1,0,0:0:0:0:
258,250,14971,1,8,0:0:0:0:
258,250,15248,1,8,0:0:0:0:
258,250,15526,1,0,0:0:0:0:
181,216,15804,1,8,0:0:0:0:
250,187,16082,1,0,0:0:0:0:
250,187,16360,1,0,0:0:0:0:
250,187,16637,1,12,0:0:0:0:
93,179,16915,1,0,0:0:0:0:
93,179,17193,1,0,0:0:0:0:
93,179,17471,1,0,0:0:0:0:
149,183,17748,1,12,0:0:0:0:
234,210,18026,1,0,0:0:0:0:
240,211,18165,1,0,0:0:0:0:
200,209,18304,1,8,0:0:0:0:
148,210,18443,1,8,0:0:0:0:
148,210,18582,1,0,0:0:0:0:
202,267,18860,1,8,0:0:0:0:
320,188,19137,1,0,0:0:0:0:
239,180,19276,1,0,0:0:0:0:
225,162,19415,1,8,0:0:0:0:
218,162,19554,1,0,0:0:0:0:
209,199,19693,1,8,0:0:0:0:
229,171,19971,1,8,0:0:0:0:
189,253,20110,1,8,0:0:0:0:
132,228,20248,1,0,0:0:0:0:
268,209,20526,1,0,0:0:0:0:
268,209,20804,1,0,0:0:0:0:
354,166,21082,1,8,0:0:0:0:
354,166,21151,1,8,0:0:0:0:
346,166,21221,1,8,0:0:0:0:
346,166,21290,1,8,0:0:0:0:
346,166,21360,1,8,0:0:0:0:
346,166,21429,1,8,0:0:0:0:
107,114,21498,1,8,0:0:0:0:
107,114,21568,1,8,0:0:0:0:
346,166,21637,1,0,0:0:0:0:
159,269,21776,1,0,0:0:0:0:
174,173,21915,1,8,0:0:0:0:
356,253,22193,1,0,0:0:0:0:
356,253,22332,1,8,0:0:0:0:
356,253,22471,1,0,0:0:0:0:
356,253,22610,1,0,0:0:0:0:
356,253,22748,1,8,0:0:0:0:
356,253,22887,1,0,0:0:0:0:
356,253,23026,1,8,0:0:0:0:
276,267,23304,1,0,0:0:0:0:
250,261,23582,1,8,0:0:0:0:
250,261,23721,1,8,0:0:0:0:
216,239,23860,1,0,0:0:0:0:
195,225,23998,1,8,0:0:0:0:
208,225,24137,1,0,0:0:0:0:
208,225,24276,1,0,0:0:0:0:
208,225,24415,1,8,0:0:0:0:
227,213,24554,1,0,0:0:0:0:
196,194,24693,1,8,0:0:0:0:
196,194,24832,1,0,0:0:0:0:
196,194,24971,1,0,0:0:0:0:
266,239,25248,1,0,0:0:0:0:
352,250,25526,1,8,0:0:0:0:
352,250,25596,1,8,0:0:0:0:
352,250,25665,1,8,0:0:0:0:
104,131,25735,1,8,0:0:0:0:
352,250,25804,1,0,0:0:0:0:
352,250,25873,1,0,0:0:0:0:
352,250,25943,1,0,0:0:0:0:
103,157,26012,1,0,0:0:0:0:
352,250,26082,1,8,0:0:0:0:
191,261,26360,1,0,0:0:0:0:
215,253,26498,1,0,0:0:0:0:
213,272,26637,1,8,0:0:0:0:
147,240,26776,1,8,0:0:0:0:
293,258,26915,1,0,0:0:0:0:
293,258,27054,1,8,0:0:0:0:
293,258,27193,1,0,0:0:0:0:
293,258,27332,1,0,0:0:0:0:
201,263,27471,1,8,0:0:0:0:
160,235,27610,1,0,0:0:0:0:
157,232,27748,1,8,0:0:0:0:
272,223,28304,1,0,0:0:0:0:
230,264,28443,1,8,0:0:0:0:
230,264,28582,1,8,0:0:0:0:
230,264,28721,1,8,0:0:0:0:
216,253,28860,1,0,0:0:0:0:
187,253,28998,1,8,0:0:0:0:
181,249,29137,1,0,0:0:0:0:
187,253,29276,1,0,0:0:0:0:
171,244,29415,1,8,0:0:0:0:
271,284,29693,1,8,0:0:0:0:
361,216,29971,1,0,0:0:0:0:
361,216,30040,1,0,0:0:0:0:
361,216,30110,1,0,0:0:0:0:
353,199,30179,1,0,0:0:0:0:
353,199,30248,1,0,0:0:0:0:
353,199,30318,1,0,0:0:0:0:
121,145,30387,1,0,0:0:0:0:
121,145,30457,1,0,0:0:0:0:
353,199,30526,1,8,0:0:0:0:
235,184,30665,1,8,0:0:0:0:
202,193,30804,1,0,0:0:0:0:
235,232,31082,1,8,0:0:0:0:
281,244,31360,1,0,0:0:0:0:
281,244,31498,1,0,0:0:0:0:
218,259,31637,1,8,0:0:0:0:
141,172,31776,1,0,0:0:0:0:
141,172,31915,1,0,0:0:0:0:
141,172,32193,1,8,0:0:0:0:
243,194,32471,1,0,0:0:0:0:
216,295,32610,1,8,0:0:0:0:
281,249,32748,1,8,0:0:0:0:
216,295,32887,1,0,0:0:0:0:
181,264,33026,1,8,0:0:0:0:
281,249,33165,1,8,0:0:0:0:
203,205,33304,1,0,0:0:0:0:
213,207,33582,1,8,0:0:0:0:
213,207,33721,1,0,0:0:0:0:
203,205,33860,1,0,0:0:0:0:
203,205,33998,1,8,0:0:0:0:
226,190,34137,1,0,0:0:0:0:
226,190,34276,1,0,0:0:0:0:
223,178,34415,1,8,0:0:0:0:
299,215,34485,1,8,0:0:0:0:
299,215,34554,1,8,0:0:0:0:
299,215,34623,1,8,0:0:0:0:
299,215,34693,1,8,0:0:0:0:
299,215,34762,1,8,0:0:0:0:
116,121,34832,1,8,0:0:0:0:
116,121,34901,1,8,0:0:0:0:
299,207,34971,1,0,0:0:0:0:
286,264,35248,1,0,0:0:0:0:
358,246,35526,1,8,0:0:0:0:
181,282,35665,1,8,0:0:0:0:
301,259,36082,1,0,0:0:0:0:
189,275,36221,1,0,0:0:0:0:
192,272,36637,1,8,0:0:0:0:
189,275,36776,1,0,0:0:0:0:
189,275,37193,1,0,0:0:0:0:
192,272,37332,1,8,0:0:0:0:
212,257,37748,1,0,0:0:0:0:
188,255,37887,1,8,0:0:0:0:
188,255,38304,1,8,0:0:0:0:
126,169,38443,1,0,0:0:0:0:
338,194,38860,1,8,0:0:0:0:
270,209,38929,1,8,0:0:0:0:
248,197,38998,1,8,0:0:0:0:
226,183,39068,1,8,0:0:0:0:
248,197,39137,1,8,0:0:0:0:
170,168,39207,1,8,0:0:0:0:
282,116,39276,1,8,0:0:0:0:
282,116,39346,1,8,0:0:0:0:
149,157,39415,1,0,0:0:0:0:
312,261,39554,1,8,0:0:0:0:
236,244,39971,1,8,0:0:0:0:
236,244,40110,1,0,0:0:0:0:
232,234,40526,1,0,0:0:0:0:
232,234,40665,1,8,0:0:0:0:
148,213,41082,1,0,0:0:0:0:
148,213,41221,1,0,0:0:0:0:
148,213,41637,1,8,0:0:0:0:
148,213,41776,1,8,0:0:0:0:
179,218,42193,1,0,0:0:0:0:
179,218,42332,1,8,0:0:0:0:
179,218,42748,1,8,0:0:0:0:
179,218,42887,1,0,0:0:0:0:
216,200,43304,1,8,0:0:0:0:
216,200,43373,1,8,0:0:0:0:
253,94,43443,1,8,0:0:0:0:
161,77,43512,1,8,0:0:0:0:
253,94,43582,1,0,0:0:0:0:
253,94,43651,1,0,0:0:0:0:
253,94,43721,1,0,0:0:0:0:
77,116,43790,1,0,0:0:0:0:
253,94,43860,1,8,0:0:0:0:
189,273,44137,1,8,0:0:0:0:
204,264,44415,1,0,0:0:0:0:
195,254,44554,1,0,0:0:0:0:
195,254,44971,1,8,0:0:0:0:
195,254,45110,1,8,0:0:0:0:
368,224,45526,1,0,0:0:0:0:
243,185,45665,1,8,0:0:0:0:
243,185,46082,1,8,0:0:0:0:
199,169,46221,1,0,0:0:0:0:
262,220,46637,1,8,0:0:0:0:
200,218,46776,1,0,0:0:0:0:
198,212,47193,1,0,0:0:0:0:
198,212,47332,1,8,0:0:0:0:
353,262,47748,1,0,0:0:0:0:
353,262,47818,1,0,0:0:0:0:
353,262,47887,1,0,0:0:0:0:
353,262,47957,1,0,0:0:0:0:
353,262,48026,1,0,0:0:0:0:
346,256,48096,1,0,0:0:0:0:
98,155,48165,1,0,0:0:0:0:
98,155,48235,1,0,0:0:0:0:
346,256,48304,1,8,0:0:0:0:
208,292,48443,1,0,0:0:0:0:
261,207,48860,1,0,0:0:0:0:
261,207,48998,1,8,0:0:0:0:
261,207,49415,1,8,0:0:0:0:
261,207,49554,1,0,0:0:0:0:
215,234,49971,1,8,0:0:0:0:
215,234,50110,1,8,0:0:0:0:
186,231,50526,1,0,0:0:0:0:
186,231,50665,1,0,0:0:0:0:
154,224,51082,1,8,0:0:0:0:
154,224,51221,1,0,0:0:0:0:
154,224,51637,1,0,0:0:0:0:
154,224,51776,1,8,0:0:0:0:
298,186,52193,1,0,0:0:0:0:
223,204,52262,1,0,0:0:0:0:
223,204,52332,1,0,0:0:0:0:
183,124,52401,1,0,0:0:0:0:
189,180,52471,1,8,0:0:0:0:
189,180,52540,1,8,0:0:0:0:
168,169,52610,1,8,0:0:0:0:
184,158,52679,1,8,0:0:0:0:
160,158,52748,1,0,0:0:0:0:
160,158,53304,1,12,0:0:0:0:
280,214,53860,1,8,0:0:0:0:
280,214,54045,1,0,0:0:0:0:
280,214,54230,1,0,0:0:0:0:
280,214,54415,1,8,0:0:0:0:
280,214,54785,1,8,0:0:0:0:
239,273,55897,1,0,0:0:0:0:
156,210,56082,1,8,0:0:0:0:
175,199,56267,1,0,0:0:0:0:
175,199,56452,1,0,0:0:0:0:
161,185,56637,1,8,0:0:0:0:
161,185,56822,1,8,0:0:0:0:
161,185,57008,1,8,0:0:0:0:
170,178,57193,1,0,0:0:0:0:
170,178,57378,1,8,0:0:0:0:
160,169,57563,1,8,0:0:0:0:
160,169,57748,1,0,0:0:0:0:
160,169,57934,1,0,0:0:0:0:
161,166,58119,1,0,0:0:0:0:
187,211,58304,1,8,0:0:0:0:
187,211,58489,1,8,0:0:0:0:
213,202,58674,1,8,0:0:0:0:
226,201,58860,1,0,0:0:0:0:
226,201,59045,1,8,0:0:0:0:
226,201,59230,1,8,0:0:0:0:
226,201,59415,1,0,0:0:0:0:
226,201,59600,1,0,0:0:0:0:
226,201,59785,1,8,0:0:0:0:
210,238,59971,1,0,0:0:0:0:
210,238,60156,1,0,0:0:0:0:
210,238,60341,1,0,0:0:0:0:
213,202,60526,1,8,0:0:0:0:
213,202,60711,1,8,0:0:0:0:
234,189,60897,1,0,0:0:0:0:
233,189,61082,1,8,0:0:0:0:
183,195,61267,1,0,0:0:0:0:
183,195,61452,1,0,0:0:0:0:
183,195,61637,1,8,0:0:0:0:
277,157,61915,1,8,0:0:0:0:
277,157,62054,1,8,0:0:0:0:
218,261,62193,1,0,0:0:0:0:
110,82,62471,1,0,0:0:0:0:
164,220,62748,1,8,0:0:0:0:
419,115,62887,1,8,0:0:0:0:
360,279,63026,1,0,0:0:0:0:
81,161,63165,1,0,0:0:0:0:
134,208,63304,1,8,0:0:0:0:
229,232,63582,1,0,0:0:0:0:
173,63,63721,1,0,0:0:0:0:
229,232,63860,1,8,0:0:0:0:
247,287,64137,1,8,0:0:0:0:
183,216,64415,1,8,0:0:0:0:
189,271,64554,1,0,0:0:0:0:
157,250,64693,1,8,0:0:0:0:
312,237,64971,1,8,0:0:0:0:
446,234,65110,1,8,0:0:0:0:
101,182,65248,1,0,0:0:0:0:
221,246,65387,1,0,0:0:0:0:
149,168,65526,1,8,0:0:0:0:
252,169,65596,1,8,0:0:0:0:
147,181,65665,1,8,0:0:0:0:
98,154,65735,1,8,0:0:0:0:
127,162,65804,1,8,0:0:0:0:
98,154,65873,1,8,0:0:0:0:
32,168,65943,1,8,0:0:0:0:
37,172,66012,1,8,0:0:0:0:
92,144,66082,1,0,0:0:0:0:
239,247,66360,1,0,0:0:0:0:
306,227,66637,1,8,0:0:0:0:
241,272,66776,1,8,0:0:0:0:
267,197,66915,1,0,0:0:0:0:
267,197,67054,1,8,0:0:0:0:
267,197,67193,1,0,0:0:0:0:
240,173,67332,1,0,0:0:0:0:
211,173,67471,1,8,0:0:0:0:
170,178,67610,1,0,0:0:0:0:
170,178,67748,1,8,0:0:0:0:
384,286,68026,1,8,0:0:0:0:
384,286,68165,1,8,0:0:0:0:
184,209,68304,1,0,0:0:0:0:
212,126,68582,1,0,0:0:0:0:
84,101,68860,1,8,0:0:0:0:
105,101,68998,1,8,0:0:0:0:
269,226,69137,1,0,0:0:0:0:
149,82,69276,1,0,0:0:0:0:
359,285,69415,1,8,0:0:0:0:
32,162,69554,1,0,0:0:0:0:
207,231,69693,1,8,0:0:0:0:
207,231,69832,1,8,0:0:0:0:
184,217,69971,1,0,0:0:0:0:
152,183,70040,1,0,0:0:0:0:
293,94,70110,1,0,0:0:0:0:
293,94,70179,1,0,0:0:0:0:
293,94,70248,1,0,0:0:0:0:
293,94,70318,1,0,0:0:0:0:
196,143,70387,1,0,0:0:0:0:
196,143,70457,1,0,0:0:0:0:
293,94,70526,1,8,0:0:0:0:
279,262,70804,1,8,0:0:0:0:
249,293,71082,1,0,0:0:0:0:
188,234,71221,1,0,0:0:0:0:
188,234,71360,1,0,0:0:0:0:
200,228,71637,1,8,0:0:0:0:
200,229,71915,1,0,0:0:0:0:
200,229,72193,1,8,0:0:0:0:
200,229,72332,1,8,0:0:0:0:
121,174,72748,1,0,0:0:0:0:
125,178,72887,1,0,0:0:0:0:
190,171,73304,1,12,0:0:0:0:
291,212,73582,1,0,0:0:0:0:
291,212,73721,1,0,0:0:0:0:
163,154,73860,1,8,0:0:0:0:
163,154,73998,1,0,0:0:0:0:
163,154,74137,1,0,0:0:0:0:
163,154,74415,1,8,0:0:0:0:
305,254,74485,1,8,0:0:0:0:
305,254,74554,1,8,0:0:0:0:
305,254,74623,1,8,0:0:0:0:
305,254,74693,1,8,0:0:0:0:
305,254,74762,1,8,0:0:0:0:
305,254,74832,1,8,0:0:0:0:
305,254,74901,1,8,0:0:0:0:
305,254,74971,1,0,0:0:0:0:
159,306,75110,1,0,0:0:0:0:
159,306,75248,1,0,0:0:0:0:
164,264,75526,1,8,0:0:0:0:
164,264,75804,1,0,0:0:0:0:
110,224,75943,1,8,0:0:0:0:
110,224,76082,1,8,0:0:0:0:
110,224,76221,1,8,0:0:0:0:
158,248,76360,1,0,0:0:0:0:
142,252,76637,1,8,0:0:0:0:
142,252,76915,1,0,0:0:0:0:
227,229,77054,1,0,0:0:0:0:
227,229,77193,1,8,0:0:0:0:
168,263,77471,1,0,0:0:0:0:
168,263,77610,1,8,0:0:0:0:
168,263,77748,1,0,0:0:0:0:
200,249,78026,1,8,0:0:0:0:
200,249,78165,1,0,0:0:0:0:
200,249,78304,1,0,0:0:0:0:
200,249,78443,1,8,0:0:0:0:
200,249,78582,1,0,0:0:0:0:
345,253,78860,1,8,0:0:0:0:
345,253,78929,1,8,0:0:0:0:
345,253,78998,1,8,0:0:0:0:
345,253,79068,1,8,0:0:0:0:
345,253,79137,1,0,0:0:0:0:
345,253,79207,1,0,0:0:0:0:
345,253,79276,1,0,0:0:0:0:
345,253,79346,1,0,0:0:0:0:
343,248,79415,1,8,0:0:0:0:
183,182,79554,1,8,0:0:0:0:
183,182,79693,1,0,0:0:0:0:
148,157,79832,1,8,0:0:0:0:
148,157,79971,1,0,0:0:0:0:
194,138,80248,1,0,0:0:0:0:
194,138,80526,1,8,0:0:0:0:
151,122,80665,1,0,0:0:0:0:
151,122,80804,1,0,0:0:0:0:
151,122,80943,1,0,0:0:0:0:
130,117,81082,1,8,0:0:0:0:
139,125,81360,1,0,0:0:0:0:
138,124,81498,1,8,0:0:0:0:
151,122,81637,1,0,0:0:0:0:
151,122,81915,1,0,0:0:0:0:
147,122,82193,1,8,0:0:0:0:
169,117,82332,1,8,0:0:0:0:
169,117,82471,1,0,0:0:0:0:
237,182,82610,1,8,0:0:0:0:
224,217,82748,1,0,0:0:0:0:
224,217,82887,1,0,0:0:0:0:
202,184,83026,1,8,0:0:0:0:
202,184,83165,1,0,0:0:0:0:
202,184,83304,1,8,0:0:0:0:
348,271,83373,1,8,0:0:0:0:
348,271,83443,1,8,0:0:0:0:
348,271,83512,1,8,0:0:0:0:
348,271,83582,1,8,0:0:0:0:
343,265,83651,1,8,0:0:0:0:
343,265,83721,1,8,0:0:0:0:
343,265,83790,1,8,0:0:0:0:
343,265,83860,1,0,0:0:0:0:
252,119,84137,1,0,0:0:0:0:
243,142,84415,1,8,0:0:0:0:
218,173,84600,1,0,0:0:0:0:
218,173,84785,1,0,0:0:0:0:
218,173,84971,1,8,0:0:0:0:
218,173,85156,1,8,0:0:0:0:
152,231,85341,1,0,0:0:0:0:
152,231,85526,1,8,0:0:0:0:
152,231,85711,1,8,0:0:0:0:
152,231,85897,1,8,0:0:0:0:
152,231,86082,1,0,0:0:0:0:
152,231,86267,1,0,0:0:0:0:
152,231,86452,1,0,0:0:0:0:
152,231,86637,1,8,0:0:0:0:
234,260,86822,1,0,0:0:0:0:
234,260,87008,1,0,0:0:0:0:
234,260,87193,1,8,0:0:0:0:
188,225,87378,1,8,0:0:0:0:
188,225,87563,1,8,0:0:0:0:
276,154,87748,1,0,0:0:0:0:
276,154,87818,1,0,0:0:0:0:
276,154,87887,1,0,0:0:0:0:
276,154,87957,1,0,0:0:0:0:
276,154,88026,1,0,0:0:0:0:
276,154,88096,1,0,0:0:0:0:
276,154,88165,1,0,0:0:0:0:
276,154,88235,1,0,0:0:0:0:
276,154,88304,1,8,0:0:0:0:
12,151,88582,1,0,0:0:0:0:
358,246,88860,1,8,0:0:0:0:
181,282,88999,1,8,0:0:0:0:
301,259,89416,1,0,0:0:0:0:
189,275,89555,1,0,0:0:0:0:
192,272,89971,1,8,0:0:0:0:
189,275,90110,1,0,0:0:0:0:
189,275,90527,1,0,0:0:0:0:
192,272,90666,1,8,0:0:0:0:
212,257,91082,1,0,0:0:0:0:
188,255,91221,1,8,0:0:0:0:
188,255,91638,1,8,0:0:0:0:
126,169,91777,1,0,0:0:0:0:
338,194,92194,1,8,0:0:0:0:
270,209,92263,1,8,0:0:0:0:
248,197,92332,1,8,0:0:0:0:
226,183,92402,1,8,0:0:0:0:
248,197,92471,1,8,0:0:0:0:
170,168,92541,1,8,0:0:0:0:
282,116,92610,1,8,0:0:0:0:
282,116,92680,1,8,0:0:0:0:
149,157,92749,1,0,0:0:0:0:
312,261,92888,1,8,0:0:0:0:
236,244,93305,1,8,0:0:0:0:
236,244,93444,1,0,0:0:0:0:
232,234,93860,1,0,0:0:0:0:
232,234,93999,1,8,0:0:0:0:
148,213,94416,1,0,0:0:0:0:
148,213,94555,1,0,0:0:0:0:
148,213,94971,1,8,0:0:0:0:
148,213,95110,1,8,0:0:0:0:
179,218,95527,1,0,0:0:0:0:
179,218,95666,1,8,0:0:0:0:
179,218,96082,1,8,0:0:0:0:
179,218,96221,1,0,0:0:0:0:
216,200,96638,1,8,0:0:0:0:
216,200,96707,1,8,0:0:0:0:
253,94,96777,1,8,0:0:0:0:
161,77,96846,1,8,0:0:0:0:
253,94,96916,1,0,0:0:0:0:
253,94,96985,1,0,0:0:0:0:
253,94,97055,1,0,0:0:0:0:
77,116,97124,1,0,0:0:0:0:
253,94,97194,1,8,0:0:0:0:
189,273,97471,1,8,0:0:0:0:
204,264,97749,1,0,0:0:0:0:
195,254,97888,1,0,0:0:0:0:
195,254,98305,1,8,0:0:0:0:
195,254,98444,1,8,0:0:0:0:
368,224,98860,1,0,0:0:0:0:
243,185,98999,1,8,0:0:0:0:
243,185,99416,1,8,0:0:0:0:
199,169,99555,1,0,0:0:0:0:
262,220,99971,1,8,0:0:0:0:
200,218,100110,1,0,0:0:0:0:
198,212,100527,1,0,0:0:0:0:
198,212,100666,1,8,0:0:0:0:
151,144,101082,1,0,0:0:0:0:
151,144,101637,1,8,0:0:0:0:
208,292,101777,1,0,0:0:0:0:
261,207,102194,1,0,0:0:0:0:
261,207,102332,1,8,0:0:0:0:
261,207,102749,1,8,0:0:0:0:
261,207,102888,1,0,0:0:0:0:
215,234,103305,1,8,0:0:0:0:
215,234,103444,1,8,0:0:0:0:
186,231,103860,1,0,0:0:0:0:
186,231,103999,1,0,0:0:0:0:
154,224,104416,1,8,0:0:0:0:
154,224,104555,1,0,0:0:0:0:
154,224,104971,1,0,0:0:0:0:
154,224,105110,1,8,0:0:0:0:
82,174,105526,1,0,0:0:0:0:
186,186,106082,1,12,0:0:0:0:
207,253,106637,5,0,0:0:0:0:
207,253,106775,1,0,0:0:0:0:
207,253,106914,1,0,0:0:0:0:
165,226,107192,1,8,0:0:0:0:
165,226,107470,1,8,0:0:0:0:
165,226,107748,1,0,0:0:0:0:
230,242,107887,1,0,0:0:0:0:
246,265,108025,1,8,0:0:0:0:
187,238,108303,1,0,0:0:0:0:
261,259,108581,1,0,0:0:0:0:
261,259,108859,1,8,0:0:0:0:
261,259,109137,1,0,0:0:0:0:
187,170,109414,1,8,0:0:0:0:
187,170,109692,1,8,0:0:0:0:
325,152,109970,1,0,0:0:0:0:
325,152,110039,1,0,0:0:0:0:
325,152,110109,1,0,0:0:0:0:
325,152,110178,1,0,0:0:0:0:
325,152,110248,1,0,0:0:0:0:
325,152,110317,1,0,0:0:0:0:
104,138,110387,1,0,0:0:0:0:
104,138,110456,1,0,0:0:0:0:
325,152,110526,1,8,0:0:0:0:
318,243,110803,1,8,0:0:0:0:
202,235,111081,1,0,0:0:0:0:
202,235,111220,1,0,0:0:0:0:
202,235,111359,1,0,0:0:0:0:
163,218,111637,1,8,0:0:0:0:
163,218,111914,1,8,0:0:0:0:
163,218,112192,1,0,0:0:0:0:
196,184,112470,1,8,0:0:0:0:
258,250,112748,1,0,0:0:0:0:
258,250,113025,1,0,0:0:0:0:
258,250,113304,1,8,0:0:0:0:
181,216,113582,1,0,0:0:0:0:
250,187,113859,1,8,0:0:0:0:
250,187,114137,1,8,0:0:0:0:
250,187,114414,1,0,0:0:0:0:
432,294,114485,1,0,0:0:0:0:
432,294,114554,1,0,0:0:0:0:
330,256,114623,1,0,0:0:0:0:
330,256,114693,1,8,0:0:0:0:
330,256,114762,1,8,0:0:0:0:
330,256,114832,1,8,0:0:0:0:
330,256,114901,1,8,0:0:0:0:
330,256,114971,1,0,0:0:0:0:
225,248,115248,1,0,0:0:0:0:
207,253,115527,5,8,0:0:0:0:
207,253,115665,1,8,0:0:0:0:
207,253,115804,1,8,0:0:0:0:
165,226,116082,1,0,0:0:0:0:
165,226,116360,1,0,0:0:0:0:
165,226,116638,1,8,0:0:0:0:
246,265,116915,1,0,0:0:0:0:
187,238,117193,1,8,0:0:0:0:
261,259,117471,1,8,0:0:0:0:
261,259,117749,1,0,0:0:0:0:
261,259,118027,1,8,0:0:0:0:
187,170,118304,1,0,0:0:0:0:
187,170,118582,1,0,0:0:0:0:
325,152,118860,1,8,0:0:0:0:
325,152,118929,1,8,0:0:0:0:
325,152,118999,1,8,0:0:0:0:
325,152,119068,1,8,0:0:0:0:
325,152,119138,1,8,0:0:0:0:
325,152,119207,1,8,0:0:0:0:
104,138,119277,1,8,0:0:0:0:
104,138,119346,1,8,0:0:0:0:
325,152,119415,1,0,0:0:0:0:
318,243,119693,1,0,0:0:0:0:
202,235,119971,1,8,0:0:0:0:
202,235,120110,1,8,0:0:0:0:
202,235,120249,1,8,0:0:0:0:
163,218,120527,1,0,0:0:0:0:
163,218,120804,1,0,0:0:0:0:
163,218,121082,1,8,0:0:0:0:
196,184,121360,1,0,0:0:0:0:
258,250,121638,1,8,0:0:0:0:
258,250,121915,1,8,0:0:0:0:
258,250,122193,1,0,0:0:0:0:
181,216,122471,1,8,0:0:0:0:
250,187,122749,1,0,0:0:0:0:
250,187,123027,1,0,0:0:0:0:
250,187,123304,1,8,0:0:0:0:
209,103,123373,1,8,0:0:0:0:
209,103,123443,1,8,0:0:0:0:
209,103,123512,1,8,0:0:0:0:
202,98,123582,1,0,0:0:0:0:
202,98,123651,1,0,0:0:0:0:
202,98,123721,1,0,0:0:0:0:
202,98,123790,1,0,0:0:0:0:
202,98,123860,1,8,0:0:0:0:
156,253,124137,1,8,0:0:0:0:
