osu file format v14

[General]
AudioFilename: audio.mp3
AudioLeadIn: 0
PreviewTime: 35248
Countdown: 0
SampleSet: Normal
StackLeniency: 0.7
Mode: 1
LetterboxInBreaks: 0
WidescreenStoryboard: 1

[Editor]
DistanceSpacing: 1.2
BeatDivisor: 4
GridSize: 32
TimelineZoom: 1.9

[Metadata]
Title:Dat $tick
TitleUnicode:Dat $tick
Artist:Rich Brian
ArtistUnicode:Rich Brian
Creator:Chromoxx
Version:Dat Fut$uu
Source:
Tags:stick hiphop hip-hop rap english chigga 88rising
BeatmapID:3561071
BeatmapSetID:1741472

[Difficulty]
HPDrainRate:7
CircleSize:5
OverallDifficulty:3
ApproachRate:5
SliderMultiplier:1.4
SliderTickRate:1

[Events]
//Background and Video events
0,0,"bg.jpg",0,80
//Break Periods
2,53504,60993
//Storyboard Layer 0 (Background)
//Storyboard Layer 1 (Fail)
//Storyboard Layer 2 (Pass)
//Storyboard Layer 3 (Foreground)
//Storyboard Layer 4 (Overlay)
//Storyboard Sound Samples

[TimingPoints]
8860,555.555555555556,4,1,0,50,1,0
8860,-100,4,1,0,50,0,0
16637,-100,4,1,0,60,0,0
17748,-100,4,1,0,70,0,0
35526,-100,4,1,0,70,0,1
53304,-100,4,1,0,70,0,0
53721,-100,4,1,0,60,0,0
61776,-100,4,1,0,70,0,0
88860,-100,4,1,0,70,0,1
106637,-100,4,1,0,50,0,0

[HitObjects]
280,211,8860,5,0,0:0:0:0:
202,196,9971,1,8,0:0:0:0:
219,178,11360,1,8,0:0:0:0:
207,213,12193,1,8,0:0:0:0:
340,190,13304,1,0,0:0:0:0:
230,182,14415,1,8,0:0:0:0:
230,182,15804,1,8,0:0:0:0:
230,182,16637,1,12,0:0:0:0:
229,131,17748,1,4,0:0:0:0:
218,143,18304,1,8,0:0:0:0:
218,143,18860,1,0,0:0:0:0:
218,143,19137,1,0,0:0:0:0:
210,203,19415,1,8,0:0:0:0:
210,203,19971,1,0,0:0:0:0:
210,203,20248,1,0,0:0:0:0:
210,203,20526,1,8,0:0:0:0:
244,200,20804,1,8,0:0:0:0:
244,200,21082,1,0,0:0:0:0:
244,200,21637,1,8,0:0:0:0:
192,221,22193,1,0,0:0:0:0:
400,210,22748,1,8,0:0:0:0:
400,210,23026,1,0,0:0:0:0:
400,210,23304,1,8,0:0:0:0:
277,228,23860,1,8,0:0:0:0:
234,251,24415,1,0,0:0:0:0:
234,251,24693,1,8,0:0:0:0:
234,251,24971,1,0,0:0:0:0:
143,231,25248,1,0,0:0:0:0:
143,231,25526,1,8,0:0:0:0:
268,239,26637,1,0,0:0:0:0:
210,254,27193,1,8,0:0:0:0:
205,231,27471,1,0,0:0:0:0:
204,234,27748,1,8,0:0:0:0:
66,185,28304,1,8,0:0:0:0:
66,185,28582,1,8,0:0:0:0:
66,185,28860,1,0,0:0:0:0:
281,144,29137,1,8,0:0:0:0:
281,144,29415,1,0,0:0:0:0:
236,156,29971,1,8,0:0:0:0:
236,156,30526,1,0,0:0:0:0:
236,156,30804,1,0,0:0:0:0:
236,156,31082,1,8,0:0:0:0:
173,226,31637,1,0,0:0:0:0:
173,226,31915,1,0,0:0:0:0:
173,226,32193,1,8,0:0:0:0:
173,226,32748,1,0,0:0:0:0:
173,226,33026,1,8,0:0:0:0:
173,226,33304,1,0,0:0:0:0:
216,212,33582,1,8,0:0:0:0:
216,212,33860,1,0,0:0:0:0:
216,212,34415,1,8,0:0:0:0:
241,248,35526,1,4,0:0:0:0:
241,248,36082,1,4,0:0:0:0:
241,248,36637,1,12,0:0:0:0:
241,248,37193,1,12,0:0:0:0:
241,248,37748,1,4,0:0:0:0:
241,248,38304,1,12,0:0:0:0:
241,248,38860,1,4,0:0:0:0:
205,239,39971,1,12,0:0:0:0:
178,229,40526,1,12,0:0:0:0:
178,229,41082,1,4,0:0:0:0:
178,229,41637,1,4,0:0:0:0:
178,229,42193,1,12,0:0:0:0:
178,229,42748,1,4,0:0:0:0:
178,229,43304,1,12,0:0:0:0:
208,223,44415,1,4,0:0:0:0:
208,223,44971,1,4,0:0:0:0:
208,223,45526,1,12,0:0:0:0:
208,223,46082,1,4,0:0:0:0:
208,223,46637,1,12,0:0:0:0:
208,223,47193,1,12,0:0:0:0:
208,223,47748,1,4,0:0:0:0:
208,223,48860,1,12,0:0:0:0:
208,223,49415,1,12,0:0:0:0:
208,223,49971,1,4,0:0:0:0:
208,223,50526,1,4,0:0:0:0:
208,223,51082,1,12,0:0:0:0:
208,223,51637,1,4,0:0:0:0:
208,223,52193,1,12,0:0:0:0:
236,204,53304,1,4,0:0:0:0:
217,253,62193,5,0,0:0:0:0:
217,253,62748,1,8,0:0:0:0:
217,253,63026,1,8,0:0:0:0:
217,253,63304,1,0,0:0:0:0:
217,253,63860,1,8,0:0:0:0:
181,252,64415,1,0,0:0:0:0:
181,252,64693,1,0,0:0:0:0:
181,252,64971,1,8,0:0:0:0:
180,242,65248,1,8,0:0:0:0:
180,242,65526,1,0,0:0:0:0:
180,242,66082,1,8,0:0:0:0:
210,263,66637,1,0,0:0:0:0:
192,284,66915,1,8,0:0:0:0:
192,284,67193,1,0,0:0:0:0:
192,284,67471,1,0,0:0:0:0:
192,284,67748,1,8,0:0:0:0:
212,164,68304,1,0,0:0:0:0:
212,164,68860,1,8,0:0:0:0:
229,263,69137,1,0,0:0:0:0:
229,263,69415,1,8,0:0:0:0:
229,263,69971,1,0,0:0:0:0:
199,222,71082,1,8,0:0:0:0:
252,221,71637,1,0,0:0:0:0:
252,221,71915,1,0,0:0:0:0:
252,221,72193,1,8,0:0:0:0:
238,213,72748,1,0,0:0:0:0:
238,213,73304,1,8,0:0:0:0:
238,213,73582,1,0,0:0:0:0:
238,213,73860,1,8,0:0:0:0:
238,213,74137,1,8,0:0:0:0:
238,213,74415,1,0,0:0:0:0:
268,190,74971,1,8,0:0:0:0:
268,190,75526,1,0,0:0:0:0:
268,190,75804,1,0,0:0:0:0:
200,179,76082,1,8,0:0:0:0:
200,179,76360,1,0,0:0:0:0:
200,179,76637,1,8,0:0:0:0:
131,194,77193,1,8,0:0:0:0:
131,194,77748,1,0,0:0:0:0:
252,190,78026,1,8,0:0:0:0:
252,190,78304,1,0,0:0:0:0:
252,190,78582,1,0,0:0:0:0:
252,190,78860,1,8,0:0:0:0:
186,241,79971,1,0,0:0:0:0:
186,241,80526,1,8,0:0:0:0:
186,241,80804,1,0,0:0:0:0:
253,170,81082,1,8,0:0:0:0:
253,170,81637,1,0,0:0:0:0:
162,220,82193,1,8,0:0:0:0:
162,220,82471,1,8,0:0:0:0:
162,220,82748,1,0,0:0:0:0:
162,220,83026,1,0,0:0:0:0:
162,220,83304,1,8,0:0:0:0:
192,216,83860,1,0,0:0:0:0:
192,216,84415,1,8,0:0:0:0:
235,230,84971,1,0,0:0:0:0:
192,250,85248,1,0,0:0:0:0:
192,250,85526,1,8,0:0:0:0:
192,250,86082,1,0,0:0:0:0:
192,250,86637,1,8,0:0:0:0:
192,250,86915,1,8,0:0:0:0:
207,210,87193,1,0,0:0:0:0:
207,210,87748,1,8,0:0:0:0:
241,248,88860,1,4,0:0:0:0:
241,248,89415,1,4,0:0:0:0:
241,248,89971,1,12,0:0:0:0:
241,248,90526,1,12,0:0:0:0:
241,248,91082,1,4,0:0:0:0:
241,248,91637,1,12,0:0:0:0:
241,248,92193,1,4,0:0:0:0:
205,239,93304,1,12,0:0:0:0:
178,229,93860,1,12,0:0:0:0:
178,229,94415,1,4,0:0:0:0:
178,229,94971,1,4,0:0:0:0:
178,229,95526,1,12,0:0:0:0:
178,229,96082,1,4,0:0:0:0:
178,229,96637,1,12,0:0:0:0:
208,223,97748,1,4,0:0:0:0:
208,223,98304,1,4,0:0:0:0:
208,223,98860,1,12,0:0:0:0:
208,223,99415,1,4,0:0:0:0:
208,223,99971,1,12,0:0:0:0:
208,223,100526,1,12,0:0:0:0:
208,223,101082,1,4,0:0:0:0:
208,223,102193,1,12,0:0:0:0:
208,223,102748,1,12,0:0:0:0:
208,223,103304,1,4,0:0:0:0:
208,223,103860,1,4,0:0:0:0:
208,223,104415,1,12,0:0:0:0:
208,223,104971,1,4,0:0:0:0:
208,223,105526,1,12,0:0:0:0:
344,216,106637,1,0,0:0:0:0:
185,194,107471,1,0,0:0:0:0:
185,194,107748,1,8,0:0:0:0:
176,251,108026,1,0,0:0:0:0:
187,146,108304,1,0,0:0:0:0:
282,269,109137,1,8,0:0:0:0:
282,269,109415,1,0,0:0:0:0:
282,269,109971,1,8,0:0:0:0:
185,249,110526,1,0,0:0:0:0:
185,249,111082,1,0,0:0:0:0:
185,249,111915,1,0,0:0:0:0:
185,249,112193,1,8,0:0:0:0:
185,249,112748,1,0,0:0:0:0:
232,237,113582,1,8,0:0:0:0:
232,237,113860,1,0,0:0:0:0:
232,237,114415,1,8,0:0:0:0:
197,210,115526,1,0,0:0:0:0:
193,193,116360,1,0,0:0:0:0:
193,193,116637,1,8,0:0:0:0:
175,216,117193,1,0,0:0:0:0:
170,198,118026,1,8,0:0:0:0:
170,198,118304,1,0,0:0:0:0:
170,198,118860,1,8,0:0:0:0:
142,217,119415,1,0,0:0:0:0:
142,217,119971,1,0,0:0:0:0:
142,217,120804,1,0,0:0:0:0:
142,217,121082,1,8,0:0:0:0:
142,217,121637,1,0,0:0:0:0:
201,221,122471,1,8,0:0:0:0:
201,221,122748,1,0,0:0:0:0:
201,221,123304,1,8,0:0:0:0:
195,212,123860,1,8,0:0:0:0:
195,212,124137,1,8,0:0:0:0:
