osu file format v14

[General]
AudioFilename: audio.mp3
AudioLeadIn: 0
PreviewTime: 66423
Countdown: 0
SampleSet: Soft
StackLeniency: 0.7
Mode: 0
LetterboxInBreaks: 0
WidescreenStoryboard: 1

[Editor]
Bookmarks: 21247,49482,63423,77365
DistanceSpacing: 2.2
BeatDivisor: 4
GridSize: 32
TimelineZoom: 1.8

[Metadata]
Title:Umapyoi Densetsu (Game Ver.)
TitleUnicode:うまぴょい伝説 (Game Ver.)
Artist:Rice Shower (CV: Iwami Manaka)
ArtistUnicode:ライスシャワー (CV: 石見舞菜香)
Creator:Yugu
Version:Debut (Easy)
Source:ウマ娘 プリティーダービー
Tags:スペシャルウィーク 和氣あず未 Waki Azumi サイレンススズカ 高野麻里佳 Kouno Marika トウカイテイオー Machico マルゼンスキー Lynn オグリキャップ 高柳知葉 Takayanagi Tomoyo ゴールドシップ 上田瞳 Ueda Hitomi ウオッカ 大橋彩香 Ohashi Ayaka ダイワスカーレット 木村千咲 Kimura Chisa タイキシャトル 大坪由佳 Otsubo Yuka グラスワンダー 前田玲奈 Maeda Rena メジロマックイーン 大西沙織 Onishi Saori エルコンドルパサー 髙橋ミナミ Takahashi Minami シンボリルドルフ japanese pop jpop j-pop anime video smartphone mobile game horse girls WINNING LIVE 01 本田晃弘 Honda Akihiro cygames JRA Japan Racing Association Umamusume Kuse [Hatsune Miku] Chaoslitz Yorita Yoshino -ClariS-
BeatmapID:3030341
BeatmapSetID:1456530

[Difficulty]
HPDrainRate:2
CircleSize:3
OverallDifficulty:2
ApproachRate:3
SliderMultiplier:1
SliderTickRate:1

[Events]
//Background and Video events
0,0,"88544965_p0.jpg",0,0
//Break Periods
//Storyboard Layer 0 (Background)
//Storyboard Layer 1 (Fail)
//Storyboard Layer 2 (Pass)
//Storyboard Layer 3 (Foreground)
//Storyboard Layer 4 (Overlay)
//Storyboard Sound Samples

[TimingPoints]
71,352.941176470588,4,2,1,50,1,0
21247,-100,4,2,1,70,0,0
32541,-100,4,2,1,50,0,0
49482,-100,4,2,1,60,0,0
63423,-100,4,2,1,35,0,0
63953,-100,4,2,1,40,0,0
64306,-100,4,2,1,45,0,0
64659,-100,4,2,1,50,0,0
65012,-100,4,2,1,55,0,0
65365,-100,4,2,1,60,0,0
65718,-100,4,2,1,65,0,0
66070,-100,4,2,1,70,0,0
66423,-100,4,2,1,50,0,0
67482,-100,4,2,1,60,0,0
67835,-100,4,2,1,80,0,0
73482,-100,4,2,1,70,0,0
77718,-100,4,2,1,80,0,0
84776,-100,4,2,1,70,0,0
103129,-100,4,2,1,50,0,0
104188,-100,4,2,1,60,0,0
104541,-100,4,2,1,80,0,0
110188,-100,4,2,1,70,0,0
114423,-100,4,2,1,80,0,0
121482,-100,4,2,1,70,0,0

[Colours]
Combo1 : 141,151,235
Combo2 : 225,219,238

[HitObjects]
256,200,21247,6,0,L|256:0,2,200,6|2|0,1:2|1:2|1:0,0:0:0:0:
184,270,23012,1,8,0:0:0:0:
97,219,23365,2,0,P|85:170|99:123,1,100,0|10,1:0|0:0,0:0:0:0:
165,49,24070,6,0,P|254:70|372:56,1,200,2|2,1:2|1:2,0:0:0:0:
446,7,25129,1,10,0:0:0:0:
493,93,25482,2,0,P|499:142|468:179,1,100,2|12,1:2|0:0,0:0:0:0:
428,271,26188,2,0,P|389:300|341:291,1,100,2|12,1:2|2:3,0:0:0:0:
264,226,26894,6,0,P|193:210|91:289,1,200,6|2,1:2|1:2,0:0:0:0:
280,355,28306,2,0,P|351:371|453:292,1,200,0|2,1:0|1:2,0:0:0:0:
475,102,29718,6,0,P|461:56|439:-2,1,100,2|10,1:2|0:0,0:0:0:0:
349,42,30423,2,0,P|366:88|381:136,1,100,2|10,1:2|0:0,0:0:0:0:
327,221,31129,1,2,1:2:0:0:
233,257,31482,1,10,0:0:0:0:
175,175,31835,2,0,P|126:163|76:155,1,100,0|8,3:0|3:0,0:0:0:0:
28,67,32541,6,0,B|114:16|114:16|226:45,1,200,6|2,1:2|1:2,0:0:0:0:
306,10,33600,1,10,0:0:0:0:
389,69,33953,2,0,P|389:118|384:168,1,100,2|10,1:2|0:0,0:0:0:0:
319,245,34659,1,2,1:1:0:0:
382,322,35012,1,2,2:1:0:0:
296,373,35365,6,0,P|247:369|159:243,1,200,2|2,1:2|1:2,0:0:0:0:
209,172,36423,1,10,0:0:0:0:
132,108,36776,2,0,P|64:85|24:74,1,100,2|10,1:2|0:0,0:0:0:0:
29,177,37482,2,0,P|6:245|-5:285,1,100,2|10,1:2|0:3,0:0:0:0:
69,342,38188,5,6,1:2:0:0:
157,295,38541,1,10,0:0:0:0:
226,366,38894,2,0,P|259:358|305:309,1,100,2|10,1:2|0:0,0:0:0:0:
362,230,39600,2,0,L|481:219,2,100,2|10|2,1:2|0:0|1:2,0:0:0:0:
291,159,40659,1,10,0:0:0:0:
219,27,41188,6,0,P|160:15|103:4,1,100,2|2,0:0|0:0,0:0:0:0:
76,31,41718,2,0,L|85:141,1,100,2|2,1:1|0:1,0:0:0:0:
44,222,42423,2,0,P|75:263|130:268,1,100,2|10,1:2|0:0,0:0:0:0:
213,232,43129,1,2,1:1:0:0:
299,281,43482,1,8,2:3:0:0:
381,224,43835,6,0,P|393:180|407:112,1,100,2|6,1:2|2:1,0:0:0:0:
501,153,44541,2,0,P|490:201|477:250,1,100,2|6,1:2|2:1,0:0:0:0:
438,342,45247,1,2,1:2:0:0:
338,329,45600,1,10,0:0:0:0:
252,276,45953,2,0,L|144:287,1,100,2|6,1:2|2:1,0:0:0:0:
79,215,46659,6,0,P|67:168|84:121,1,100,2|14,1:2|0:0,0:0:0:0:
165,63,47365,2,0,P|212:50|259:67,1,100,2|14,1:2|0:0,0:0:0:0:
358,50,48070,1,0,1:0:0:0:
251,365,49482,6,0,P|177:357|119:311,2,150,6|2|10,1:2|3:2|3:2,0:0:0:0:
325,298,50894,2,0,P|321:248|317:198,1,100,2|10,1:2|0:0,0:0:0:0:
300,151,51423,2,0,P|374:155|449:163,1,150,2|8,3:2|0:0,0:0:0:0:
472,65,52306,6,0,P|422:59|372:53,1,100,0|10,1:2|0:0,0:0:0:0:
283,7,53012,1,2,1:2:0:0:
194,53,53365,1,10,3:2:0:0:
98,23,53718,2,0,P|69:62|74:111,1,100,0|8,1:2|0:0,0:0:0:0:
131,194,54423,2,0,P|159:233|154:282,1,100,0|8,1:2|2:3,0:0:0:0:
90,359,55129,5,6,1:2:0:0:
14,293,55482,2,0,P|13:232|11:179,2,100,10|2|10,0:0|1:2|0:0,0:0:0:0:
90,359,56541,2,0,P|175:368|222:266,1,200,6|8,1:2|1:3,0:0:0:0:
164,197,57600,1,8,2:3:0:0:
210,108,57953,5,6,1:2:0:0:
352,60,58482,2,0,P|385:115|411:251,2,200,6|6|6,1:2|1:2|1:2,0:0:0:0:
155,21,60600,1,6,1:2:0:0:
9,158,61306,2,0,P|22:256|68:344,2,200,6|6|6,1:2|1:2|1:2,0:0:0:0:
154,21,63423,6,0,P|228:35|300:57,1,150,6|2,0:0|1:2,0:0:0:0:
343,147,64306,2,0,P|293:152|244:162,1,100,2|2,0:0|1:2,0:0:0:0:
203,253,65012,2,0,P|252:258|301:268,1,100,2|2,0:0|1:2,0:0:0:0:
354,353,65718,2,0,P|304:358|255:368,2,100,2|2|4,0:0|1:2|0:0,0:0:0:0:
403,40,67835,6,0,P|355:28|313:53,1,100,4|10,1:2|0:0,0:0:0:0:
236,117,68541,2,0,P|188:128|146:103,1,100,2|8,1:2|0:0,0:0:0:0:
71,36,69247,1,2,1:2:0:0:
5,111,69600,1,10,0:0:0:0:
49,200,69953,2,0,P|64:237|85:305,1,100,0|10,1:0|2:1,0:0:0:0:
163,353,70659,6,0,P|210:344|236:303,1,100,0|10,1:0|0:0,0:0:0:0:
222,204,71365,2,0,P|247:162|295:154,1,100,2|8,1:2|0:0,0:0:0:0:
366,226,72070,1,6,1:2:0:0:
456,183,72423,1,14,0:0:0:0:
442,84,72776,1,6,1:2:0:0:
343,66,73129,1,14,3:2:0:0:
295,154,73482,6,0,P|248:149|181:130,1,100,4|8,1:2|0:0,0:0:0:0:
163,97,74012,2,0,P|89:99|16:116,1,150,2|8,0:0|0:0,0:0:0:0:
16,216,74894,2,0,P|41:256|104:267,1,100,2|8,1:2|0:0,0:0:0:0:
135,250,75423,2,0,P|195:249|254:331,1,150,2|8,0:0|0:0,0:0:0:0:
341,357,76306,6,0,P|402:364|463:172,1,300,2|10,1:2|0:0,0:0:0:0:
461,80,77718,1,6,1:1:0:0:
371,36,78070,1,6,2:1:0:0:
317,120,78423,2,0,P|271:135|201:124,1,100,6|6,1:1|2:1,0:0:0:0:
146,63,79129,6,0,L|45:47,1,100,4|10,1:2|0:0,0:0:0:0:
12,141,79835,2,0,L|28:242,1,100,2|8,1:2|0:0,0:0:0:0:
100,308,80541,1,2,1:2:0:0:
185,255,80894,1,10,0:0:0:0:
276,295,81247,2,0,P|316:254|313:192,1,100,0|10,1:0|2:1,0:0:0:0:
326,113,81953,6,0,P|375:104|424:97,1,100,0|10,1:0|0:0,0:0:0:0:
496,166,82659,2,0,P|504:215|511:264,1,100,2|8,1:2|0:0,0:0:0:0:
458,349,83365,1,6,1:2:0:0:
371,298,83718,1,14,0:2:0:0:
280,339,84070,1,6,1:2:0:0:
193,288,84423,1,14,3:2:0:0:
102,329,84776,6,0,P|55:302|41:240,1,100,4|8,1:0|0:0,0:0:0:0:
25,212,85306,2,0,L|43:47,1,150,2|8,0:0|0:0,0:0:0:0:
127,12,86188,2,0,P|177:11|218:48,1,100,2|8,1:2|0:0,0:0:0:0:
245,80,86718,2,0,P|300:83|365:12,1,150,2|8,0:0|0:0,0:0:0:0:
460,44,87600,6,0,P|466:93|472:143,1,100,6|10,1:2|0:0,0:0:0:0:
416,226,88306,2,0,P|366:232|316:238,1,100,2|8,1:2|0:0,0:0:0:0:
226,194,89012,2,0,P|176:199|126:206,1,100,0|10,1:0|0:0,0:0:0:0:
46,265,89718,1,2,1:2:0:0:
99,348,90070,1,10,3:2:0:0:
186,299,90423,6,0,P|235:292|285:286,1,100,6|10,1:2|0:0,0:0:0:0:
381,315,91129,2,0,P|374:265|368:215,1,100,2|8,1:2|0:0,0:0:0:0:
420,129,91835,2,0,P|413:76|367:45,1,100,0|8,1:0|2:3,0:0:0:0:
284,13,92541,2,0,P|183:13|161:56,1,150,2|8,1:1|0:0,0:0:0:0:
166,95,93247,6,0,L|186:318,2,200,6|2|0,1:2|1:2|1:0,0:0:0:0:
84,36,95012,1,8,0:0:0:0:
18,111,95365,2,0,L|26:210,1,100,0|10,1:0|0:0,0:0:0:0:
21,313,96070,6,0,P|108:353|182:294,1,200,2|2,1:2|1:2,0:0:0:0:
235,208,97129,1,10,0:0:0:0:
334,219,97482,2,0,P|379:201|395:155,1,100,2|12,1:2|0:0,0:0:0:0:
379,56,98188,2,0,P|331:40|282:31,1,100,2|12,1:2|2:3,0:0:0:0:
183,46,98894,6,0,P|199:144|211:243,1,200,6|2,1:2|1:2,0:0:0:0:
38,358,100306,2,0,P|25:258|9:160,1,200,0|2,1:0|1:2,0:0:0:0:
157,25,101718,6,0,P|206:34|254:46,1,100,2|10,1:2|0:0,0:0:0:0:
312,127,102423,2,0,P|262:136|214:148,1,100,2|10,1:2|0:0,0:0:0:0:
150,225,103129,1,4,0:0:0:0:
108,40,104541,6,0,P|156:28|198:53,1,100,4|10,1:2|0:0,0:0:0:0:
276,117,105247,2,0,P|323:128|365:103,1,100,2|8,1:2|0:0,0:0:0:0:
441,36,105953,1,2,1:2:0:0:
507,111,106306,1,10,0:0:0:0:
463,200,106659,2,0,P|448:237|427:305,1,100,0|10,1:0|2:1,0:0:0:0:
349,353,107365,6,0,P|301:344|275:303,1,100,0|10,1:0|0:0,0:0:0:0:
290,204,108070,2,0,P|264:162|216:154,1,100,2|8,1:2|0:0,0:0:0:0:
146,226,108776,1,6,1:2:0:0:
56,183,109129,1,14,0:0:0:0:
70,84,109482,1,6,1:2:0:0:
169,66,109835,1,14,3:2:0:0:
217,154,110188,6,0,P|264:149|331:130,1,100,4|8,1:2|0:0,0:0:0:0:
348,97,110718,2,0,P|422:99|495:116,1,150,2|8,0:0|0:0,0:0:0:0:
496,216,111600,2,0,P|471:256|408:267,1,100,2|8,1:2|0:0,0:0:0:0:
377,250,112129,2,0,P|317:249|258:331,1,150,2|8,0:0|0:0,0:0:0:0:
171,357,113012,6,0,P|110:364|49:172,1,300,2|10,1:2|0:0,0:0:0:0:
51,80,114423,1,6,1:1:0:0:
141,36,114776,1,6,2:1:0:0:
195,120,115129,2,0,P|241:135|311:124,1,100,6|6,1:1|2:1,0:0:0:0:
366,63,115835,6,0,L|467:47,1,100,4|10,1:2|0:0,0:0:0:0:
500,141,116541,2,0,L|484:242,1,100,2|8,1:2|0:0,0:0:0:0:
412,308,117247,1,2,1:2:0:0:
327,255,117600,1,10,0:0:0:0:
236,295,117953,2,0,P|196:254|199:192,1,100,0|10,1:0|2:1,0:0:0:0:
186,113,118659,6,0,P|136:104|87:97,1,100,0|10,1:0|0:0,0:0:0:0:
16,166,119365,2,0,P|7:215|0:264,1,100,2|8,1:2|0:0,0:0:0:0:
54,349,120070,1,6,1:2:0:0:
141,298,120423,1,14,0:2:0:0:
232,339,120776,1,6,1:2:0:0:
319,288,121129,1,14,3:2:0:0:
410,329,121482,6,0,P|457:302|471:240,1,100,4|8,1:0|0:0,0:0:0:0:
487,212,122012,2,0,L|469:47,1,150,2|8,0:0|0:0,0:0:0:0:
385,12,122894,2,0,P|335:11|294:48,1,100,2|8,1:2|0:0,0:0:0:0:
267,80,123423,2,0,P|212:83|147:12,1,150,2|8,0:0|0:0,0:0:0:0:
52,44,124306,6,0,P|45:93|39:143,1,100,6|10,1:2|0:0,0:0:0:0:
96,226,125012,2,0,P|145:232|195:238,1,100,2|8,1:2|0:0,0:0:0:0:
286,194,125718,2,0,P|335:199|385:206,1,100,0|10,1:0|0:0,0:0:0:0:
466,265,126423,1,2,1:2:0:0:
413,348,126776,1,10,3:2:0:0:
326,299,127129,6,0,P|276:292|226:286,1,100,6|10,1:2|0:0,0:0:0:0:
131,315,127835,2,0,P|137:265|143:215,1,100,2|8,1:2|0:0,0:0:0:0:
92,129,128541,2,0,P|99:76|145:45,1,100,0|8,1:0|2:3,0:0:0:0:
228,13,129247,2,0,P|329:13|351:56,1,150,2|8,1:1|0:0,0:0:0:0:
348,95,129953,1,6,1:2:0:0:
