osu file format v14

[General]
AudioFilename: course 3.mp3
AudioLeadIn: 1000
PreviewTime: 375802
Countdown: 0
SampleSet: Soft
StackLeniency: 0.7
Mode: 3
LetterboxInBreaks: 0
SpecialStyle: 0
WidescreenStoryboard: 0

[Editor]
Bookmarks: 34952
DistanceSpacing: 1
BeatDivisor: 4
GridSize: 4
TimelineZoom: 1.6

[Metadata]
Title:4K Rice Course /Section 000000/
TitleUnicode:4K Rice Course /Section 000000/
Artist:Rice Certification inc.
ArtistUnicode:Rice Certification inc.
Creator:Ryu Sei
Version:Grade 3
Source:not osu!
Tags:DJ Counterforce Between Boundaries capsule JUMPER EZFG cloud Camellia feat. Nanahira Lowstyle bomb
BeatmapID:1762583
BeatmapSetID:842340

[Difficulty]
HPDrainRate:7
CircleSize:4
OverallDifficulty:10
ApproachRate:5
SliderMultiplier:1.4
SliderTickRate:1

[Events]
//Background and Video events
0,0,"alice.jpg",0,0
//Break Periods
2,105591,114182
2,217812,226654
2,329067,336202
//Storyboard Layer 0 (Background)
//Storyboard Layer 1 (Fail)
//Storyboard Layer 2 (Pass)
//Storyboard Layer 3 (Foreground)
//Storyboard Sound Samples

[TimingPoints]
1608,405.405405405405,4,2,1,9,1,0
1608,-98.6666666666667,4,2,1,9,0,0
115382,461.538461538462,4,2,1,9,1,0
115382,-86.6666666666667,4,2,1,9,0,0
227854,419.58041958042,4,2,1,9,1,0
227854,-95.3333333333333,4,2,1,9,0,0
262259,419.58041958042,4,2,1,9,1,0
262259,-95.3333333333333,4,2,1,9,0,0
337402,400,4,2,1,9,1,0

[HitObjects]
64,192,1608,5,0,0:0:0:0:
448,192,1608,1,0,0:0:0:0:
320,192,1810,1,0,0:0:0:0:
192,192,1912,1,0,0:0:0:0:
64,192,2013,1,0,0:0:0:0:
448,192,2114,1,0,0:0:0:0:
192,192,2216,1,0,0:0:0:0:
320,192,2317,1,0,0:0:0:0:
192,192,2621,1,0,0:0:0:0:
320,192,2722,1,0,0:0:0:0:
64,192,2824,1,0,0:0:0:0:
448,192,2925,1,0,0:0:0:0:
320,192,3026,1,0,0:0:0:0:
192,192,3128,1,0,0:0:0:0:
448,192,3432,1,0,0:0:0:0:
192,192,3533,1,0,0:0:0:0:
64,192,3635,1,0,0:0:0:0:
448,192,3736,1,0,0:0:0:0:
64,192,3837,1,0,0:0:0:0:
320,192,3939,1,0,0:0:0:0:
192,192,4243,1,0,0:0:0:0:
448,192,4344,1,0,0:0:0:0:
320,192,4445,1,0,0:0:0:0:
192,192,4547,1,0,0:0:0:0:
448,192,4648,1,0,0:0:0:0:
192,192,4749,1,0,0:0:0:0:
192,192,5053,1,0,0:0:0:0:
320,192,5155,1,0,0:0:0:0:
192,192,5256,1,0,0:0:0:0:
64,192,5357,1,0,0:0:0:0:
320,192,5459,1,0,0:0:0:0:
448,192,5560,1,0,0:0:0:0:
320,192,5864,1,0,0:0:0:0:
192,192,5966,1,0,0:0:0:0:
448,192,6067,1,0,0:0:0:0:
64,192,6168,1,0,0:0:0:0:
192,192,6270,1,0,0:0:0:0:
320,192,6371,1,0,0:0:0:0:
64,192,6675,1,0,0:0:0:0:
320,192,6776,1,0,0:0:0:0:
448,192,6878,1,0,0:0:0:0:
64,192,6979,1,0,0:0:0:0:
448,192,7080,1,0,0:0:0:0:
192,192,7182,1,0,0:0:0:0:
320,192,7486,1,0,0:0:0:0:
64,192,7587,1,0,0:0:0:0:
448,192,7689,1,0,0:0:0:0:
320,192,7790,1,0,0:0:0:0:
192,192,7891,1,0,0:0:0:0:
320,192,7993,1,0,0:0:0:0:
320,192,8297,1,0,0:0:0:0:
192,192,8398,1,0,0:0:0:0:
64,192,8499,1,0,0:0:0:0:
448,192,8601,1,0,0:0:0:0:
192,192,8702,1,0,0:0:0:0:
320,192,8803,1,0,0:0:0:0:
192,192,9107,1,0,0:0:0:0:
320,192,9209,1,0,0:0:0:0:
64,192,9310,1,0,0:0:0:0:
448,192,9412,1,0,0:0:0:0:
320,192,9513,1,0,0:0:0:0:
192,192,9614,1,0,0:0:0:0:
448,192,9918,1,0,0:0:0:0:
192,192,10020,1,0,0:0:0:0:
320,192,10121,1,0,0:0:0:0:
448,192,10222,1,0,0:0:0:0:
320,192,10324,1,0,0:0:0:0:
192,192,10425,1,0,0:0:0:0:
192,192,10729,1,0,0:0:0:0:
448,192,10830,1,0,0:0:0:0:
64,192,10932,1,0,0:0:0:0:
192,192,11033,1,0,0:0:0:0:
448,192,11135,1,0,0:0:0:0:
192,192,11236,1,0,0:0:0:0:
192,192,11540,1,0,0:0:0:0:
320,192,11641,1,0,0:0:0:0:
192,192,11743,1,0,0:0:0:0:
64,192,11844,1,0,0:0:0:0:
448,192,11945,1,0,0:0:0:0:
192,192,12047,1,0,0:0:0:0:
320,192,12351,1,0,0:0:0:0:
192,192,12452,1,0,0:0:0:0:
448,192,12553,1,0,0:0:0:0:
64,192,12655,1,0,0:0:0:0:
192,192,12756,1,0,0:0:0:0:
320,192,12857,1,0,0:0:0:0:
64,192,13162,1,0,0:0:0:0:
320,192,13263,1,0,0:0:0:0:
192,192,13364,1,0,0:0:0:0:
64,192,13466,1,0,0:0:0:0:
448,192,13567,1,0,0:0:0:0:
192,192,13668,1,0,0:0:0:0:
64,192,14580,1,0,0:0:0:0:
320,192,14580,1,0,0:0:0:0:
192,192,14783,1,0,0:0:0:0:
448,192,14986,1,0,0:0:0:0:
320,192,14986,1,0,0:0:0:0:
192,192,15391,1,0,0:0:0:0:
64,192,15391,1,0,0:0:0:0:
320,192,15594,1,0,0:0:0:0:
448,192,15797,1,0,0:0:0:0:
192,192,15797,1,0,0:0:0:0:
64,192,16202,1,0,0:0:0:0:
320,192,16202,1,0,0:0:0:0:
192,192,16405,1,0,0:0:0:0:
448,192,16607,1,0,0:0:0:0:
64,192,16607,1,0,0:0:0:0:
192,192,17013,1,0,0:0:0:0:
448,192,17013,1,0,0:0:0:0:
320,192,17216,1,0,0:0:0:0:
448,192,17418,1,0,0:0:0:0:
64,192,17418,1,0,0:0:0:0:
64,192,17824,1,0,0:0:0:0:
448,192,17824,1,0,0:0:0:0:
320,192,18026,1,0,0:0:0:0:
448,192,18229,1,0,0:0:0:0:
192,192,18229,1,0,0:0:0:0:
64,192,18635,1,0,0:0:0:0:
448,192,18635,1,0,0:0:0:0:
192,192,18837,1,0,0:0:0:0:
448,192,19040,1,0,0:0:0:0:
320,192,19040,1,0,0:0:0:0:
64,192,19445,1,0,0:0:0:0:
320,192,19445,1,0,0:0:0:0:
192,192,19648,1,0,0:0:0:0:
320,192,19851,1,0,0:0:0:0:
64,192,19851,1,0,0:0:0:0:
192,192,20256,1,0,0:0:0:0:
448,192,20256,1,0,0:0:0:0:
320,192,20459,1,0,0:0:0:0:
448,192,20662,1,0,0:0:0:0:
64,192,20662,1,0,0:0:0:0:
320,192,20864,1,0,0:0:0:0:
64,192,21067,1,0,0:0:0:0:
192,192,21067,1,0,0:0:0:0:
448,192,21270,1,0,0:0:0:0:
320,192,21472,1,0,0:0:0:0:
192,192,21472,1,0,0:0:0:0:
64,192,21878,1,0,0:0:0:0:
320,192,21878,1,0,0:0:0:0:
448,192,22080,1,0,0:0:0:0:
192,192,22283,1,0,0:0:0:0:
320,192,22283,1,0,0:0:0:0:
448,192,22689,1,0,0:0:0:0:
64,192,22689,1,0,0:0:0:0:
192,192,22891,1,0,0:0:0:0:
64,192,23094,1,0,0:0:0:0:
320,192,23094,1,0,0:0:0:0:
192,192,23499,1,0,0:0:0:0:
448,192,23499,1,0,0:0:0:0:
320,192,23702,1,0,0:0:0:0:
448,192,23905,1,0,0:0:0:0:
64,192,23905,1,0,0:0:0:0:
64,192,24310,1,0,0:0:0:0:
448,192,24310,1,0,0:0:0:0:
320,192,24513,1,0,0:0:0:0:
448,192,24716,1,0,0:0:0:0:
192,192,24716,1,0,0:0:0:0:
320,192,25121,1,0,0:0:0:0:
64,192,25121,1,0,0:0:0:0:
192,192,25324,1,0,0:0:0:0:
64,192,25526,1,0,0:0:0:0:
448,192,25526,1,0,0:0:0:0:
192,192,25932,1,0,0:0:0:0:
448,192,25932,1,0,0:0:0:0:
64,192,26337,1,0,0:0:0:0:
320,192,26439,1,0,0:0:0:0:
64,192,26540,1,0,0:0:0:0:
320,192,26641,1,0,0:0:0:0:
64,192,26743,1,0,0:0:0:0:
192,192,26793,1,0,0:0:0:0:
320,192,26844,1,0,0:0:0:0:
448,192,26895,1,0,0:0:0:0:
64,192,26945,1,0,0:0:0:0:
192,192,26996,1,0,0:0:0:0:
320,192,27047,1,0,0:0:0:0:
448,192,27097,1,0,0:0:0:0:
64,192,27148,1,0,0:0:0:0:
192,192,27553,1,0,0:0:0:0:
448,192,27553,1,0,0:0:0:0:
64,192,27553,1,0,0:0:0:0:
320,192,27553,1,0,0:0:0:0:
448,192,27756,1,0,0:0:0:0:
320,192,27959,1,0,0:0:0:0:
192,192,27959,1,0,0:0:0:0:
64,192,27959,1,0,0:0:0:0:
448,192,28162,1,0,0:0:0:0:
64,192,28364,1,0,0:0:0:0:
320,192,28364,1,0,0:0:0:0:
192,192,28567,1,0,0:0:0:0:
448,192,28770,1,0,0:0:0:0:
64,192,28770,1,0,0:0:0:0:
320,192,28770,1,0,0:0:0:0:
192,192,28972,1,0,0:0:0:0:
320,192,29175,1,0,0:0:0:0:
64,192,29175,1,0,0:0:0:0:
192,192,29378,1,0,0:0:0:0:
64,192,29580,1,0,0:0:0:0:
448,192,29580,1,0,0:0:0:0:
320,192,29580,1,0,0:0:0:0:
192,192,29783,1,0,0:0:0:0:
320,192,29986,1,0,0:0:0:0:
448,192,29986,1,0,0:0:0:0:
64,192,30189,1,0,0:0:0:0:
192,192,30391,1,0,0:0:0:0:
448,192,30391,1,0,0:0:0:0:
64,192,30391,1,0,0:0:0:0:
320,192,30594,1,0,0:0:0:0:
64,192,30797,1,0,0:0:0:0:
448,192,30797,1,0,0:0:0:0:
320,192,30999,1,0,0:0:0:0:
448,192,31202,1,0,0:0:0:0:
192,192,31202,1,0,0:0:0:0:
64,192,31202,1,0,0:0:0:0:
320,192,31405,1,0,0:0:0:0:
64,192,31607,1,0,0:0:0:0:
448,192,31607,1,0,0:0:0:0:
192,192,31810,1,0,0:0:0:0:
320,192,32013,1,0,0:0:0:0:
448,192,32013,1,0,0:0:0:0:
64,192,32013,1,0,0:0:0:0:
320,192,32216,1,0,0:0:0:0:
192,192,32418,1,0,0:0:0:0:
448,192,32418,1,0,0:0:0:0:
320,192,32621,1,0,0:0:0:0:
64,192,32824,1,0,0:0:0:0:
448,192,32824,1,0,0:0:0:0:
192,192,32824,1,0,0:0:0:0:
192,192,33026,1,0,0:0:0:0:
320,192,33229,1,0,0:0:0:0:
448,192,33229,1,0,0:0:0:0:
64,192,33432,1,0,0:0:0:0:
192,192,33635,1,0,0:0:0:0:
448,192,33635,1,0,0:0:0:0:
320,192,33635,1,0,0:0:0:0:
320,192,33837,1,0,0:0:0:0:
192,192,33837,1,0,0:0:0:0:
64,192,34040,1,0,0:0:0:0:
448,192,34040,1,0,0:0:0:0:
320,192,34243,1,0,0:0:0:0:
448,192,34445,1,0,0:0:0:0:
192,192,34445,1,0,0:0:0:0:
64,192,34445,1,0,0:0:0:0:
320,192,34648,1,0,0:0:0:0:
64,192,34851,1,0,0:0:0:0:
448,192,34851,1,0,0:0:0:0:
192,192,35053,1,0,0:0:0:0:
320,192,35256,1,0,0:0:0:0:
448,192,35256,1,0,0:0:0:0:
64,192,35256,1,0,0:0:0:0:
192,192,35459,1,0,0:0:0:0:
64,192,35662,1,0,0:0:0:0:
320,192,35662,1,0,0:0:0:0:
448,192,35864,1,0,0:0:0:0:
192,192,36067,1,0,0:0:0:0:
448,192,36067,1,0,0:0:0:0:
320,192,36067,1,0,0:0:0:0:
64,192,36270,1,0,0:0:0:0:
320,192,36472,1,0,0:0:0:0:
192,192,36472,1,0,0:0:0:0:
448,192,36675,1,0,0:0:0:0:
64,192,36878,1,0,0:0:0:0:
192,192,36878,1,0,0:0:0:0:
320,192,36878,1,0,0:0:0:0:
448,192,37080,1,0,0:0:0:0:
320,192,37283,1,0,0:0:0:0:
192,192,37283,1,0,0:0:0:0:
192,192,37486,1,0,0:0:0:0:
448,192,37689,1,0,0:0:0:0:
64,192,37689,1,0,0:0:0:0:
320,192,37689,1,0,0:0:0:0:
192,192,37891,1,0,0:0:0:0:
320,192,38094,1,0,0:0:0:0:
64,192,38094,1,0,0:0:0:0:
448,192,38297,1,0,0:0:0:0:
192,192,38499,1,0,0:0:0:0:
448,192,38499,1,0,0:0:0:0:
320,192,38499,1,0,0:0:0:0:
64,192,38702,1,0,0:0:0:0:
320,192,38905,1,0,0:0:0:0:
64,192,38905,1,0,0:0:0:0:
448,192,39107,1,0,0:0:0:0:
320,192,39310,1,0,0:0:0:0:
192,192,39310,1,0,0:0:0:0:
64,192,39310,1,0,0:0:0:0:
448,192,39513,1,0,0:0:0:0:
448,192,39716,1,0,0:0:0:0:
192,192,39716,1,0,0:0:0:0:
320,192,39918,1,0,0:0:0:0:
64,192,40121,1,0,0:0:0:0:
192,192,40121,1,0,0:0:0:0:
448,192,40121,1,0,0:0:0:0:
192,192,40324,1,0,0:0:0:0:
448,192,40324,1,0,0:0:0:0:
64,192,40526,1,0,0:0:0:0:
448,192,40526,1,0,0:0:0:0:
320,192,40526,1,0,0:0:0:0:
64,192,40729,1,0,0:0:0:0:
192,192,40932,1,0,0:0:0:0:
320,192,40932,1,0,0:0:0:0:
448,192,40932,1,0,0:0:0:0:
64,192,41135,1,0,0:0:0:0:
448,192,41337,1,0,0:0:0:0:
192,192,41337,1,0,0:0:0:0:
320,192,41540,1,0,0:0:0:0:
64,192,41743,1,0,0:0:0:0:
448,192,41743,1,0,0:0:0:0:
192,192,41743,1,0,0:0:0:0:
320,192,41945,1,0,0:0:0:0:
192,192,42148,1,0,0:0:0:0:
448,192,42148,1,0,0:0:0:0:
320,192,42351,1,0,0:0:0:0:
448,192,42553,1,0,0:0:0:0:
64,192,42553,1,0,0:0:0:0:
192,192,42553,1,0,0:0:0:0:
320,192,42756,1,0,0:0:0:0:
192,192,42959,1,0,0:0:0:0:
64,192,42959,1,0,0:0:0:0:
448,192,43162,1,0,0:0:0:0:
320,192,43364,1,0,0:0:0:0:
64,192,43364,1,0,0:0:0:0:
448,192,43364,1,0,0:0:0:0:
192,192,43567,1,0,0:0:0:0:
448,192,43770,1,0,0:0:0:0:
64,192,43770,1,0,0:0:0:0:
192,192,43972,1,0,0:0:0:0:
64,192,44175,1,0,0:0:0:0:
320,192,44175,1,0,0:0:0:0:
448,192,44175,1,0,0:0:0:0:
192,192,44378,1,0,0:0:0:0:
448,192,44580,1,0,0:0:0:0:
64,192,44580,1,0,0:0:0:0:
320,192,44783,1,0,0:0:0:0:
192,192,44986,1,0,0:0:0:0:
64,192,44986,1,0,0:0:0:0:
448,192,44986,1,0,0:0:0:0:
192,192,45189,1,0,0:0:0:0:
320,192,45391,1,0,0:0:0:0:
64,192,45391,1,0,0:0:0:0:
192,192,45594,1,0,0:0:0:0:
448,192,45797,1,0,0:0:0:0:
64,192,45797,1,0,0:0:0:0:
320,192,45797,1,0,0:0:0:0:
320,192,45999,1,0,0:0:0:0:
192,192,46202,1,0,0:0:0:0:
64,192,46202,1,0,0:0:0:0:
448,192,46405,1,0,0:0:0:0:
320,192,46607,1,0,0:0:0:0:
64,192,46607,1,0,0:0:0:0:
192,192,46607,1,0,0:0:0:0:
192,192,46810,1,0,0:0:0:0:
320,192,46810,1,0,0:0:0:0:
448,192,47013,1,0,0:0:0:0:
64,192,47013,1,0,0:0:0:0:
192,192,47216,1,0,0:0:0:0:
64,192,47418,1,0,0:0:0:0:
320,192,47418,1,0,0:0:0:0:
448,192,47418,1,0,0:0:0:0:
192,192,47621,1,0,0:0:0:0:
448,192,47824,1,0,0:0:0:0:
64,192,47824,1,0,0:0:0:0:
320,192,48026,1,0,0:0:0:0:
192,192,48229,1,0,0:0:0:0:
64,192,48229,1,0,0:0:0:0:
448,192,48229,1,0,0:0:0:0:
320,192,48432,1,0,0:0:0:0:
448,192,48635,1,0,0:0:0:0:
192,192,48635,1,0,0:0:0:0:
64,192,48837,1,0,0:0:0:0:
320,192,49040,1,0,0:0:0:0:
64,192,49040,1,0,0:0:0:0:
192,192,49040,1,0,0:0:0:0:
448,192,49243,1,0,0:0:0:0:
192,192,49445,1,0,0:0:0:0:
320,192,49445,1,0,0:0:0:0:
64,192,49648,1,0,0:0:0:0:
448,192,49851,1,0,0:0:0:0:
320,192,49851,1,0,0:0:0:0:
192,192,49851,1,0,0:0:0:0:
64,192,50053,1,0,0:0:0:0:
192,192,50256,1,0,0:0:0:0:
320,192,50256,1,0,0:0:0:0:
320,192,50459,1,0,0:0:0:0:
64,192,50662,1,0,0:0:0:0:
448,192,50662,1,0,0:0:0:0:
192,192,50662,1,0,0:0:0:0:
320,192,50864,1,0,0:0:0:0:
192,192,51067,1,0,0:0:0:0:
448,192,51067,1,0,0:0:0:0:
64,192,51270,1,0,0:0:0:0:
320,192,51472,1,0,0:0:0:0:
64,192,51472,1,0,0:0:0:0:
192,192,51472,1,0,0:0:0:0:
448,192,51675,1,0,0:0:0:0:
64,192,51878,1,0,0:0:0:0:
320,192,52080,1,0,0:0:0:0:
448,192,52283,1,0,0:0:0:0:
192,192,52486,1,0,0:0:0:0:
64,192,52689,1,0,0:0:0:0:
320,192,52891,1,0,0:0:0:0:
448,192,53094,1,0,0:0:0:0:
192,192,53297,1,0,0:0:0:0:
64,192,53499,1,0,0:0:0:0:
320,192,53702,1,0,0:0:0:0:
64,192,53905,1,0,0:0:0:0:
64,192,54107,1,0,0:0:0:0:
64,192,54310,1,0,0:0:0:0:
320,192,54513,1,0,0:0:0:0:
64,192,54716,1,0,0:0:0:0:
64,192,54918,1,0,0:0:0:0:
64,192,55121,1,0,0:0:0:0:
320,192,55324,1,0,0:0:0:0:
64,192,55526,1,0,0:0:0:0:
64,192,55729,1,0,0:0:0:0:
64,192,55932,1,0,0:0:0:0:
64,192,56135,1,0,0:0:0:0:
320,192,56337,1,0,0:0:0:0:
192,192,56540,1,0,0:0:0:0:
320,192,56641,1,0,0:0:0:0:
64,192,56743,1,0,0:0:0:0:
448,192,56945,1,0,0:0:0:0:
320,192,57148,1,0,0:0:0:0:
320,192,57351,1,0,0:0:0:0:
64,192,57553,1,0,0:0:0:0:
448,192,57756,1,0,0:0:0:0:
192,192,57959,1,0,0:0:0:0:
320,192,58162,1,0,0:0:0:0:
320,192,58364,1,0,0:0:0:0:
64,192,58567,1,0,0:0:0:0:
448,192,58770,1,0,0:0:0:0:
192,192,58972,1,0,0:0:0:0:
320,192,59175,1,0,0:0:0:0:
448,192,59378,1,0,0:0:0:0:
64,192,59580,1,0,0:0:0:0:
320,192,59783,1,0,0:0:0:0:
448,192,59986,1,0,0:0:0:0:
448,192,60189,1,0,0:0:0:0:
192,192,60391,1,0,0:0:0:0:
192,192,60594,1,0,0:0:0:0:
64,192,60797,1,0,0:0:0:0:
64,192,60999,1,0,0:0:0:0:
320,192,61202,1,0,0:0:0:0:
320,192,61405,1,0,0:0:0:0:
448,192,61607,1,0,0:0:0:0:
448,192,61810,1,0,0:0:0:0:
192,192,62013,1,0,0:0:0:0:
192,192,62216,1,0,0:0:0:0:
320,192,62418,1,0,0:0:0:0:
320,192,62621,1,0,0:0:0:0:
64,192,62824,1,0,0:0:0:0:
448,192,63026,1,0,0:0:0:0:
192,192,63229,1,0,0:0:0:0:
192,192,63432,1,0,0:0:0:0:
448,192,63635,1,0,0:0:0:0:
64,192,63736,1,0,0:0:0:0:
448,192,63837,1,0,0:0:0:0:
64,192,63939,1,0,0:0:0:0:
320,192,64040,1,0,0:0:0:0:
448,192,64040,1,0,0:0:0:0:
320,192,64243,1,0,0:0:0:0:
448,192,64243,1,0,0:0:0:0:
64,192,64445,1,0,0:0:0:0:
192,192,64445,1,0,0:0:0:0:
64,192,64648,1,0,0:0:0:0:
192,192,64648,1,0,0:0:0:0:
320,192,64851,1,0,0:0:0:0:
448,192,64851,1,0,0:0:0:0:
320,192,65053,1,0,0:0:0:0:
448,192,65053,1,0,0:0:0:0:
192,192,65256,1,0,0:0:0:0:
64,192,65256,1,0,0:0:0:0:
192,192,65459,1,0,0:0:0:0:
64,192,65459,1,0,0:0:0:0:
64,192,65662,1,0,0:0:0:0:
448,192,65662,1,0,0:0:0:0:
64,192,66472,1,0,0:0:0:0:
192,192,66472,1,0,0:0:0:0:
448,192,66675,1,0,0:0:0:0:
192,192,66878,1,0,0:0:0:0:
64,192,66878,1,0,0:0:0:0:
320,192,67080,1,0,0:0:0:0:
448,192,67283,1,0,0:0:0:0:
192,192,67283,1,0,0:0:0:0:
64,192,67486,1,0,0:0:0:0:
192,192,67587,1,0,0:0:0:0:
320,192,67689,1,0,0:0:0:0:
448,192,67689,1,0,0:0:0:0:
448,192,67891,1,0,0:0:0:0:
192,192,68094,1,0,0:0:0:0:
320,192,68094,1,0,0:0:0:0:
448,192,68195,1,0,0:0:0:0:
64,192,68297,1,0,0:0:0:0:
320,192,68398,1,0,0:0:0:0:
192,192,68499,1,0,0:0:0:0:
448,192,68702,1,0,0:0:0:0:
192,192,68905,1,0,0:0:0:0:
320,192,68905,1,0,0:0:0:0:
64,192,69107,1,0,0:0:0:0:
320,192,69310,1,0,0:0:0:0:
192,192,69310,1,0,0:0:0:0:
448,192,69513,1,0,0:0:0:0:
64,192,69716,1,0,0:0:0:0:
192,192,69716,1,0,0:0:0:0:
320,192,69918,1,0,0:0:0:0:
448,192,70121,1,0,0:0:0:0:
64,192,70121,1,0,0:0:0:0:
192,192,70324,1,0,0:0:0:0:
64,192,70526,1,0,0:0:0:0:
448,192,70526,1,0,0:0:0:0:
320,192,70729,1,0,0:0:0:0:
192,192,70932,1,0,0:0:0:0:
64,192,70932,1,0,0:0:0:0:
448,192,71135,1,0,0:0:0:0:
320,192,71337,1,0,0:0:0:0:
192,192,71337,1,0,0:0:0:0:
64,192,71540,1,0,0:0:0:0:
448,192,71743,1,0,0:0:0:0:
320,192,71743,1,0,0:0:0:0:
192,192,71945,1,0,0:0:0:0:
64,192,72148,1,0,0:0:0:0:
448,192,72148,1,0,0:0:0:0:
320,192,72351,1,0,0:0:0:0:
192,192,72553,1,0,0:0:0:0:
448,192,72756,1,0,0:0:0:0:
320,192,72959,1,0,0:0:0:0:
64,192,72959,1,0,0:0:0:0:
320,192,73162,1,0,0:0:0:0:
192,192,73364,1,0,0:0:0:0:
64,192,73364,1,0,0:0:0:0:
448,192,73466,1,0,0:0:0:0:
192,192,73567,1,0,0:0:0:0:
448,192,73668,1,0,0:0:0:0:
64,192,73770,1,0,0:0:0:0:
320,192,73770,1,0,0:0:0:0:
320,192,73972,1,0,0:0:0:0:
192,192,74175,1,0,0:0:0:0:
448,192,74175,1,0,0:0:0:0:
448,192,74378,1,0,0:0:0:0:
64,192,74580,1,0,0:0:0:0:
192,192,74580,1,0,0:0:0:0:
320,192,74783,1,0,0:0:0:0:
192,192,74986,1,0,0:0:0:0:
64,192,74986,1,0,0:0:0:0:
448,192,75189,1,0,0:0:0:0:
64,192,75391,1,0,0:0:0:0:
320,192,75797,1,0,0:0:0:0:
192,192,76202,1,0,0:0:0:0:
64,192,76202,1,0,0:0:0:0:
448,192,76303,1,0,0:0:0:0:
192,192,76405,1,0,0:0:0:0:
448,192,76506,1,0,0:0:0:0:
320,192,76607,1,0,0:0:0:0:
192,192,76607,1,0,0:0:0:0:
64,192,76709,1,0,0:0:0:0:
320,192,76810,1,0,0:0:0:0:
64,192,76912,1,0,0:0:0:0:
448,192,77013,1,0,0:0:0:0:
320,192,77013,1,0,0:0:0:0:
192,192,77114,1,0,0:0:0:0:
448,192,77216,1,0,0:0:0:0:
192,192,77317,1,0,0:0:0:0:
64,192,77418,1,0,0:0:0:0:
448,192,77418,1,0,0:0:0:0:
320,192,77520,1,0,0:0:0:0:
64,192,77621,1,0,0:0:0:0:
320,192,77722,1,0,0:0:0:0:
448,192,77824,1,0,0:0:0:0:
192,192,77824,1,0,0:0:0:0:
320,192,77925,1,0,0:0:0:0:
64,192,78026,1,0,0:0:0:0:
192,192,78128,1,0,0:0:0:0:
320,192,78229,1,0,0:0:0:0:
64,192,78229,1,0,0:0:0:0:
448,192,78330,1,0,0:0:0:0:
192,192,78432,1,0,0:0:0:0:
64,192,78533,1,0,0:0:0:0:
448,192,78635,1,0,0:0:0:0:
320,192,78635,1,0,0:0:0:0:
64,192,79040,1,0,0:0:0:0:
64,192,79445,1,0,0:0:0:0:
448,192,79445,1,0,0:0:0:0:
192,192,79445,1,0,0:0:0:0:
320,192,79547,1,0,0:0:0:0:
192,192,79648,1,0,0:0:0:0:
320,192,79749,1,0,0:0:0:0:
448,192,79851,1,0,0:0:0:0:
64,192,79952,1,0,0:0:0:0:
192,192,80053,1,0,0:0:0:0:
320,192,80155,1,0,0:0:0:0:
192,192,80256,1,0,0:0:0:0:
64,192,80357,1,0,0:0:0:0:
320,192,80459,1,0,0:0:0:0:
192,192,80560,1,0,0:0:0:0:
320,192,80662,1,0,0:0:0:0:
448,192,80763,1,0,0:0:0:0:
320,192,80864,1,0,0:0:0:0:
192,192,80966,1,0,0:0:0:0:
64,192,81067,1,0,0:0:0:0:
320,192,81168,1,0,0:0:0:0:
192,192,81270,1,0,0:0:0:0:
448,192,81371,1,0,0:0:0:0:
320,192,81472,1,0,0:0:0:0:
192,192,81574,1,0,0:0:0:0:
64,192,81675,1,0,0:0:0:0:
448,192,81776,1,0,0:0:0:0:
192,192,81878,1,0,0:0:0:0:
320,192,81979,1,0,0:0:0:0:
448,192,82080,1,0,0:0:0:0:
64,192,82182,1,0,0:0:0:0:
320,192,82283,1,0,0:0:0:0:
192,192,82385,1,0,0:0:0:0:
64,192,82486,1,0,0:0:0:0:
448,192,82587,1,0,0:0:0:0:
320,192,82689,1,0,0:0:0:0:
192,192,82790,1,0,0:0:0:0:
64,192,82891,1,0,0:0:0:0:
320,192,82993,1,0,0:0:0:0:
192,192,83094,1,0,0:0:0:0:
320,192,83195,1,0,0:0:0:0:
448,192,83297,1,0,0:0:0:0:
320,192,83398,1,0,0:0:0:0:
64,192,83499,1,0,0:0:0:0:
192,192,83601,1,0,0:0:0:0:
320,192,83702,1,0,0:0:0:0:
448,192,83803,1,0,0:0:0:0:
192,192,83905,1,0,0:0:0:0:
64,192,84006,1,0,0:0:0:0:
320,192,84107,1,0,0:0:0:0:
448,192,84209,1,0,0:0:0:0:
64,192,84310,1,0,0:0:0:0:
320,192,84412,1,0,0:0:0:0:
448,192,84513,1,0,0:0:0:0:
320,192,84614,1,0,0:0:0:0:
192,192,84716,1,0,0:0:0:0:
64,192,84817,1,0,0:0:0:0:
448,192,84918,1,0,0:0:0:0:
320,192,85020,1,0,0:0:0:0:
192,192,85121,1,0,0:0:0:0:
320,192,85222,1,0,0:0:0:0:
192,192,85324,1,0,0:0:0:0:
64,192,85425,1,0,0:0:0:0:
448,192,85526,1,0,0:0:0:0:
320,192,85628,1,0,0:0:0:0:
64,192,85729,1,0,0:0:0:0:
192,192,85830,1,0,0:0:0:0:
448,192,85932,1,0,0:0:0:0:
320,192,86033,1,0,0:0:0:0:
192,192,86135,1,0,0:0:0:0:
448,192,86236,1,0,0:0:0:0:
64,192,86337,1,0,0:0:0:0:
320,192,86439,1,0,0:0:0:0:
192,192,86540,1,0,0:0:0:0:
448,192,86641,1,0,0:0:0:0:
320,192,86743,1,0,0:0:0:0:
192,192,86844,1,0,0:0:0:0:
64,192,86945,1,0,0:0:0:0:
192,192,87047,1,0,0:0:0:0:
448,192,87148,1,0,0:0:0:0:
192,192,87249,1,0,0:0:0:0:
64,192,87351,1,0,0:0:0:0:
320,192,87452,1,0,0:0:0:0:
192,192,87553,1,0,0:0:0:0:
320,192,87655,1,0,0:0:0:0:
448,192,87756,1,0,0:0:0:0:
64,192,87857,1,0,0:0:0:0:
320,192,87959,1,0,0:0:0:0:
192,192,88060,1,0,0:0:0:0:
64,192,88162,1,0,0:0:0:0:
320,192,88263,1,0,0:0:0:0:
448,192,88364,1,0,0:0:0:0:
320,192,88466,1,0,0:0:0:0:
192,192,88567,1,0,0:0:0:0:
64,192,88668,1,0,0:0:0:0:
192,192,88770,1,0,0:0:0:0:
320,192,88871,1,0,0:0:0:0:
448,192,88972,1,0,0:0:0:0:
192,192,89074,1,0,0:0:0:0:
320,192,89175,1,0,0:0:0:0:
192,192,89276,1,0,0:0:0:0:
64,192,89378,1,0,0:0:0:0:
448,192,89479,1,0,0:0:0:0:
64,192,89580,1,0,0:0:0:0:
320,192,89682,1,0,0:0:0:0:
448,192,89783,1,0,0:0:0:0:
192,192,89885,1,0,0:0:0:0:
64,192,89986,1,0,0:0:0:0:
320,192,90087,1,0,0:0:0:0:
192,192,90189,1,0,0:0:0:0:
320,192,90290,1,0,0:0:0:0:
448,192,90391,1,0,0:0:0:0:
64,192,90493,1,0,0:0:0:0:
320,192,90594,1,0,0:0:0:0:
448,192,90695,1,0,0:0:0:0:
64,192,90797,1,0,0:0:0:0:
320,192,90898,1,0,0:0:0:0:
192,192,90999,1,0,0:0:0:0:
320,192,91101,1,0,0:0:0:0:
448,192,91202,1,0,0:0:0:0:
320,192,91303,1,0,0:0:0:0:
192,192,91405,1,0,0:0:0:0:
64,192,91506,1,0,0:0:0:0:
192,192,91607,1,0,0:0:0:0:
448,192,91607,1,0,0:0:0:0:
64,192,92013,1,0,0:0:0:0:
320,192,92013,1,0,0:0:0:0:
448,192,92418,1,0,0:0:0:0:
64,192,92418,1,0,0:0:0:0:
192,192,92418,1,0,0:0:0:0:
320,192,92520,1,0,0:0:0:0:
192,192,92621,1,0,0:0:0:0:
320,192,92722,1,0,0:0:0:0:
64,192,92824,1,0,0:0:0:0:
448,192,92925,1,0,0:0:0:0:
192,192,93026,1,0,0:0:0:0:
320,192,93128,1,0,0:0:0:0:
64,192,93229,1,0,0:0:0:0:
448,192,93330,1,0,0:0:0:0:
320,192,93432,1,0,0:0:0:0:
192,192,93533,1,0,0:0:0:0:
320,192,93635,1,0,0:0:0:0:
64,192,93736,1,0,0:0:0:0:
320,192,93837,1,0,0:0:0:0:
192,192,93939,1,0,0:0:0:0:
448,192,94040,1,0,0:0:0:0:
320,192,94141,1,0,0:0:0:0:
192,192,94243,1,0,0:0:0:0:
64,192,94344,1,0,0:0:0:0:
448,192,94445,1,0,0:0:0:0:
192,192,94547,1,0,0:0:0:0:
320,192,94648,1,0,0:0:0:0:
64,192,94749,1,0,0:0:0:0:
192,192,94851,1,0,0:0:0:0:
320,192,94952,1,0,0:0:0:0:
64,192,95053,1,0,0:0:0:0:
448,192,95155,1,0,0:0:0:0:
320,192,95256,1,0,0:0:0:0:
192,192,95357,1,0,0:0:0:0:
448,192,95459,1,0,0:0:0:0:
64,192,95560,1,0,0:0:0:0:
320,192,95662,1,0,0:0:0:0:
192,192,95763,1,0,0:0:0:0:
448,192,95864,1,0,0:0:0:0:
320,192,95966,1,0,0:0:0:0:
64,192,96067,1,0,0:0:0:0:
320,192,96168,1,0,0:0:0:0:
192,192,96270,1,0,0:0:0:0:
320,192,96371,1,0,0:0:0:0:
448,192,96472,1,0,0:0:0:0:
192,192,96574,1,0,0:0:0:0:
320,192,96675,1,0,0:0:0:0:
64,192,96776,1,0,0:0:0:0:
192,192,96878,1,0,0:0:0:0:
448,192,96979,1,0,0:0:0:0:
320,192,97080,1,0,0:0:0:0:
64,192,97182,1,0,0:0:0:0:
448,192,97283,1,0,0:0:0:0:
320,192,97385,1,0,0:0:0:0:
64,192,97486,1,0,0:0:0:0:
320,192,97587,1,0,0:0:0:0:
192,192,97689,1,0,0:0:0:0:
448,192,97790,1,0,0:0:0:0:
64,192,97891,1,0,0:0:0:0:
320,192,97993,1,0,0:0:0:0:
192,192,98094,1,0,0:0:0:0:
320,192,98195,1,0,0:0:0:0:
192,192,98297,1,0,0:0:0:0:
448,192,98398,1,0,0:0:0:0:
64,192,98499,1,0,0:0:0:0:
320,192,98601,1,0,0:0:0:0:
64,192,98702,1,0,0:0:0:0:
448,192,98702,1,0,0:0:0:0:
192,192,98803,1,0,0:0:0:0:
448,192,98905,1,0,0:0:0:0:
320,192,99006,1,0,0:0:0:0:
192,192,99107,1,0,0:0:0:0:
64,192,99209,1,0,0:0:0:0:
192,192,99310,1,0,0:0:0:0:
320,192,99412,1,0,0:0:0:0:
192,192,99513,1,0,0:0:0:0:
64,192,99614,1,0,0:0:0:0:
320,192,99716,1,0,0:0:0:0:
192,192,99817,1,0,0:0:0:0:
448,192,99918,1,0,0:0:0:0:
320,192,100020,1,0,0:0:0:0:
64,192,100121,1,0,0:0:0:0:
192,192,100222,1,0,0:0:0:0:
448,192,100324,1,0,0:0:0:0:
320,192,100425,1,0,0:0:0:0:
64,192,100526,1,0,0:0:0:0:
320,192,100628,1,0,0:0:0:0:
192,192,100729,1,0,0:0:0:0:
448,192,100830,1,0,0:0:0:0:
64,192,100932,1,0,0:0:0:0:
192,192,101033,1,0,0:0:0:0:
448,192,101135,1,0,0:0:0:0:
320,192,101236,1,0,0:0:0:0:
64,192,101337,1,0,0:0:0:0:
320,192,101439,1,0,0:0:0:0:
192,192,101540,1,0,0:0:0:0:
448,192,101641,1,0,0:0:0:0:
64,192,101743,1,0,0:0:0:0:
320,192,101844,1,0,0:0:0:0:
64,192,101945,1,0,0:0:0:0:
192,192,102047,1,0,0:0:0:0:
448,192,102148,1,0,0:0:0:0:
192,192,102249,1,0,0:0:0:0:
448,192,102351,1,0,0:0:0:0:
64,192,102452,1,0,0:0:0:0:
192,192,102553,1,0,0:0:0:0:
320,192,102655,1,0,0:0:0:0:
64,192,102756,1,0,0:0:0:0:
192,192,102857,1,0,0:0:0:0:
448,192,102959,1,0,0:0:0:0:
320,192,103060,1,0,0:0:0:0:
192,192,103162,1,0,0:0:0:0:
320,192,103263,1,0,0:0:0:0:
64,192,103364,1,0,0:0:0:0:
448,192,103466,1,0,0:0:0:0:
320,192,103567,1,0,0:0:0:0:
448,192,103668,1,0,0:0:0:0:
64,192,103770,1,0,0:0:0:0:
192,192,103770,1,0,0:0:0:0:
320,192,103871,1,0,0:0:0:0:
448,192,103871,1,0,0:0:0:0:
192,192,103972,1,0,0:0:0:0:
64,192,103972,1,0,0:0:0:0:
320,192,104074,1,0,0:0:0:0:
448,192,104074,1,0,0:0:0:0:
64,192,104175,1,0,0:0:0:0:
192,192,104175,1,0,0:0:0:0:
320,192,104276,1,0,0:0:0:0:
448,192,104276,1,0,0:0:0:0:
192,192,104378,1,0,0:0:0:0:
64,192,104378,1,0,0:0:0:0:
320,192,104479,1,0,0:0:0:0:
448,192,104479,1,0,0:0:0:0:
64,192,104580,1,0,0:0:0:0:
192,192,104580,1,0,0:0:0:0:
192,192,104986,5,0,0:0:0:0:
320,192,104986,1,0,0:0:0:0:
64,192,105391,5,0,0:0:0:0:
448,192,105391,1,0,0:0:0:0:
192,192,115382,5,0,0:0:0:0:
64,192,115382,1,0,0:0:0:0:
448,192,115382,1,0,0:0:0:0:
448,192,115612,1,0,0:0:0:0:
320,192,115843,1,0,0:0:0:0:
64,192,115843,1,0,0:0:0:0:
192,192,115843,1,0,0:0:0:0:
192,192,116074,1,0,0:0:0:0:
448,192,116074,1,0,0:0:0:0:
320,192,116305,1,0,0:0:0:0:
64,192,116305,1,0,0:0:0:0:
448,192,116535,1,0,0:0:0:0:
192,192,116766,1,0,0:0:0:0:
64,192,116766,1,0,0:0:0:0:
448,192,116766,1,0,0:0:0:0:
320,192,116882,1,0,0:0:0:0:
448,192,116997,1,0,0:0:0:0:
192,192,116997,1,0,0:0:0:0:
64,192,117112,1,0,0:0:0:0:
320,192,117228,1,0,0:0:0:0:
448,192,117228,1,0,0:0:0:0:
192,192,117458,1,0,0:0:0:0:
448,192,117689,1,0,0:0:0:0:
64,192,117689,1,0,0:0:0:0:
320,192,117689,1,0,0:0:0:0:
192,192,117920,1,0,0:0:0:0:
320,192,117920,1,0,0:0:0:0:
448,192,118151,1,0,0:0:0:0:
64,192,118151,1,0,0:0:0:0:
192,192,118382,1,0,0:0:0:0:
64,192,118612,1,0,0:0:0:0:
320,192,118612,1,0,0:0:0:0:
192,192,118612,1,0,0:0:0:0:
448,192,118728,1,0,0:0:0:0:
320,192,118843,1,0,0:0:0:0:
64,192,118843,1,0,0:0:0:0:
192,192,118958,1,0,0:0:0:0:
448,192,119074,1,0,0:0:0:0:
320,192,119074,1,0,0:0:0:0:
64,192,119305,1,0,0:0:0:0:
320,192,119535,1,0,0:0:0:0:
192,192,119535,1,0,0:0:0:0:
448,192,119535,1,0,0:0:0:0:
64,192,119766,1,0,0:0:0:0:
320,192,119766,1,0,0:0:0:0:
448,192,119997,1,0,0:0:0:0:
192,192,119997,1,0,0:0:0:0:
320,192,120228,1,0,0:0:0:0:
192,192,120458,1,0,0:0:0:0:
64,192,120458,1,0,0:0:0:0:
448,192,120458,1,0,0:0:0:0:
320,192,120574,1,0,0:0:0:0:
448,192,120689,1,0,0:0:0:0:
192,192,120689,1,0,0:0:0:0:
64,192,120805,1,0,0:0:0:0:
320,192,120920,1,0,0:0:0:0:
192,192,120920,1,0,0:0:0:0:
64,192,121151,1,0,0:0:0:0:
320,192,121382,1,0,0:0:0:0:
448,192,121382,1,0,0:0:0:0:
64,192,121382,1,0,0:0:0:0:
192,192,121612,1,0,0:0:0:0:
448,192,121612,1,0,0:0:0:0:
64,192,121843,1,0,0:0:0:0:
320,192,121843,1,0,0:0:0:0:
448,192,122074,1,0,0:0:0:0:
64,192,122305,1,0,0:0:0:0:
192,192,122305,1,0,0:0:0:0:
320,192,122305,1,0,0:0:0:0:
448,192,122420,1,0,0:0:0:0:
320,192,122535,1,0,0:0:0:0:
64,192,122535,1,0,0:0:0:0:
192,192,122651,1,0,0:0:0:0:
448,192,122766,1,0,0:0:0:0:
64,192,122766,1,0,0:0:0:0:
192,192,122997,1,0,0:0:0:0:
192,192,123228,1,0,0:0:0:0:
448,192,123228,1,0,0:0:0:0:
320,192,123228,1,0,0:0:0:0:
320,192,123458,1,0,0:0:0:0:
64,192,123458,1,0,0:0:0:0:
192,192,123689,1,0,0:0:0:0:
448,192,123689,1,0,0:0:0:0:
64,192,123920,1,0,0:0:0:0:
320,192,124151,1,0,0:0:0:0:
448,192,124151,1,0,0:0:0:0:
64,192,124151,1,0,0:0:0:0:
192,192,124266,1,0,0:0:0:0:
64,192,124382,1,0,0:0:0:0:
320,192,124382,1,0,0:0:0:0:
448,192,124497,1,0,0:0:0:0:
192,192,124612,1,0,0:0:0:0:
64,192,124612,1,0,0:0:0:0:
320,192,124843,1,0,0:0:0:0:
64,192,125074,1,0,0:0:0:0:
448,192,125074,1,0,0:0:0:0:
192,192,125074,1,0,0:0:0:0:
320,192,125305,1,0,0:0:0:0:
192,192,125305,1,0,0:0:0:0:
64,192,125535,1,0,0:0:0:0:
448,192,125535,1,0,0:0:0:0:
320,192,125766,1,0,0:0:0:0:
448,192,125997,1,0,0:0:0:0:
192,192,125997,1,0,0:0:0:0:
320,192,125997,1,0,0:0:0:0:
64,192,126112,1,0,0:0:0:0:
192,192,126228,1,0,0:0:0:0:
448,192,126228,1,0,0:0:0:0:
320,192,126343,1,0,0:0:0:0:
64,192,126458,1,0,0:0:0:0:
192,192,126458,1,0,0:0:0:0:
448,192,126689,1,0,0:0:0:0:
192,192,126920,1,0,0:0:0:0:
320,192,126920,1,0,0:0:0:0:
64,192,126920,1,0,0:0:0:0:
448,192,127151,1,0,0:0:0:0:
192,192,127151,1,0,0:0:0:0:
64,192,127382,1,0,0:0:0:0:
320,192,127382,1,0,0:0:0:0:
192,192,127612,1,0,0:0:0:0:
320,192,127843,1,0,0:0:0:0:
448,192,127843,1,0,0:0:0:0:
64,192,127843,1,0,0:0:0:0:
192,192,127958,1,0,0:0:0:0:
64,192,128074,1,0,0:0:0:0:
320,192,128074,1,0,0:0:0:0:
448,192,128189,1,0,0:0:0:0:
192,192,128305,1,0,0:0:0:0:
320,192,128305,1,0,0:0:0:0:
448,192,128535,1,0,0:0:0:0:
192,192,128766,1,0,0:0:0:0:
64,192,128766,1,0,0:0:0:0:
448,192,128766,1,0,0:0:0:0:
320,192,128997,1,0,0:0:0:0:
64,192,128997,1,0,0:0:0:0:
448,192,129228,1,0,0:0:0:0:
192,192,129228,1,0,0:0:0:0:
64,192,129458,1,0,0:0:0:0:
320,192,129458,1,0,0:0:0:0:
448,192,129689,1,0,0:0:0:0:
320,192,129689,1,0,0:0:0:0:
192,192,129689,1,0,0:0:0:0:
64,192,129805,1,0,0:0:0:0:
192,192,129920,1,0,0:0:0:0:
448,192,129920,1,0,0:0:0:0:
320,192,130035,1,0,0:0:0:0:
192,192,130151,5,0,0:0:0:0:
448,192,130151,1,0,0:0:0:0:
64,192,130151,1,0,0:0:0:0:
64,192,130382,1,0,0:0:0:0:
320,192,130612,1,0,0:0:0:0:
448,192,130612,1,0,0:0:0:0:
192,192,130612,1,0,0:0:0:0:
192,192,130843,1,0,0:0:0:0:
64,192,130843,1,0,0:0:0:0:
320,192,131074,1,0,0:0:0:0:
448,192,131074,1,0,0:0:0:0:
64,192,131305,1,0,0:0:0:0:
192,192,131535,1,0,0:0:0:0:
448,192,131535,1,0,0:0:0:0:
64,192,131535,1,0,0:0:0:0:
320,192,131651,1,0,0:0:0:0:
64,192,131766,1,0,0:0:0:0:
192,192,131766,1,0,0:0:0:0:
448,192,131882,1,0,0:0:0:0:
320,192,131997,1,0,0:0:0:0:
64,192,131997,1,0,0:0:0:0:
192,192,132228,1,0,0:0:0:0:
64,192,132458,1,0,0:0:0:0:
448,192,132458,1,0,0:0:0:0:
320,192,132458,1,0,0:0:0:0:
192,192,132689,1,0,0:0:0:0:
320,192,132689,1,0,0:0:0:0:
64,192,132920,1,0,0:0:0:0:
448,192,132920,1,0,0:0:0:0:
192,192,133151,1,0,0:0:0:0:
448,192,133382,1,0,0:0:0:0:
320,192,133382,1,0,0:0:0:0:
192,192,133382,1,0,0:0:0:0:
64,192,133497,1,0,0:0:0:0:
320,192,133612,1,0,0:0:0:0:
448,192,133612,1,0,0:0:0:0:
192,192,133728,1,0,0:0:0:0:
64,192,133843,1,0,0:0:0:0:
320,192,133843,1,0,0:0:0:0:
448,192,134074,1,0,0:0:0:0:
320,192,134305,1,0,0:0:0:0:
192,192,134305,1,0,0:0:0:0:
64,192,134305,1,0,0:0:0:0:
448,192,134535,1,0,0:0:0:0:
320,192,134535,1,0,0:0:0:0:
64,192,134766,1,0,0:0:0:0:
192,192,134766,1,0,0:0:0:0:
320,192,134997,1,0,0:0:0:0:
192,192,135228,1,0,0:0:0:0:
448,192,135228,1,0,0:0:0:0:
64,192,135228,1,0,0:0:0:0:
320,192,135343,1,0,0:0:0:0:
64,192,135458,1,0,0:0:0:0:
192,192,135458,1,0,0:0:0:0:
448,192,135574,1,0,0:0:0:0:
320,192,135689,1,0,0:0:0:0:
192,192,135689,1,0,0:0:0:0:
448,192,135920,1,0,0:0:0:0:
320,192,136151,1,0,0:0:0:0:
64,192,136151,1,0,0:0:0:0:
448,192,136151,1,0,0:0:0:0:
192,192,136382,1,0,0:0:0:0:
64,192,136382,1,0,0:0:0:0:
448,192,136612,1,0,0:0:0:0:
320,192,136612,1,0,0:0:0:0:
64,192,136843,1,0,0:0:0:0:
448,192,137074,1,0,0:0:0:0:
192,192,137074,1,0,0:0:0:0:
320,192,137074,1,0,0:0:0:0:
64,192,137189,1,0,0:0:0:0:
320,192,137305,1,0,0:0:0:0:
448,192,137305,1,0,0:0:0:0:
192,192,137420,1,0,0:0:0:0:
64,192,137535,1,0,0:0:0:0:
448,192,137535,1,0,0:0:0:0:
192,192,137766,1,0,0:0:0:0:
192,192,137997,1,0,0:0:0:0:
64,192,137997,1,0,0:0:0:0:
320,192,137997,1,0,0:0:0:0:
320,192,138228,1,0,0:0:0:0:
448,192,138228,1,0,0:0:0:0:
192,192,138458,1,0,0:0:0:0:
64,192,138458,1,0,0:0:0:0:
448,192,138689,1,0,0:0:0:0:
320,192,138920,1,0,0:0:0:0:
64,192,138920,1,0,0:0:0:0:
448,192,138920,1,0,0:0:0:0:
192,192,139035,1,0,0:0:0:0:
448,192,139151,1,0,0:0:0:0:
320,192,139151,1,0,0:0:0:0:
64,192,139266,1,0,0:0:0:0:
192,192,139382,1,0,0:0:0:0:
448,192,139382,1,0,0:0:0:0:
320,192,139612,1,0,0:0:0:0:
448,192,139843,1,0,0:0:0:0:
64,192,139843,1,0,0:0:0:0:
192,192,139843,1,0,0:0:0:0:
320,192,140074,1,0,0:0:0:0:
192,192,140074,1,0,0:0:0:0:
448,192,140305,1,0,0:0:0:0:
64,192,140305,1,0,0:0:0:0:
320,192,140535,1,0,0:0:0:0:
64,192,140766,1,0,0:0:0:0:
192,192,140766,1,0,0:0:0:0:
320,192,140766,1,0,0:0:0:0:
448,192,140882,1,0,0:0:0:0:
192,192,140997,1,0,0:0:0:0:
64,192,140997,1,0,0:0:0:0:
320,192,141112,1,0,0:0:0:0:
448,192,141228,1,0,0:0:0:0:
192,192,141228,1,0,0:0:0:0:
64,192,141458,1,0,0:0:0:0:
192,192,141689,1,0,0:0:0:0:
320,192,141689,1,0,0:0:0:0:
448,192,141689,1,0,0:0:0:0:
64,192,141920,5,0,0:0:0:0:
192,192,141920,1,0,0:0:0:0:
448,192,142151,1,0,0:0:0:0:
320,192,142151,1,0,0:0:0:0:
192,192,142382,1,0,0:0:0:0:
320,192,142612,1,0,0:0:0:0:
64,192,142612,1,0,0:0:0:0:
448,192,142612,1,0,0:0:0:0:
192,192,142728,1,0,0:0:0:0:
448,192,142843,1,0,0:0:0:0:
320,192,142843,1,0,0:0:0:0:
64,192,142958,1,0,0:0:0:0:
320,192,143074,5,0,0:0:0:0:
448,192,143074,1,0,0:0:0:0:
192,192,143420,1,0,0:0:0:0:
320,192,143420,1,0,0:0:0:0:
64,192,143766,1,0,0:0:0:0:
192,192,143766,1,0,0:0:0:0:
192,192,144112,1,0,0:0:0:0:
320,192,144112,1,0,0:0:0:0:
320,192,144458,1,0,0:0:0:0:
448,192,144458,1,0,0:0:0:0:
192,192,144689,1,0,0:0:0:0:
320,192,144689,1,0,0:0:0:0:
64,192,144920,1,0,0:0:0:0:
192,192,144920,1,0,0:0:0:0:
448,192,145151,1,0,0:0:0:0:
192,192,145382,1,0,0:0:0:0:
448,192,145612,1,0,0:0:0:0:
64,192,145843,1,0,0:0:0:0:
320,192,146074,1,0,0:0:0:0:
64,192,146305,1,0,0:0:0:0:
320,192,146535,1,0,0:0:0:0:
192,192,146766,1,0,0:0:0:0:
448,192,146997,1,0,0:0:0:0:
192,192,147228,1,0,0:0:0:0:
448,192,147458,1,0,0:0:0:0:
64,192,147689,1,0,0:0:0:0:
320,192,147920,1,0,0:0:0:0:
192,192,148151,1,0,0:0:0:0:
64,192,148382,1,0,0:0:0:0:
192,192,148612,1,0,0:0:0:0:
448,192,148843,1,0,0:0:0:0:
192,192,149074,1,0,0:0:0:0:
448,192,149305,1,0,0:0:0:0:
64,192,149535,1,0,0:0:0:0:
320,192,149766,1,0,0:0:0:0:
64,192,149997,1,0,0:0:0:0:
320,192,150228,1,0,0:0:0:0:
192,192,150458,1,0,0:0:0:0:
448,192,150689,1,0,0:0:0:0:
192,192,150920,1,0,0:0:0:0:
448,192,151151,1,0,0:0:0:0:
64,192,151382,1,0,0:0:0:0:
320,192,151612,1,0,0:0:0:0:
192,192,151843,1,0,0:0:0:0:
64,192,152074,1,0,0:0:0:0:
192,192,152305,1,0,0:0:0:0:
320,192,152305,1,0,0:0:0:0:
448,192,152535,1,0,0:0:0:0:
64,192,152535,1,0,0:0:0:0:
320,192,152651,1,0,0:0:0:0:
192,192,152766,1,0,0:0:0:0:
64,192,152766,1,0,0:0:0:0:
448,192,152997,1,0,0:0:0:0:
320,192,152997,1,0,0:0:0:0:
192,192,153112,1,0,0:0:0:0:
64,192,153228,1,0,0:0:0:0:
448,192,153228,1,0,0:0:0:0:
320,192,153458,1,0,0:0:0:0:
192,192,153458,1,0,0:0:0:0:
448,192,153574,1,0,0:0:0:0:
64,192,153689,1,0,0:0:0:0:
192,192,153689,1,0,0:0:0:0:
320,192,153920,1,0,0:0:0:0:
448,192,153920,1,0,0:0:0:0:
64,192,154035,1,0,0:0:0:0:
192,192,154151,1,0,0:0:0:0:
320,192,154151,1,0,0:0:0:0:
448,192,154382,1,0,0:0:0:0:
64,192,154382,1,0,0:0:0:0:
320,192,154497,1,0,0:0:0:0:
192,192,154612,1,0,0:0:0:0:
64,192,154612,1,0,0:0:0:0:
448,192,154843,1,0,0:0:0:0:
320,192,154843,1,0,0:0:0:0:
192,192,154958,1,0,0:0:0:0:
64,192,155074,1,0,0:0:0:0:
448,192,155074,1,0,0:0:0:0:
192,192,155189,1,0,0:0:0:0:
320,192,155305,1,0,0:0:0:0:
448,192,155305,1,0,0:0:0:0:
192,192,155535,1,0,0:0:0:0:
448,192,155535,1,0,0:0:0:0:
64,192,155766,1,0,0:0:0:0:
320,192,155766,1,0,0:0:0:0:
448,192,155882,1,0,0:0:0:0:
192,192,155997,1,0,0:0:0:0:
320,192,155997,1,0,0:0:0:0:
448,192,156228,1,0,0:0:0:0:
320,192,156228,1,0,0:0:0:0:
64,192,156343,1,0,0:0:0:0:
192,192,156458,1,0,0:0:0:0:
320,192,156458,1,0,0:0:0:0:
448,192,156689,1,0,0:0:0:0:
320,192,156689,1,0,0:0:0:0:
192,192,156805,1,0,0:0:0:0:
64,192,156920,1,0,0:0:0:0:
320,192,156920,1,0,0:0:0:0:
320,192,157151,1,0,0:0:0:0:
448,192,157151,1,0,0:0:0:0:
192,192,157266,1,0,0:0:0:0:
64,192,157382,1,0,0:0:0:0:
448,192,157382,1,0,0:0:0:0:
320,192,157612,1,0,0:0:0:0:
64,192,157612,1,0,0:0:0:0:
448,192,157728,1,0,0:0:0:0:
192,192,157843,1,0,0:0:0:0:
64,192,157843,1,0,0:0:0:0:
448,192,158074,1,0,0:0:0:0:
320,192,158074,1,0,0:0:0:0:
64,192,158189,1,0,0:0:0:0:
192,192,158305,1,0,0:0:0:0:
320,192,158305,1,0,0:0:0:0:
448,192,158535,1,0,0:0:0:0:
192,192,158535,1,0,0:0:0:0:
320,192,158651,1,0,0:0:0:0:
64,192,158766,1,0,0:0:0:0:
448,192,158766,1,0,0:0:0:0:
192,192,158882,1,0,0:0:0:0:
320,192,158997,1,0,0:0:0:0:
448,192,158997,1,0,0:0:0:0:
192,192,159228,1,0,0:0:0:0:
320,192,159228,1,0,0:0:0:0:
448,192,159228,1,0,0:0:0:0:
64,192,159458,1,0,0:0:0:0:
192,192,159458,1,0,0:0:0:0:
448,192,159689,1,0,0:0:0:0:
320,192,159689,1,0,0:0:0:0:
448,192,159920,1,0,0:0:0:0:
192,192,159920,1,0,0:0:0:0:
448,192,160151,1,0,0:0:0:0:
64,192,160151,1,0,0:0:0:0:
448,192,160382,1,0,0:0:0:0:
192,192,160382,1,0,0:0:0:0:
448,192,160612,1,0,0:0:0:0:
320,192,160612,1,0,0:0:0:0:
448,192,160843,1,0,0:0:0:0:
192,192,160843,1,0,0:0:0:0:
448,192,161074,1,0,0:0:0:0:
64,192,161074,1,0,0:0:0:0:
448,192,161305,1,0,0:0:0:0:
192,192,161305,1,0,0:0:0:0:
448,192,161535,1,0,0:0:0:0:
320,192,161535,1,0,0:0:0:0:
448,192,161766,1,0,0:0:0:0:
192,192,161766,1,0,0:0:0:0:
448,192,161997,1,0,0:0:0:0:
64,192,161997,1,0,0:0:0:0:
448,192,162228,1,0,0:0:0:0:
192,192,162228,1,0,0:0:0:0:
448,192,162458,1,0,0:0:0:0:
320,192,162458,1,0,0:0:0:0:
448,192,162689,1,0,0:0:0:0:
192,192,162689,1,0,0:0:0:0:
448,192,162920,1,0,0:0:0:0:
64,192,162920,1,0,0:0:0:0:
192,192,163151,1,0,0:0:0:0:
320,192,163151,1,0,0:0:0:0:
192,192,163382,1,0,0:0:0:0:
64,192,163382,1,0,0:0:0:0:
320,192,163612,1,0,0:0:0:0:
64,192,163612,1,0,0:0:0:0:
448,192,163843,1,0,0:0:0:0:
64,192,163843,1,0,0:0:0:0:
320,192,164074,1,0,0:0:0:0:
64,192,164074,1,0,0:0:0:0:
192,192,164305,1,0,0:0:0:0:
64,192,164305,1,0,0:0:0:0:
320,192,164535,1,0,0:0:0:0:
64,192,164535,1,0,0:0:0:0:
448,192,164766,1,0,0:0:0:0:
64,192,164766,1,0,0:0:0:0:
320,192,164997,1,0,0:0:0:0:
64,192,164997,1,0,0:0:0:0:
192,192,165228,1,0,0:0:0:0:
64,192,165228,1,0,0:0:0:0:
320,192,165458,1,0,0:0:0:0:
64,192,165458,1,0,0:0:0:0:
448,192,165689,1,0,0:0:0:0:
64,192,165689,1,0,0:0:0:0:
320,192,165920,1,0,0:0:0:0:
64,192,165920,1,0,0:0:0:0:
192,192,166151,1,0,0:0:0:0:
64,192,166151,1,0,0:0:0:0:
320,192,166382,1,0,0:0:0:0:
64,192,166382,1,0,0:0:0:0:
448,192,166612,1,0,0:0:0:0:
64,192,166612,1,0,0:0:0:0:
192,192,166843,1,0,0:0:0:0:
320,192,166843,1,0,0:0:0:0:
448,192,167074,1,0,0:0:0:0:
320,192,167074,1,0,0:0:0:0:
448,192,167305,1,0,0:0:0:0:
192,192,167305,1,0,0:0:0:0:
448,192,167535,1,0,0:0:0:0:
64,192,167535,1,0,0:0:0:0:
448,192,167766,1,0,0:0:0:0:
192,192,167766,1,0,0:0:0:0:
448,192,167997,1,0,0:0:0:0:
320,192,167997,1,0,0:0:0:0:
448,192,168228,1,0,0:0:0:0:
192,192,168228,1,0,0:0:0:0:
448,192,168458,1,0,0:0:0:0:
64,192,168458,1,0,0:0:0:0:
448,192,168689,1,0,0:0:0:0:
192,192,168689,1,0,0:0:0:0:
448,192,168920,1,0,0:0:0:0:
320,192,168920,1,0,0:0:0:0:
448,192,169151,1,0,0:0:0:0:
192,192,169151,1,0,0:0:0:0:
448,192,169382,1,0,0:0:0:0:
64,192,169382,1,0,0:0:0:0:
448,192,169612,1,0,0:0:0:0:
192,192,169612,1,0,0:0:0:0:
448,192,169843,1,0,0:0:0:0:
320,192,169843,1,0,0:0:0:0:
448,192,170074,1,0,0:0:0:0:
192,192,170074,1,0,0:0:0:0:
448,192,170305,1,0,0:0:0:0:
64,192,170305,1,0,0:0:0:0:
192,192,170535,1,0,0:0:0:0:
320,192,170535,1,0,0:0:0:0:
192,192,170766,1,0,0:0:0:0:
64,192,170766,1,0,0:0:0:0:
320,192,170997,1,0,0:0:0:0:
64,192,170997,1,0,0:0:0:0:
448,192,171228,1,0,0:0:0:0:
64,192,171228,1,0,0:0:0:0:
320,192,171458,1,0,0:0:0:0:
64,192,171458,1,0,0:0:0:0:
192,192,171689,1,0,0:0:0:0:
64,192,171689,1,0,0:0:0:0:
320,192,171920,1,0,0:0:0:0:
64,192,171920,1,0,0:0:0:0:
448,192,172151,1,0,0:0:0:0:
64,192,172151,1,0,0:0:0:0:
320,192,172382,1,0,0:0:0:0:
64,192,172382,1,0,0:0:0:0:
192,192,172612,1,0,0:0:0:0:
448,192,172843,1,0,0:0:0:0:
64,192,173074,1,0,0:0:0:0:
320,192,173305,1,0,0:0:0:0:
64,192,173535,1,0,0:0:0:0:
448,192,173766,1,0,0:0:0:0:
192,192,173997,1,0,0:0:0:0:
192,192,174112,1,0,0:0:0:0:
320,192,174228,1,0,0:0:0:0:
320,192,174343,1,0,0:0:0:0:
64,192,174458,1,0,0:0:0:0:
192,192,174458,1,0,0:0:0:0:
448,192,174458,1,0,0:0:0:0:
448,192,174689,1,0,0:0:0:0:
320,192,174689,1,0,0:0:0:0:
192,192,174920,1,0,0:0:0:0:
64,192,174920,1,0,0:0:0:0:
448,192,174920,1,0,0:0:0:0:
320,192,175151,1,0,0:0:0:0:
192,192,175151,1,0,0:0:0:0:
64,192,175382,1,0,0:0:0:0:
320,192,175382,1,0,0:0:0:0:
448,192,175612,1,0,0:0:0:0:
192,192,175612,1,0,0:0:0:0:
320,192,175843,1,0,0:0:0:0:
64,192,175843,1,0,0:0:0:0:
448,192,175843,1,0,0:0:0:0:
192,192,176074,1,0,0:0:0:0:
320,192,176074,1,0,0:0:0:0:
64,192,176305,1,0,0:0:0:0:
448,192,176305,1,0,0:0:0:0:
192,192,176535,1,0,0:0:0:0:
320,192,176535,1,0,0:0:0:0:
320,192,176766,1,0,0:0:0:0:
448,192,176766,1,0,0:0:0:0:
64,192,176766,1,0,0:0:0:0:
192,192,176997,1,0,0:0:0:0:
64,192,176997,1,0,0:0:0:0:
320,192,177228,1,0,0:0:0:0:
448,192,177228,1,0,0:0:0:0:
448,192,177458,1,0,0:0:0:0:
192,192,177458,1,0,0:0:0:0:
192,192,177689,1,0,0:0:0:0:
320,192,177689,1,0,0:0:0:0:
64,192,177689,1,0,0:0:0:0:
64,192,177920,1,0,0:0:0:0:
448,192,177920,1,0,0:0:0:0:
320,192,178151,1,0,0:0:0:0:
192,192,178151,1,0,0:0:0:0:
448,192,178382,1,0,0:0:0:0:
320,192,178382,1,0,0:0:0:0:
192,192,178612,1,0,0:0:0:0:
64,192,178612,1,0,0:0:0:0:
448,192,178612,1,0,0:0:0:0:
320,192,178843,1,0,0:0:0:0:
192,192,178843,1,0,0:0:0:0:
64,192,179074,1,0,0:0:0:0:
320,192,179074,1,0,0:0:0:0:
448,192,179305,1,0,0:0:0:0:
192,192,179305,1,0,0:0:0:0:
320,192,179535,1,0,0:0:0:0:
448,192,179535,1,0,0:0:0:0:
64,192,179535,1,0,0:0:0:0:
192,192,179766,1,0,0:0:0:0:
320,192,179766,1,0,0:0:0:0:
64,192,179997,1,0,0:0:0:0:
448,192,179997,1,0,0:0:0:0:
320,192,180228,1,0,0:0:0:0:
192,192,180228,1,0,0:0:0:0:
192,192,180458,1,0,0:0:0:0:
448,192,180458,1,0,0:0:0:0:
64,192,180458,1,0,0:0:0:0:
448,192,180689,1,0,0:0:0:0:
320,192,180689,1,0,0:0:0:0:
320,192,180920,1,0,0:0:0:0:
192,192,180920,1,0,0:0:0:0:
448,192,181151,1,0,0:0:0:0:
192,192,181151,1,0,0:0:0:0:
448,192,181382,1,0,0:0:0:0:
64,192,181382,1,0,0:0:0:0:
320,192,181382,1,0,0:0:0:0:
192,192,181612,1,0,0:0:0:0:
320,192,181612,1,0,0:0:0:0:
192,192,181843,1,0,0:0:0:0:
64,192,181843,1,0,0:0:0:0:
320,192,182074,1,0,0:0:0:0:
448,192,182074,1,0,0:0:0:0:
64,192,182305,1,0,0:0:0:0:
192,192,182305,1,0,0:0:0:0:
320,192,182305,1,0,0:0:0:0:
448,192,182535,1,0,0:0:0:0:
64,192,182535,1,0,0:0:0:0:
192,192,182766,1,0,0:0:0:0:
448,192,182766,1,0,0:0:0:0:
320,192,182997,1,0,0:0:0:0:
64,192,182997,1,0,0:0:0:0:
448,192,183228,1,0,0:0:0:0:
192,192,183228,1,0,0:0:0:0:
320,192,183228,1,0,0:0:0:0:
64,192,183458,1,0,0:0:0:0:
448,192,183458,1,0,0:0:0:0:
192,192,183689,1,0,0:0:0:0:
320,192,183689,1,0,0:0:0:0:
64,192,183920,1,0,0:0:0:0:
448,192,183920,1,0,0:0:0:0:
448,192,184151,1,0,0:0:0:0:
320,192,184151,1,0,0:0:0:0:
192,192,184151,1,0,0:0:0:0:
64,192,184382,1,0,0:0:0:0:
192,192,184382,1,0,0:0:0:0:
448,192,184612,1,0,0:0:0:0:
320,192,184612,1,0,0:0:0:0:
320,192,184843,1,0,0:0:0:0:
64,192,184843,1,0,0:0:0:0:
64,192,185074,1,0,0:0:0:0:
448,192,185074,1,0,0:0:0:0:
192,192,185074,1,0,0:0:0:0:
192,192,185305,1,0,0:0:0:0:
320,192,185305,1,0,0:0:0:0:
448,192,185535,1,0,0:0:0:0:
64,192,185535,1,0,0:0:0:0:
320,192,185766,1,0,0:0:0:0:
448,192,185766,1,0,0:0:0:0:
64,192,185997,1,0,0:0:0:0:
192,192,185997,1,0,0:0:0:0:
320,192,185997,1,0,0:0:0:0:
448,192,186228,1,0,0:0:0:0:
64,192,186228,1,0,0:0:0:0:
192,192,186458,1,0,0:0:0:0:
448,192,186458,1,0,0:0:0:0:
320,192,186689,1,0,0:0:0:0:
64,192,186689,1,0,0:0:0:0:
448,192,186920,1,0,0:0:0:0:
320,192,186920,1,0,0:0:0:0:
192,192,186920,1,0,0:0:0:0:
64,192,187151,1,0,0:0:0:0:
448,192,187151,1,0,0:0:0:0:
192,192,187382,1,0,0:0:0:0:
320,192,187382,1,0,0:0:0:0:
448,192,187612,1,0,0:0:0:0:
64,192,187612,1,0,0:0:0:0:
64,192,187843,1,0,0:0:0:0:
320,192,187843,1,0,0:0:0:0:
192,192,187843,1,0,0:0:0:0:
320,192,188074,1,0,0:0:0:0:
448,192,188074,1,0,0:0:0:0:
448,192,188305,1,0,0:0:0:0:
64,192,188305,1,0,0:0:0:0:
320,192,188535,1,0,0:0:0:0:
192,192,188766,1,0,0:0:0:0:
448,192,188997,1,0,0:0:0:0:
64,192,189228,1,0,0:0:0:0:
320,192,189228,1,0,0:0:0:0:
192,192,189228,1,0,0:0:0:0:
320,192,189458,1,0,0:0:0:0:
192,192,189458,1,0,0:0:0:0:
320,192,189689,1,0,0:0:0:0:
448,192,189689,1,0,0:0:0:0:
64,192,189689,1,0,0:0:0:0:
192,192,189920,1,0,0:0:0:0:
320,192,189920,1,0,0:0:0:0:
448,192,190151,1,0,0:0:0:0:
192,192,190151,1,0,0:0:0:0:
64,192,190382,1,0,0:0:0:0:
320,192,190382,1,0,0:0:0:0:
192,192,190612,1,0,0:0:0:0:
448,192,190612,1,0,0:0:0:0:
64,192,190612,1,0,0:0:0:0:
320,192,190843,1,0,0:0:0:0:
192,192,190843,1,0,0:0:0:0:
448,192,191074,1,0,0:0:0:0:
64,192,191074,1,0,0:0:0:0:
320,192,191305,1,0,0:0:0:0:
192,192,191305,1,0,0:0:0:0:
192,192,191535,1,0,0:0:0:0:
64,192,191535,1,0,0:0:0:0:
448,192,191535,1,0,0:0:0:0:
320,192,191766,1,0,0:0:0:0:
448,192,191766,1,0,0:0:0:0:
192,192,191997,1,0,0:0:0:0:
64,192,191997,1,0,0:0:0:0:
64,192,192228,1,0,0:0:0:0:
320,192,192228,1,0,0:0:0:0:
320,192,192458,1,0,0:0:0:0:
192,192,192458,1,0,0:0:0:0:
448,192,192458,1,0,0:0:0:0:
448,192,192689,1,0,0:0:0:0:
64,192,192689,1,0,0:0:0:0:
192,192,192920,1,0,0:0:0:0:
320,192,192920,1,0,0:0:0:0:
64,192,193151,1,0,0:0:0:0:
192,192,193151,1,0,0:0:0:0:
320,192,193382,1,0,0:0:0:0:
448,192,193382,1,0,0:0:0:0:
64,192,193382,1,0,0:0:0:0:
192,192,193612,1,0,0:0:0:0:
320,192,193612,1,0,0:0:0:0:
448,192,193843,1,0,0:0:0:0:
192,192,193843,1,0,0:0:0:0:
64,192,194074,1,0,0:0:0:0:
320,192,194074,1,0,0:0:0:0:
192,192,194305,1,0,0:0:0:0:
64,192,194305,1,0,0:0:0:0:
448,192,194305,1,0,0:0:0:0:
320,192,194535,1,0,0:0:0:0:
192,192,194535,1,0,0:0:0:0:
448,192,194766,1,0,0:0:0:0:
64,192,194766,1,0,0:0:0:0:
192,192,194997,1,0,0:0:0:0:
320,192,194997,1,0,0:0:0:0:
320,192,195228,1,0,0:0:0:0:
64,192,195228,1,0,0:0:0:0:
448,192,195228,1,0,0:0:0:0:
64,192,195458,1,0,0:0:0:0:
192,192,195458,1,0,0:0:0:0:
192,192,195689,1,0,0:0:0:0:
320,192,195689,1,0,0:0:0:0:
64,192,195920,1,0,0:0:0:0:
320,192,195920,1,0,0:0:0:0:
64,192,196151,1,0,0:0:0:0:
448,192,196151,1,0,0:0:0:0:
192,192,196151,1,0,0:0:0:0:
320,192,196382,1,0,0:0:0:0:
192,192,196382,1,0,0:0:0:0:
320,192,196612,1,0,0:0:0:0:
448,192,196612,1,0,0:0:0:0:
192,192,196843,1,0,0:0:0:0:
64,192,196843,1,0,0:0:0:0:
448,192,197074,1,0,0:0:0:0:
320,192,197074,1,0,0:0:0:0:
192,192,197074,1,0,0:0:0:0:
64,192,197305,1,0,0:0:0:0:
448,192,197305,1,0,0:0:0:0:
320,192,197535,1,0,0:0:0:0:
64,192,197535,1,0,0:0:0:0:
192,192,197766,1,0,0:0:0:0:
448,192,197766,1,0,0:0:0:0:
64,192,197997,1,0,0:0:0:0:
320,192,197997,1,0,0:0:0:0:
192,192,197997,1,0,0:0:0:0:
448,192,198228,1,0,0:0:0:0:
64,192,198228,1,0,0:0:0:0:
320,192,198458,1,0,0:0:0:0:
192,192,198458,1,0,0:0:0:0:
448,192,198689,1,0,0:0:0:0:
64,192,198689,1,0,0:0:0:0:
64,192,198920,1,0,0:0:0:0:
192,192,198920,1,0,0:0:0:0:
320,192,198920,1,0,0:0:0:0:
448,192,199151,1,0,0:0:0:0:
320,192,199151,1,0,0:0:0:0:
64,192,199382,1,0,0:0:0:0:
192,192,199382,1,0,0:0:0:0:
192,192,199612,1,0,0:0:0:0:
448,192,199612,1,0,0:0:0:0:
448,192,199843,1,0,0:0:0:0:
64,192,199843,1,0,0:0:0:0:
320,192,199843,1,0,0:0:0:0:
320,192,200074,1,0,0:0:0:0:
192,192,200074,1,0,0:0:0:0:
64,192,200305,1,0,0:0:0:0:
448,192,200305,1,0,0:0:0:0:
192,192,200535,1,0,0:0:0:0:
64,192,200535,1,0,0:0:0:0:
448,192,200766,1,0,0:0:0:0:
320,192,200766,1,0,0:0:0:0:
192,192,200766,1,0,0:0:0:0:
64,192,200997,1,0,0:0:0:0:
448,192,200997,1,0,0:0:0:0:
320,192,201228,1,0,0:0:0:0:
64,192,201228,1,0,0:0:0:0:
192,192,201458,1,0,0:0:0:0:
448,192,201458,1,0,0:0:0:0:
64,192,201689,1,0,0:0:0:0:
192,192,201689,1,0,0:0:0:0:
320,192,201689,1,0,0:0:0:0:
448,192,201920,1,0,0:0:0:0:
64,192,201920,1,0,0:0:0:0:
320,192,202151,1,0,0:0:0:0:
192,192,202151,1,0,0:0:0:0:
64,192,202382,1,0,0:0:0:0:
448,192,202382,1,0,0:0:0:0:
448,192,202612,1,0,0:0:0:0:
192,192,202612,1,0,0:0:0:0:
320,192,202612,1,0,0:0:0:0:
192,192,202843,1,0,0:0:0:0:
64,192,202843,1,0,0:0:0:0:
64,192,203074,1,0,0:0:0:0:
448,192,203074,1,0,0:0:0:0:
320,192,203305,1,0,0:0:0:0:
192,192,203535,1,0,0:0:0:0:
64,192,203535,1,0,0:0:0:0:
448,192,203766,1,0,0:0:0:0:
320,192,203997,1,0,0:0:0:0:
192,192,203997,1,0,0:0:0:0:
64,192,203997,1,0,0:0:0:0:
320,192,204228,1,0,0:0:0:0:
320,192,204458,1,0,0:0:0:0:
448,192,204458,1,0,0:0:0:0:
64,192,204458,1,0,0:0:0:0:
320,192,204689,1,0,0:0:0:0:
320,192,204920,1,0,0:0:0:0:
192,192,204920,1,0,0:0:0:0:
320,192,205151,1,0,0:0:0:0:
64,192,205382,1,0,0:0:0:0:
448,192,205382,1,0,0:0:0:0:
320,192,205382,1,0,0:0:0:0:
64,192,205612,1,0,0:0:0:0:
320,192,205843,1,0,0:0:0:0:
192,192,205843,1,0,0:0:0:0:
320,192,206074,1,0,0:0:0:0:
320,192,206305,1,0,0:0:0:0:
64,192,206305,1,0,0:0:0:0:
448,192,206305,1,0,0:0:0:0:
320,192,206535,1,0,0:0:0:0:
320,192,206766,1,0,0:0:0:0:
192,192,206766,1,0,0:0:0:0:
320,192,206997,1,0,0:0:0:0:
64,192,207228,1,0,0:0:0:0:
448,192,207228,1,0,0:0:0:0:
192,192,207228,1,0,0:0:0:0:
64,192,207458,1,0,0:0:0:0:
320,192,207689,1,0,0:0:0:0:
192,192,207689,1,0,0:0:0:0:
320,192,207920,1,0,0:0:0:0:
320,192,208151,1,0,0:0:0:0:
64,192,208151,1,0,0:0:0:0:
192,192,208151,1,0,0:0:0:0:
320,192,208382,1,0,0:0:0:0:
320,192,208612,1,0,0:0:0:0:
448,192,208612,1,0,0:0:0:0:
320,192,208843,1,0,0:0:0:0:
64,192,209074,1,0,0:0:0:0:
320,192,209074,1,0,0:0:0:0:
448,192,209074,1,0,0:0:0:0:
64,192,209305,1,0,0:0:0:0:
64,192,209535,1,0,0:0:0:0:
192,192,209535,1,0,0:0:0:0:
320,192,209766,1,0,0:0:0:0:
448,192,209997,1,0,0:0:0:0:
64,192,209997,1,0,0:0:0:0:
320,192,210228,1,0,0:0:0:0:
192,192,210458,1,0,0:0:0:0:
448,192,210920,1,0,0:0:0:0:
64,192,210920,1,0,0:0:0:0:
320,192,211382,1,0,0:0:0:0:
192,192,211382,1,0,0:0:0:0:
320,192,211612,1,0,0:0:0:0:
320,192,211843,1,0,0:0:0:0:
64,192,211843,1,0,0:0:0:0:
192,192,211843,1,0,0:0:0:0:
320,192,212074,1,0,0:0:0:0:
320,192,212305,1,0,0:0:0:0:
448,192,212305,1,0,0:0:0:0:
320,192,212535,1,0,0:0:0:0:
64,192,212766,1,0,0:0:0:0:
192,192,212766,1,0,0:0:0:0:
320,192,212766,1,0,0:0:0:0:
64,192,212997,1,0,0:0:0:0:
320,192,213228,1,0,0:0:0:0:
448,192,213228,1,0,0:0:0:0:
320,192,213458,1,0,0:0:0:0:
320,192,213689,1,0,0:0:0:0:
192,192,213689,1,0,0:0:0:0:
64,192,213689,1,0,0:0:0:0:
320,192,213920,1,0,0:0:0:0:
320,192,214151,1,0,0:0:0:0:
448,192,214151,1,0,0:0:0:0:
320,192,214382,1,0,0:0:0:0:
64,192,214612,1,0,0:0:0:0:
192,192,214612,1,0,0:0:0:0:
448,192,214612,1,0,0:0:0:0:
64,192,214843,1,0,0:0:0:0:
320,192,215074,1,0,0:0:0:0:
448,192,215074,1,0,0:0:0:0:
320,192,215305,1,0,0:0:0:0:
320,192,215535,1,0,0:0:0:0:
192,192,215535,1,0,0:0:0:0:
64,192,215535,1,0,0:0:0:0:
320,192,215766,5,0,0:0:0:0:
320,192,215997,1,0,0:0:0:0:
192,192,215997,1,0,0:0:0:0:
320,192,216228,1,0,0:0:0:0:
64,192,216458,1,0,0:0:0:0:
192,192,216458,1,0,0:0:0:0:
448,192,216458,1,0,0:0:0:0:
64,192,216689,1,0,0:0:0:0:
64,192,216920,5,0,0:0:0:0:
448,192,216920,1,0,0:0:0:0:
320,192,217151,1,0,0:0:0:0:
320,192,217612,5,0,0:0:0:0:
192,192,227854,5,0,0:0:0:0:
64,192,227854,5,0,0:0:0:0:
64,192,228168,5,0,0:0:0:0:
448,192,228168,1,0,0:0:0:0:
64,192,228693,1,0,0:0:0:0:
192,192,228693,1,0,0:0:0:0:
64,192,229007,1,0,0:0:0:0:
448,192,229007,1,0,0:0:0:0:
192,192,229532,1,0,0:0:0:0:
64,192,229532,1,0,0:0:0:0:
192,192,229847,1,0,0:0:0:0:
320,192,229847,1,0,0:0:0:0:
192,192,230371,1,0,0:0:0:0:
64,192,230371,1,0,0:0:0:0:
192,192,230686,1,0,0:0:0:0:
320,192,230686,1,0,0:0:0:0:
448,192,231210,1,0,0:0:0:0:
192,192,231210,1,0,0:0:0:0:
448,192,231525,1,0,0:0:0:0:
320,192,231525,1,0,0:0:0:0:
448,192,232049,1,0,0:0:0:0:
192,192,232049,1,0,0:0:0:0:
448,192,232364,1,0,0:0:0:0:
320,192,232364,1,0,0:0:0:0:
320,192,232888,1,0,0:0:0:0:
64,192,232888,1,0,0:0:0:0:
320,192,233203,1,0,0:0:0:0:
448,192,233203,1,0,0:0:0:0:
320,192,233728,1,0,0:0:0:0:
64,192,233728,1,0,0:0:0:0:
320,192,234042,1,0,0:0:0:0:
448,192,234042,1,0,0:0:0:0:
64,192,234567,1,0,0:0:0:0:
192,192,234567,1,0,0:0:0:0:
320,192,234672,1,0,0:0:0:0:
448,192,234881,1,0,0:0:0:0:
192,192,234881,1,0,0:0:0:0:
320,192,235091,1,0,0:0:0:0:
448,192,235196,1,0,0:0:0:0:
64,192,235196,1,0,0:0:0:0:
192,192,235406,1,0,0:0:0:0:
320,192,235406,1,0,0:0:0:0:
64,192,235511,1,0,0:0:0:0:
320,192,235721,1,0,0:0:0:0:
448,192,235721,1,0,0:0:0:0:
192,192,235930,1,0,0:0:0:0:
320,192,236035,1,0,0:0:0:0:
448,192,236035,1,0,0:0:0:0:
64,192,236245,1,0,0:0:0:0:
192,192,236245,1,0,0:0:0:0:
448,192,236350,1,0,0:0:0:0:
320,192,236560,1,0,0:0:0:0:
64,192,236560,1,0,0:0:0:0:
192,192,236770,1,0,0:0:0:0:
320,192,236874,1,0,0:0:0:0:
448,192,236874,1,0,0:0:0:0:
64,192,237084,1,0,0:0:0:0:
448,192,237084,1,0,0:0:0:0:
192,192,237189,1,0,0:0:0:0:
448,192,237399,1,0,0:0:0:0:
64,192,237399,1,0,0:0:0:0:
320,192,237609,1,0,0:0:0:0:
448,192,237714,1,0,0:0:0:0:
192,192,237714,1,0,0:0:0:0:
320,192,237923,1,0,0:0:0:0:
192,192,237923,1,0,0:0:0:0:
64,192,238028,1,0,0:0:0:0:
192,192,238238,1,0,0:0:0:0:
320,192,238238,1,0,0:0:0:0:
448,192,238448,1,0,0:0:0:0:
192,192,238553,1,0,0:0:0:0:
64,192,238553,1,0,0:0:0:0:
320,192,238763,1,0,0:0:0:0:
64,192,238763,1,0,0:0:0:0:
448,192,238867,1,0,0:0:0:0:
64,192,239077,1,0,0:0:0:0:
192,192,239077,1,0,0:0:0:0:
320,192,239287,1,0,0:0:0:0:
64,192,239392,1,0,0:0:0:0:
448,192,239392,1,0,0:0:0:0:
448,192,239602,1,0,0:0:0:0:
320,192,239602,1,0,0:0:0:0:
192,192,239707,1,0,0:0:0:0:
64,192,239916,1,0,0:0:0:0:
448,192,239916,1,0,0:0:0:0:
320,192,240126,1,0,0:0:0:0:
64,192,240231,1,0,0:0:0:0:
192,192,240231,1,0,0:0:0:0:
448,192,240441,1,0,0:0:0:0:
320,192,240441,1,0,0:0:0:0:
64,192,240546,1,0,0:0:0:0:
192,192,240756,1,0,0:0:0:0:
448,192,240756,1,0,0:0:0:0:
64,192,240965,1,0,0:0:0:0:
320,192,240965,1,0,0:0:0:0:
448,192,241280,1,0,0:0:0:0:
64,192,241280,1,0,0:0:0:0:
192,192,241385,1,0,0:0:0:0:
320,192,241595,1,0,0:0:0:0:
448,192,241595,1,0,0:0:0:0:
64,192,241805,1,0,0:0:0:0:
192,192,241909,1,0,0:0:0:0:
448,192,241909,1,0,0:0:0:0:
320,192,242119,1,0,0:0:0:0:
64,192,242119,1,0,0:0:0:0:
448,192,242224,1,0,0:0:0:0:
320,192,242329,1,0,0:0:0:0:
64,192,242434,1,0,0:0:0:0:
192,192,242434,1,0,0:0:0:0:
320,192,242644,1,0,0:0:0:0:
192,192,242749,1,0,0:0:0:0:
448,192,242749,1,0,0:0:0:0:
448,192,242958,1,0,0:0:0:0:
64,192,242958,1,0,0:0:0:0:
320,192,243063,1,0,0:0:0:0:
192,192,243273,1,0,0:0:0:0:
64,192,243273,1,0,0:0:0:0:
448,192,243483,1,0,0:0:0:0:
64,192,243588,1,0,0:0:0:0:
320,192,243588,1,0,0:0:0:0:
192,192,243798,1,0,0:0:0:0:
448,192,243798,1,0,0:0:0:0:
320,192,243902,1,0,0:0:0:0:
448,192,244007,1,0,0:0:0:0:
320,192,244112,1,0,0:0:0:0:
64,192,244112,1,0,0:0:0:0:
192,192,244322,1,0,0:0:0:0:
448,192,244427,1,0,0:0:0:0:
320,192,244427,1,0,0:0:0:0:
64,192,244637,1,0,0:0:0:0:
448,192,244637,1,0,0:0:0:0:
320,192,244742,1,0,0:0:0:0:
192,192,244951,1,0,0:0:0:0:
320,192,244951,1,0,0:0:0:0:
448,192,245161,1,0,0:0:0:0:
320,192,245266,1,0,0:0:0:0:
64,192,245266,1,0,0:0:0:0:
192,192,245476,1,0,0:0:0:0:
448,192,245476,1,0,0:0:0:0:
64,192,245581,1,0,0:0:0:0:
192,192,245686,1,0,0:0:0:0:
448,192,245791,1,0,0:0:0:0:
320,192,245791,1,0,0:0:0:0:
64,192,246000,1,0,0:0:0:0:
320,192,246105,1,0,0:0:0:0:
192,192,246105,1,0,0:0:0:0:
64,192,246315,1,0,0:0:0:0:
448,192,246315,1,0,0:0:0:0:
192,192,246420,1,0,0:0:0:0:
320,192,246630,1,0,0:0:0:0:
448,192,246630,1,0,0:0:0:0:
192,192,246840,1,0,0:0:0:0:
448,192,246944,1,0,0:0:0:0:
64,192,246944,1,0,0:0:0:0:
320,192,247154,1,0,0:0:0:0:
64,192,247154,1,0,0:0:0:0:
192,192,247259,1,0,0:0:0:0:
448,192,247364,1,0,0:0:0:0:
64,192,247469,1,0,0:0:0:0:
320,192,247469,1,0,0:0:0:0:
320,192,247679,1,0,0:0:0:0:
192,192,247784,1,0,0:0:0:0:
64,192,247784,1,0,0:0:0:0:
448,192,247993,1,0,0:0:0:0:
320,192,247993,1,0,0:0:0:0:
64,192,248203,1,0,0:0:0:0:
448,192,248308,1,0,0:0:0:0:
192,192,248308,1,0,0:0:0:0:
64,192,248518,1,0,0:0:0:0:
448,192,248623,1,0,0:0:0:0:
320,192,248623,1,0,0:0:0:0:
64,192,248728,1,0,0:0:0:0:
320,192,248833,1,0,0:0:0:0:
192,192,248833,1,0,0:0:0:0:
448,192,249042,1,0,0:0:0:0:
192,192,249147,1,0,0:0:0:0:
64,192,249147,1,0,0:0:0:0:
448,192,249357,1,0,0:0:0:0:
320,192,249462,1,0,0:0:0:0:
192,192,249462,1,0,0:0:0:0:
448,192,249567,1,0,0:0:0:0:
64,192,249672,1,0,0:0:0:0:
192,192,249672,1,0,0:0:0:0:
320,192,249881,1,0,0:0:0:0:
64,192,249986,1,0,0:0:0:0:
448,192,249986,1,0,0:0:0:0:
320,192,250196,1,0,0:0:0:0:
64,192,250301,1,0,0:0:0:0:
192,192,250301,1,0,0:0:0:0:
320,192,250406,1,0,0:0:0:0:
192,192,250511,1,0,0:0:0:0:
448,192,250511,1,0,0:0:0:0:
64,192,250721,1,0,0:0:0:0:
320,192,250826,1,0,0:0:0:0:
192,192,250826,1,0,0:0:0:0:
64,192,251035,1,0,0:0:0:0:
192,192,251140,1,0,0:0:0:0:
320,192,251140,1,0,0:0:0:0:
64,192,251245,1,0,0:0:0:0:
448,192,251350,1,0,0:0:0:0:
320,192,251350,1,0,0:0:0:0:
192,192,251560,1,0,0:0:0:0:
448,192,251665,1,0,0:0:0:0:
64,192,251665,1,0,0:0:0:0:
192,192,251874,1,0,0:0:0:0:
448,192,251979,1,0,0:0:0:0:
64,192,251979,1,0,0:0:0:0:
320,192,252084,1,0,0:0:0:0:
192,192,252189,1,0,0:0:0:0:
64,192,252189,1,0,0:0:0:0:
448,192,252399,1,0,0:0:0:0:
320,192,252504,1,0,0:0:0:0:
192,192,252504,1,0,0:0:0:0:
448,192,252714,1,0,0:0:0:0:
192,192,252819,1,0,0:0:0:0:
64,192,252819,1,0,0:0:0:0:
320,192,252923,1,0,0:0:0:0:
64,192,253028,1,0,0:0:0:0:
448,192,253028,1,0,0:0:0:0:
320,192,253238,1,0,0:0:0:0:
64,192,253343,1,0,0:0:0:0:
448,192,253343,1,0,0:0:0:0:
320,192,253553,1,0,0:0:0:0:
64,192,253658,1,0,0:0:0:0:
448,192,253658,1,0,0:0:0:0:
192,192,253763,1,0,0:0:0:0:
320,192,253867,1,0,0:0:0:0:
448,192,253867,1,0,0:0:0:0:
64,192,254077,1,0,0:0:0:0:
192,192,254182,1,0,0:0:0:0:
320,192,254182,1,0,0:0:0:0:
64,192,254392,1,0,0:0:0:0:
320,192,254392,1,0,0:0:0:0:
192,192,254497,1,0,0:0:0:0:
448,192,254707,1,0,0:0:0:0:
320,192,254707,1,0,0:0:0:0:
64,192,254916,1,0,0:0:0:0:
320,192,255021,1,0,0:0:0:0:
192,192,255021,1,0,0:0:0:0:
448,192,255231,1,0,0:0:0:0:
192,192,255336,1,0,0:0:0:0:
320,192,255336,1,0,0:0:0:0:
64,192,255546,1,0,0:0:0:0:
448,192,255546,1,0,0:0:0:0:
448,192,255756,1,0,0:0:0:0:
64,192,255860,1,0,0:0:0:0:
192,192,255860,1,0,0:0:0:0:
320,192,256070,1,0,0:0:0:0:
64,192,256175,1,0,0:0:0:0:
192,192,256175,1,0,0:0:0:0:
64,192,256385,1,0,0:0:0:0:
320,192,256385,1,0,0:0:0:0:
448,192,256595,1,0,0:0:0:0:
192,192,256700,1,0,0:0:0:0:
320,192,256700,1,0,0:0:0:0:
64,192,256909,1,0,0:0:0:0:
320,192,257014,1,0,0:0:0:0:
192,192,257014,1,0,0:0:0:0:
448,192,257224,1,0,0:0:0:0:
64,192,257224,1,0,0:0:0:0:
64,192,257434,1,0,0:0:0:0:
448,192,257539,1,0,0:0:0:0:
320,192,257539,1,0,0:0:0:0:
192,192,257749,1,0,0:0:0:0:
448,192,257854,1,0,0:0:0:0:
64,192,257854,1,0,0:0:0:0:
192,192,258063,1,0,0:0:0:0:
320,192,258063,1,0,0:0:0:0:
64,192,258273,1,0,0:0:0:0:
320,192,258378,1,0,0:0:0:0:
448,192,258378,1,0,0:0:0:0:
192,192,258588,1,0,0:0:0:0:
448,192,258693,1,0,0:0:0:0:
320,192,258693,1,0,0:0:0:0:
64,192,258902,1,0,0:0:0:0:
192,192,258902,1,0,0:0:0:0:
448,192,259112,1,0,0:0:0:0:
64,192,259217,1,0,0:0:0:0:
320,192,259217,1,0,0:0:0:0:
320,192,259427,1,0,0:0:0:0:
64,192,259532,1,0,0:0:0:0:
192,192,259532,1,0,0:0:0:0:
320,192,259742,1,0,0:0:0:0:
448,192,259742,1,0,0:0:0:0:
448,192,259951,1,0,0:0:0:0:
192,192,260056,1,0,0:0:0:0:
64,192,260056,1,0,0:0:0:0:
320,192,260266,1,0,0:0:0:0:
64,192,260371,1,0,0:0:0:0:
448,192,260371,1,0,0:0:0:0:
448,192,260581,1,0,0:0:0:0:
192,192,260581,1,0,0:0:0:0:
64,192,260791,1,0,0:0:0:0:
448,192,260895,1,0,0:0:0:0:
320,192,260895,1,0,0:0:0:0:
192,192,261105,1,0,0:0:0:0:
448,192,261210,1,0,0:0:0:0:
64,192,261210,1,0,0:0:0:0:
320,192,261420,1,0,0:0:0:0:
320,192,261735,1,0,0:0:0:0:
448,192,261840,1,0,0:0:0:0:
64,192,261944,1,0,0:0:0:0:
320,192,262049,1,0,0:0:0:0:
192,192,262154,1,0,0:0:0:0:
64,192,262259,1,0,0:0:0:0:
448,192,262259,1,0,0:0:0:0:
320,192,262363,1,0,0:0:0:0:
192,192,262573,1,0,0:0:0:0:
320,192,262573,1,0,0:0:0:0:
320,192,262783,1,0,0:0:0:0:
448,192,262888,1,0,0:0:0:0:
192,192,262888,1,0,0:0:0:0:
64,192,263098,1,0,0:0:0:0:
320,192,263098,1,0,0:0:0:0:
192,192,263203,1,0,0:0:0:0:
448,192,263412,1,0,0:0:0:0:
320,192,263412,1,0,0:0:0:0:
192,192,263937,1,0,0:0:0:0:
320,192,263937,1,0,0:0:0:0:
448,192,264042,1,0,0:0:0:0:
448,192,264252,1,0,0:0:0:0:
64,192,264252,1,0,0:0:0:0:
320,192,264461,1,0,0:0:0:0:
64,192,264566,1,0,0:0:0:0:
192,192,264566,1,0,0:0:0:0:
448,192,264776,1,0,0:0:0:0:
192,192,264776,1,0,0:0:0:0:
320,192,264881,1,0,0:0:0:0:
448,192,265091,1,0,0:0:0:0:
64,192,265091,1,0,0:0:0:0:
192,192,265300,1,0,0:0:0:0:
64,192,265405,1,0,0:0:0:0:
320,192,265405,1,0,0:0:0:0:
448,192,265615,1,0,0:0:0:0:
192,192,265615,1,0,0:0:0:0:
64,192,265720,1,0,0:0:0:0:
448,192,265930,1,0,0:0:0:0:
320,192,265930,1,0,0:0:0:0:
320,192,266140,1,0,0:0:0:0:
64,192,266245,1,0,0:0:0:0:
192,192,266245,1,0,0:0:0:0:
448,192,266454,1,0,0:0:0:0:
320,192,266559,1,0,0:0:0:0:
192,192,266664,1,0,0:0:0:0:
64,192,266769,1,0,0:0:0:0:
192,192,266979,1,0,0:0:0:0:
448,192,267084,1,0,0:0:0:0:
320,192,267084,1,0,0:0:0:0:
192,192,267293,1,0,0:0:0:0:
64,192,267293,1,0,0:0:0:0:
448,192,267398,1,0,0:0:0:0:
192,192,267608,1,0,0:0:0:0:
320,192,267608,1,0,0:0:0:0:
64,192,267818,1,0,0:0:0:0:
448,192,267923,1,0,0:0:0:0:
320,192,267923,1,0,0:0:0:0:
64,192,268133,1,0,0:0:0:0:
192,192,268133,1,0,0:0:0:0:
320,192,268238,1,0,0:0:0:0:
448,192,268447,1,0,0:0:0:0:
320,192,268447,1,0,0:0:0:0:
192,192,268657,1,0,0:0:0:0:
448,192,268657,1,0,0:0:0:0:
64,192,268762,1,0,0:0:0:0:
448,192,268972,1,0,0:0:0:0:
192,192,268972,1,0,0:0:0:0:
320,192,269077,1,0,0:0:0:0:
64,192,269286,1,0,0:0:0:0:
320,192,269286,1,0,0:0:0:0:
320,192,269496,1,0,0:0:0:0:
448,192,269601,1,0,0:0:0:0:
320,192,269706,1,0,0:0:0:0:
448,192,269811,1,0,0:0:0:0:
64,192,269811,1,0,0:0:0:0:
192,192,269916,1,0,0:0:0:0:
192,192,270126,1,0,0:0:0:0:
320,192,270126,1,0,0:0:0:0:
192,192,270335,1,0,0:0:0:0:
448,192,270440,1,0,0:0:0:0:
192,192,270440,1,0,0:0:0:0:
320,192,270650,1,0,0:0:0:0:
64,192,270650,1,0,0:0:0:0:
192,192,270755,1,0,0:0:0:0:
192,192,270965,1,0,0:0:0:0:
448,192,270965,1,0,0:0:0:0:
192,192,271175,1,0,0:0:0:0:
320,192,271279,1,0,0:0:0:0:
192,192,271384,1,0,0:0:0:0:
64,192,271489,1,0,0:0:0:0:
448,192,271489,1,0,0:0:0:0:
320,192,271594,1,0,0:0:0:0:
64,192,271804,1,0,0:0:0:0:
320,192,271804,1,0,0:0:0:0:
320,192,272014,1,0,0:0:0:0:
320,192,272119,1,0,0:0:0:0:
64,192,272119,1,0,0:0:0:0:
64,192,272328,1,0,0:0:0:0:
448,192,272328,1,0,0:0:0:0:
192,192,272433,1,0,0:0:0:0:
320,192,272643,1,0,0:0:0:0:
192,192,272643,1,0,0:0:0:0:
192,192,272853,1,0,0:0:0:0:
448,192,272958,1,0,0:0:0:0:
192,192,273063,1,0,0:0:0:0:
64,192,273168,1,0,0:0:0:0:
320,192,273168,1,0,0:0:0:0:
192,192,273272,1,0,0:0:0:0:
320,192,273377,1,0,0:0:0:0:
64,192,273482,1,0,0:0:0:0:
448,192,273482,1,0,0:0:0:0:
192,192,273692,1,0,0:0:0:0:
64,192,273797,1,0,0:0:0:0:
320,192,273797,1,0,0:0:0:0:
448,192,273902,1,0,0:0:0:0:
64,192,274007,1,0,0:0:0:0:
192,192,274007,1,0,0:0:0:0:
320,192,274112,1,0,0:0:0:0:
448,192,274321,1,0,0:0:0:0:
192,192,274321,1,0,0:0:0:0:
320,192,274531,1,0,0:0:0:0:
192,192,274636,1,0,0:0:0:0:
320,192,274741,1,0,0:0:0:0:
192,192,274846,1,0,0:0:0:0:
64,192,274846,1,0,0:0:0:0:
448,192,274846,1,0,0:0:0:0:
320,192,275056,1,0,0:0:0:0:
64,192,275161,1,0,0:0:0:0:
448,192,275265,1,0,0:0:0:0:
192,192,275370,1,0,0:0:0:0:
320,192,275475,1,0,0:0:0:0:
192,192,275580,1,0,0:0:0:0:
64,192,275685,1,0,0:0:0:0:
448,192,275685,1,0,0:0:0:0:
192,192,276524,1,0,0:0:0:0:
448,192,277363,1,0,0:0:0:0:
64,192,278203,1,0,0:0:0:0:
320,192,279042,1,0,0:0:0:0:
192,192,279881,1,0,0:0:0:0:
448,192,280720,1,0,0:0:0:0:
64,192,281559,1,0,0:0:0:0:
192,192,282398,1,0,0:0:0:0:
192,192,282503,1,0,0:0:0:0:
192,192,282713,1,0,0:0:0:0:
192,192,282923,1,0,0:0:0:0:
192,192,283028,1,0,0:0:0:0:
64,192,283238,1,0,0:0:0:0:
64,192,283342,1,0,0:0:0:0:
64,192,283552,1,0,0:0:0:0:
64,192,283762,1,0,0:0:0:0:
64,192,283867,1,0,0:0:0:0:
192,192,284077,1,0,0:0:0:0:
192,192,284182,1,0,0:0:0:0:
192,192,284391,1,0,0:0:0:0:
192,192,284601,1,0,0:0:0:0:
192,192,284706,1,0,0:0:0:0:
448,192,284916,1,0,0:0:0:0:
448,192,285021,1,0,0:0:0:0:
448,192,285231,1,0,0:0:0:0:
448,192,285440,1,0,0:0:0:0:
448,192,285545,1,0,0:0:0:0:
320,192,285755,1,0,0:0:0:0:
320,192,285860,1,0,0:0:0:0:
320,192,286070,1,0,0:0:0:0:
320,192,286279,1,0,0:0:0:0:
320,192,286384,1,0,0:0:0:0:
64,192,286594,1,0,0:0:0:0:
64,192,286699,1,0,0:0:0:0:
64,192,286909,1,0,0:0:0:0:
64,192,287119,1,0,0:0:0:0:
64,192,287224,1,0,0:0:0:0:
320,192,287433,1,0,0:0:0:0:
320,192,287538,1,0,0:0:0:0:
320,192,287748,1,0,0:0:0:0:
320,192,287958,1,0,0:0:0:0:
320,192,288063,1,0,0:0:0:0:
64,192,288272,1,0,0:0:0:0:
64,192,288377,1,0,0:0:0:0:
64,192,288587,1,0,0:0:0:0:
64,192,288797,1,0,0:0:0:0:
64,192,288902,1,0,0:0:0:0:
320,192,289112,1,0,0:0:0:0:
192,192,289112,1,0,0:0:0:0:
448,192,289217,1,0,0:0:0:0:
192,192,289426,1,0,0:0:0:0:
320,192,289426,1,0,0:0:0:0:
64,192,289636,1,0,0:0:0:0:
192,192,289741,1,0,0:0:0:0:
320,192,289741,1,0,0:0:0:0:
64,192,289951,1,0,0:0:0:0:
448,192,289951,1,0,0:0:0:0:
192,192,290056,1,0,0:0:0:0:
448,192,290265,1,0,0:0:0:0:
64,192,290265,1,0,0:0:0:0:
320,192,290475,1,0,0:0:0:0:
448,192,290580,1,0,0:0:0:0:
64,192,290580,1,0,0:0:0:0:
192,192,290790,1,0,0:0:0:0:
320,192,290790,1,0,0:0:0:0:
64,192,290895,1,0,0:0:0:0:
320,192,291105,1,0,0:0:0:0:
192,192,291105,1,0,0:0:0:0:
448,192,291314,1,0,0:0:0:0:
192,192,291419,1,0,0:0:0:0:
320,192,291419,1,0,0:0:0:0:
320,192,291629,1,0,0:0:0:0:
192,192,291629,1,0,0:0:0:0:
64,192,291734,1,0,0:0:0:0:
192,192,291944,1,0,0:0:0:0:
320,192,291944,1,0,0:0:0:0:
448,192,292154,1,0,0:0:0:0:
192,192,292259,1,0,0:0:0:0:
320,192,292259,1,0,0:0:0:0:
64,192,292468,1,0,0:0:0:0:
448,192,292468,1,0,0:0:0:0:
320,192,292573,1,0,0:0:0:0:
64,192,292783,1,0,0:0:0:0:
448,192,292783,1,0,0:0:0:0:
192,192,292993,1,0,0:0:0:0:
448,192,293098,1,0,0:0:0:0:
64,192,293098,1,0,0:0:0:0:
192,192,293307,1,0,0:0:0:0:
320,192,293307,1,0,0:0:0:0:
448,192,293412,1,0,0:0:0:0:
192,192,293622,1,0,0:0:0:0:
320,192,293622,1,0,0:0:0:0:
64,192,293832,1,0,0:0:0:0:
320,192,293937,1,0,0:0:0:0:
192,192,293937,1,0,0:0:0:0:
64,192,294147,1,0,0:0:0:0:
448,192,294147,1,0,0:0:0:0:
192,192,294252,1,0,0:0:0:0:
448,192,294461,1,0,0:0:0:0:
64,192,294461,1,0,0:0:0:0:
320,192,294671,1,0,0:0:0:0:
448,192,294776,1,0,0:0:0:0:
64,192,294776,1,0,0:0:0:0:
192,192,294986,1,0,0:0:0:0:
320,192,294986,1,0,0:0:0:0:
64,192,295091,1,0,0:0:0:0:
320,192,295300,1,0,0:0:0:0:
192,192,295300,1,0,0:0:0:0:
448,192,295510,1,0,0:0:0:0:
320,192,295615,1,0,0:0:0:0:
192,192,295615,1,0,0:0:0:0:
64,192,295825,1,0,0:0:0:0:
320,192,295825,1,0,0:0:0:0:
448,192,295930,1,0,0:0:0:0:
320,192,296140,1,0,0:0:0:0:
64,192,296140,1,0,0:0:0:0:
192,192,296349,1,0,0:0:0:0:
64,192,296454,1,0,0:0:0:0:
320,192,296454,1,0,0:0:0:0:
448,192,296664,1,0,0:0:0:0:
64,192,296664,1,0,0:0:0:0:
192,192,296769,1,0,0:0:0:0:
64,192,296979,1,0,0:0:0:0:
448,192,296979,1,0,0:0:0:0:
320,192,297189,1,0,0:0:0:0:
448,192,297293,1,0,0:0:0:0:
64,192,297293,1,0,0:0:0:0:
64,192,297503,1,0,0:0:0:0:
320,192,297503,1,0,0:0:0:0:
448,192,297608,1,0,0:0:0:0:
64,192,297818,1,0,0:0:0:0:
320,192,297818,1,0,0:0:0:0:
192,192,298028,1,0,0:0:0:0:
320,192,298133,1,0,0:0:0:0:
64,192,298133,1,0,0:0:0:0:
448,192,298342,1,0,0:0:0:0:
192,192,298342,1,0,0:0:0:0:
64,192,298447,1,0,0:0:0:0:
448,192,298657,1,0,0:0:0:0:
192,192,298657,1,0,0:0:0:0:
320,192,298867,1,0,0:0:0:0:
192,192,298972,1,0,0:0:0:0:
448,192,298972,1,0,0:0:0:0:
448,192,299182,1,0,0:0:0:0:
192,192,299182,1,0,0:0:0:0:
320,192,299286,1,0,0:0:0:0:
192,192,299496,1,0,0:0:0:0:
448,192,299496,1,0,0:0:0:0:
64,192,299706,1,0,0:0:0:0:
192,192,299811,1,0,0:0:0:0:
448,192,299811,1,0,0:0:0:0:
320,192,300021,1,0,0:0:0:0:
192,192,300021,1,0,0:0:0:0:
448,192,300126,1,0,0:0:0:0:
192,192,300335,1,0,0:0:0:0:
320,192,300335,1,0,0:0:0:0:
64,192,300545,1,0,0:0:0:0:
192,192,300650,1,0,0:0:0:0:
320,192,300650,1,0,0:0:0:0:
64,192,300860,1,0,0:0:0:0:
448,192,300860,1,0,0:0:0:0:
192,192,300965,1,0,0:0:0:0:
64,192,301175,1,0,0:0:0:0:
448,192,301175,1,0,0:0:0:0:
320,192,301384,1,0,0:0:0:0:
448,192,301489,1,0,0:0:0:0:
64,192,301489,1,0,0:0:0:0:
320,192,301699,1,0,0:0:0:0:
192,192,301699,1,0,0:0:0:0:
448,192,301804,1,0,0:0:0:0:
64,192,301804,1,0,0:0:0:0:
320,192,301909,1,0,0:0:0:0:
192,192,302014,1,0,0:0:0:0:
64,192,302014,1,0,0:0:0:0:
448,192,302119,1,0,0:0:0:0:
192,192,302224,1,0,0:0:0:0:
320,192,302224,1,0,0:0:0:0:
64,192,302328,1,0,0:0:0:0:
448,192,302328,1,0,0:0:0:0:
192,192,302433,1,0,0:0:0:0:
64,192,302538,1,0,0:0:0:0:
320,192,302643,1,0,0:0:0:0:
320,192,302853,1,0,0:0:0:0:
320,192,303063,1,0,0:0:0:0:
320,192,303168,1,0,0:0:0:0:
64,192,303377,1,0,0:0:0:0:
320,192,303482,1,0,0:0:0:0:
320,192,303692,1,0,0:0:0:0:
320,192,303902,1,0,0:0:0:0:
320,192,304007,1,0,0:0:0:0:
448,192,304217,1,0,0:0:0:0:
320,192,304321,1,0,0:0:0:0:
192,192,304426,1,0,0:0:0:0:
64,192,304531,1,0,0:0:0:0:
448,192,304636,1,0,0:0:0:0:
320,192,304741,1,0,0:0:0:0:
192,192,304846,1,0,0:0:0:0:
64,192,304951,1,0,0:0:0:0:
448,192,305056,1,0,0:0:0:0:
192,192,305161,1,0,0:0:0:0:
320,192,305265,1,0,0:0:0:0:
64,192,305370,1,0,0:0:0:0:
448,192,305475,1,0,0:0:0:0:
448,192,305580,1,0,0:0:0:0:
192,192,305685,1,0,0:0:0:0:
192,192,305790,1,0,0:0:0:0:
64,192,305895,1,0,0:0:0:0:
320,192,306000,1,0,0:0:0:0:
320,192,306210,1,0,0:0:0:0:
320,192,306419,1,0,0:0:0:0:
320,192,306524,1,0,0:0:0:0:
64,192,306734,1,0,0:0:0:0:
320,192,306839,1,0,0:0:0:0:
320,192,307049,1,0,0:0:0:0:
320,192,307259,1,0,0:0:0:0:
320,192,307363,1,0,0:0:0:0:
64,192,307573,1,0,0:0:0:0:
192,192,307678,1,0,0:0:0:0:
320,192,307783,1,0,0:0:0:0:
448,192,307888,1,0,0:0:0:0:
64,192,307993,1,0,0:0:0:0:
192,192,308098,1,0,0:0:0:0:
320,192,308203,1,0,0:0:0:0:
448,192,308307,1,0,0:0:0:0:
64,192,308412,1,0,0:0:0:0:
320,192,308517,1,0,0:0:0:0:
192,192,308622,1,0,0:0:0:0:
448,192,308727,1,0,0:0:0:0:
64,192,308832,1,0,0:0:0:0:
64,192,308937,1,0,0:0:0:0:
320,192,309042,1,0,0:0:0:0:
320,192,309147,1,0,0:0:0:0:
64,192,309252,1,0,0:0:0:0:
448,192,309252,1,0,0:0:0:0:
192,192,309356,1,0,0:0:0:0:
320,192,309566,1,0,0:0:0:0:
192,192,309566,1,0,0:0:0:0:
64,192,309776,1,0,0:0:0:0:
192,192,309881,1,0,0:0:0:0:
320,192,309881,1,0,0:0:0:0:
64,192,310091,1,0,0:0:0:0:
448,192,310091,1,0,0:0:0:0:
192,192,310196,1,0,0:0:0:0:
320,192,310405,1,0,0:0:0:0:
192,192,310405,1,0,0:0:0:0:
448,192,310615,1,0,0:0:0:0:
64,192,310720,1,0,0:0:0:0:
192,192,310720,1,0,0:0:0:0:
448,192,310930,1,0,0:0:0:0:
64,192,310930,1,0,0:0:0:0:
192,192,311035,1,0,0:0:0:0:
320,192,311140,1,0,0:0:0:0:
64,192,311245,1,0,0:0:0:0:
192,192,311245,1,0,0:0:0:0:
448,192,311349,1,0,0:0:0:0:
192,192,311454,1,0,0:0:0:0:
448,192,311559,1,0,0:0:0:0:
320,192,311559,1,0,0:0:0:0:
64,192,311664,1,0,0:0:0:0:
192,192,311769,1,0,0:0:0:0:
448,192,311769,1,0,0:0:0:0:
320,192,311874,1,0,0:0:0:0:
192,192,311979,1,0,0:0:0:0:
64,192,312084,1,0,0:0:0:0:
320,192,312084,1,0,0:0:0:0:
448,192,312189,1,0,0:0:0:0:
192,192,312293,1,0,0:0:0:0:
320,192,312398,1,0,0:0:0:0:
64,192,312398,1,0,0:0:0:0:
192,192,312503,1,0,0:0:0:0:
448,192,312608,1,0,0:0:0:0:
64,192,312608,1,0,0:0:0:0:
192,192,312713,1,0,0:0:0:0:
192,192,312923,1,0,0:0:0:0:
320,192,312923,1,0,0:0:0:0:
64,192,313133,1,0,0:0:0:0:
192,192,313238,1,0,0:0:0:0:
448,192,313238,1,0,0:0:0:0:
320,192,313447,1,0,0:0:0:0:
64,192,313447,1,0,0:0:0:0:
192,192,313552,1,0,0:0:0:0:
448,192,313762,1,0,0:0:0:0:
192,192,313762,1,0,0:0:0:0:
64,192,313972,1,0,0:0:0:0:
192,192,314077,1,0,0:0:0:0:
320,192,314077,1,0,0:0:0:0:
448,192,314286,1,0,0:0:0:0:
64,192,314286,1,0,0:0:0:0:
320,192,314391,1,0,0:0:0:0:
192,192,314496,1,0,0:0:0:0:
320,192,314601,1,0,0:0:0:0:
448,192,314601,1,0,0:0:0:0:
64,192,314706,1,0,0:0:0:0:
320,192,314811,1,0,0:0:0:0:
192,192,314916,1,0,0:0:0:0:
64,192,314916,1,0,0:0:0:0:
448,192,315021,1,0,0:0:0:0:
64,192,315126,1,0,0:0:0:0:
320,192,315126,1,0,0:0:0:0:
192,192,315231,1,0,0:0:0:0:
320,192,315335,1,0,0:0:0:0:
192,192,315440,1,0,0:0:0:0:
448,192,315440,1,0,0:0:0:0:
64,192,315545,1,0,0:0:0:0:
192,192,315650,1,0,0:0:0:0:
448,192,315755,1,0,0:0:0:0:
320,192,315755,1,0,0:0:0:0:
192,192,315860,1,0,0:0:0:0:
320,192,315965,1,0,0:0:0:0:
64,192,315965,1,0,0:0:0:0:
448,192,316070,1,0,0:0:0:0:
64,192,316279,1,0,0:0:0:0:
448,192,316279,1,0,0:0:0:0:
320,192,316594,1,0,0:0:0:0:
192,192,316594,1,0,0:0:0:0:
320,192,316804,1,0,0:0:0:0:
64,192,316804,1,0,0:0:0:0:
448,192,316909,1,0,0:0:0:0:
448,192,317119,1,0,0:0:0:0:
192,192,317119,1,0,0:0:0:0:
320,192,317433,1,0,0:0:0:0:
192,192,317433,1,0,0:0:0:0:
64,192,317643,1,0,0:0:0:0:
192,192,317643,1,0,0:0:0:0:
448,192,317748,1,0,0:0:0:0:
448,192,317958,1,0,0:0:0:0:
320,192,317958,1,0,0:0:0:0:
320,192,318272,1,0,0:0:0:0:
192,192,318272,1,0,0:0:0:0:
64,192,318482,1,0,0:0:0:0:
192,192,318482,1,0,0:0:0:0:
448,192,318587,1,0,0:0:0:0:
192,192,318797,1,0,0:0:0:0:
448,192,318797,1,0,0:0:0:0:
320,192,319007,1,0,0:0:0:0:
64,192,319007,1,0,0:0:0:0:
192,192,319112,1,0,0:0:0:0:
320,192,319217,1,0,0:0:0:0:
448,192,319321,1,0,0:0:0:0:
64,192,319321,1,0,0:0:0:0:
320,192,319426,1,0,0:0:0:0:
192,192,319636,1,0,0:0:0:0:
320,192,319636,1,0,0:0:0:0:
448,192,319951,1,0,0:0:0:0:
192,192,319951,1,0,0:0:0:0:
64,192,320161,1,0,0:0:0:0:
320,192,320161,1,0,0:0:0:0:
448,192,320265,1,0,0:0:0:0:
192,192,320475,1,0,0:0:0:0:
448,192,320475,1,0,0:0:0:0:
320,192,320790,1,0,0:0:0:0:
192,192,320790,1,0,0:0:0:0:
320,192,321000,1,0,0:0:0:0:
64,192,321000,1,0,0:0:0:0:
448,192,321105,1,0,0:0:0:0:
192,192,321314,1,0,0:0:0:0:
448,192,321314,1,0,0:0:0:0:
320,192,321629,1,0,0:0:0:0:
64,192,321629,1,0,0:0:0:0:
448,192,321839,1,0,0:0:0:0:
192,192,321839,1,0,0:0:0:0:
320,192,321944,1,0,0:0:0:0:
320,192,322049,1,0,0:0:0:0:
320,192,322154,1,0,0:0:0:0:
192,192,322154,1,0,0:0:0:0:
192,192,322363,1,0,0:0:0:0:
64,192,322363,1,0,0:0:0:0:
448,192,322468,1,0,0:0:0:0:
320,192,322573,1,0,0:0:0:0:
64,192,322678,1,0,0:0:0:0:
192,192,322678,1,0,0:0:0:0:
448,192,322783,1,0,0:0:0:0:
64,192,322888,1,0,0:0:0:0:
320,192,322993,1,0,0:0:0:0:
192,192,322993,1,0,0:0:0:0:
448,192,323098,1,0,0:0:0:0:
320,192,323203,1,0,0:0:0:0:
448,192,323307,1,0,0:0:0:0:
192,192,323307,1,0,0:0:0:0:
320,192,323412,1,0,0:0:0:0:
448,192,323517,1,0,0:0:0:0:
64,192,323517,1,0,0:0:0:0:
192,192,323622,1,0,0:0:0:0:
320,192,323727,1,0,0:0:0:0:
64,192,323832,1,0,0:0:0:0:
448,192,323832,1,0,0:0:0:0:
192,192,323937,1,0,0:0:0:0:
448,192,324042,1,0,0:0:0:0:
64,192,324147,1,0,0:0:0:0:
192,192,324147,1,0,0:0:0:0:
320,192,324252,1,0,0:0:0:0:
448,192,324356,1,0,0:0:0:0:
192,192,324356,1,0,0:0:0:0:
64,192,324461,1,0,0:0:0:0:
320,192,324566,1,0,0:0:0:0:
192,192,324671,1,0,0:0:0:0:
448,192,324671,1,0,0:0:0:0:
64,192,324776,1,0,0:0:0:0:
320,192,324881,1,0,0:0:0:0:
192,192,324986,1,0,0:0:0:0:
64,192,324986,1,0,0:0:0:0:
448,192,325091,1,0,0:0:0:0:
64,192,325196,1,0,0:0:0:0:
320,192,325196,1,0,0:0:0:0:
192,192,325300,1,0,0:0:0:0:
448,192,325405,1,0,0:0:0:0:
64,192,325510,1,0,0:0:0:0:
320,192,325510,1,0,0:0:0:0:
192,192,325615,1,0,0:0:0:0:
448,192,325720,1,0,0:0:0:0:
192,192,325825,1,0,0:0:0:0:
64,192,325825,1,0,0:0:0:0:
320,192,325930,1,0,0:0:0:0:
192,192,326035,1,0,0:0:0:0:
64,192,326035,1,0,0:0:0:0:
448,192,326140,1,0,0:0:0:0:
64,192,326245,1,0,0:0:0:0:
448,192,326349,1,0,0:0:0:0:
320,192,326349,1,0,0:0:0:0:
192,192,326454,1,0,0:0:0:0:
64,192,326559,1,0,0:0:0:0:
320,192,326664,1,0,0:0:0:0:
448,192,326664,1,0,0:0:0:0:
192,192,326769,1,0,0:0:0:0:
64,192,326874,1,0,0:0:0:0:
448,192,326874,1,0,0:0:0:0:
320,192,326979,1,0,0:0:0:0:
448,192,327084,1,0,0:0:0:0:
192,192,327189,1,0,0:0:0:0:
320,192,327189,1,0,0:0:0:0:
64,192,327293,1,0,0:0:0:0:
192,192,327398,1,0,0:0:0:0:
64,192,327503,1,0,0:0:0:0:
320,192,327503,1,0,0:0:0:0:
448,192,327608,1,0,0:0:0:0:
320,192,327713,1,0,0:0:0:0:
192,192,327713,1,0,0:0:0:0:
64,192,327818,1,0,0:0:0:0:
320,192,327923,1,0,0:0:0:0:
448,192,328028,1,0,0:0:0:0:
192,192,328028,1,0,0:0:0:0:
64,192,328133,1,0,0:0:0:0:
192,192,328238,1,0,0:0:0:0:
64,192,328342,1,0,0:0:0:0:
320,192,328342,1,0,0:0:0:0:
448,192,328447,1,0,0:0:0:0:
192,192,328552,1,0,0:0:0:0:
64,192,328552,1,0,0:0:0:0:
320,192,328657,1,0,0:0:0:0:
192,192,328762,1,0,0:0:0:0:
64,192,328867,1,0,0:0:0:0:
448,192,328867,1,0,0:0:0:0:
64,192,337402,5,0,0:0:0:0:
192,192,337402,1,0,0:0:0:0:
320,192,337402,1,0,0:0:0:0:
192,192,337802,5,0,0:0:0:0:
64,192,337802,1,0,0:0:0:0:
64,192,338202,1,0,0:0:0:0:
192,192,338602,5,0,0:0:0:0:
320,192,338602,1,0,0:0:0:0:
64,192,338602,1,0,0:0:0:0:
448,192,338602,1,0,0:0:0:0:
64,192,338802,1,0,0:0:0:0:
192,192,338902,1,0,0:0:0:0:
64,192,339002,1,0,0:0:0:0:
448,192,339002,1,0,0:0:0:0:
320,192,339002,1,0,0:0:0:0:
320,192,339602,1,0,0:0:0:0:
320,192,339802,1,0,0:0:0:0:
448,192,340402,1,0,0:0:0:0:
192,192,340802,1,0,0:0:0:0:
64,192,341002,1,0,0:0:0:0:
192,192,341202,1,0,0:0:0:0:
64,192,341802,1,0,0:0:0:0:
448,192,341802,1,0,0:0:0:0:
192,192,342002,1,0,0:0:0:0:
448,192,342102,1,0,0:0:0:0:
320,192,342202,1,0,0:0:0:0:
320,192,342802,1,0,0:0:0:0:
320,192,343002,1,0,0:0:0:0:
320,192,343602,1,0,0:0:0:0:
192,192,344002,1,0,0:0:0:0:
320,192,344202,1,0,0:0:0:0:
448,192,344402,1,0,0:0:0:0:
192,192,345002,1,0,0:0:0:0:
320,192,345002,1,0,0:0:0:0:
64,192,345202,1,0,0:0:0:0:
192,192,345302,1,0,0:0:0:0:
320,192,345402,1,0,0:0:0:0:
320,192,346002,1,0,0:0:0:0:
320,192,346202,1,0,0:0:0:0:
448,192,346802,1,0,0:0:0:0:
320,192,347202,1,0,0:0:0:0:
192,192,347402,1,0,0:0:0:0:
320,192,347602,1,0,0:0:0:0:
64,192,348202,1,0,0:0:0:0:
448,192,348202,1,0,0:0:0:0:
192,192,348402,1,0,0:0:0:0:
64,192,348502,1,0,0:0:0:0:
320,192,348602,1,0,0:0:0:0:
320,192,349202,1,0,0:0:0:0:
192,192,349402,1,0,0:0:0:0:
192,192,349702,1,0,0:0:0:0:
448,192,350002,1,0,0:0:0:0:
192,192,350402,1,0,0:0:0:0:
448,192,350802,1,0,0:0:0:0:
64,192,351202,1,0,0:0:0:0:
192,192,351602,1,0,0:0:0:0:
320,192,351702,1,0,0:0:0:0:
448,192,351802,1,0,0:0:0:0:
192,192,351802,1,0,0:0:0:0:
64,192,351802,1,0,0:0:0:0:
320,192,352202,1,0,0:0:0:0:
64,192,352402,1,0,0:0:0:0:
192,192,352502,1,0,0:0:0:0:
448,192,352602,1,0,0:0:0:0:
320,192,352602,1,0,0:0:0:0:
64,192,353002,1,0,0:0:0:0:
320,192,353202,1,0,0:0:0:0:
448,192,353402,1,0,0:0:0:0:
192,192,353402,1,0,0:0:0:0:
320,192,353602,1,0,0:0:0:0:
64,192,353802,1,0,0:0:0:0:
448,192,353802,1,0,0:0:0:0:
320,192,354002,1,0,0:0:0:0:
192,192,354202,1,0,0:0:0:0:
64,192,354602,1,0,0:0:0:0:
448,192,354602,1,0,0:0:0:0:
192,192,354602,1,0,0:0:0:0:
320,192,354802,1,0,0:0:0:0:
192,192,354902,1,0,0:0:0:0:
64,192,355002,1,0,0:0:0:0:
448,192,355002,1,0,0:0:0:0:
192,192,355402,1,0,0:0:0:0:
448,192,355602,1,0,0:0:0:0:
320,192,355702,1,0,0:0:0:0:
192,192,355802,1,0,0:0:0:0:
64,192,355802,1,0,0:0:0:0:
448,192,356202,1,0,0:0:0:0:
64,192,356402,1,0,0:0:0:0:
320,192,356602,1,0,0:0:0:0:
448,192,356602,1,0,0:0:0:0:
192,192,356802,1,0,0:0:0:0:
320,192,357002,1,0,0:0:0:0:
64,192,357002,1,0,0:0:0:0:
448,192,357202,1,0,0:0:0:0:
192,192,357402,1,0,0:0:0:0:
64,192,357602,1,0,0:0:0:0:
192,192,357802,1,0,0:0:0:0:
320,192,357802,1,0,0:0:0:0:
448,192,357802,1,0,0:0:0:0:
448,192,358002,1,0,0:0:0:0:
64,192,358102,1,0,0:0:0:0:
448,192,358202,1,0,0:0:0:0:
192,192,358202,1,0,0:0:0:0:
320,192,358202,1,0,0:0:0:0:
64,192,358602,1,0,0:0:0:0:
448,192,358602,1,0,0:0:0:0:
192,192,358802,1,0,0:0:0:0:
320,192,358902,1,0,0:0:0:0:
192,192,359002,1,0,0:0:0:0:
448,192,359002,1,0,0:0:0:0:
64,192,359002,1,0,0:0:0:0:
192,192,359402,1,0,0:0:0:0:
64,192,359402,1,0,0:0:0:0:
320,192,359602,1,0,0:0:0:0:
448,192,359802,1,0,0:0:0:0:
64,192,359802,1,0,0:0:0:0:
192,192,359802,1,0,0:0:0:0:
320,192,360002,1,0,0:0:0:0:
64,192,360202,1,0,0:0:0:0:
192,192,360202,1,0,0:0:0:0:
448,192,360202,1,0,0:0:0:0:
320,192,360402,1,0,0:0:0:0:
192,192,360602,1,0,0:0:0:0:
448,192,360602,1,0,0:0:0:0:
64,192,361002,1,0,0:0:0:0:
320,192,361002,1,0,0:0:0:0:
192,192,361202,1,0,0:0:0:0:
320,192,361302,1,0,0:0:0:0:
192,192,361402,1,0,0:0:0:0:
448,192,361402,1,0,0:0:0:0:
64,192,361402,1,0,0:0:0:0:
64,192,361602,1,0,0:0:0:0:
320,192,361702,1,0,0:0:0:0:
448,192,361802,1,0,0:0:0:0:
64,192,361802,1,0,0:0:0:0:
192,192,361902,1,0,0:0:0:0:
448,192,362002,1,0,0:0:0:0:
64,192,362202,1,0,0:0:0:0:
192,192,362202,1,0,0:0:0:0:
448,192,362602,1,0,0:0:0:0:
64,192,362602,1,0,0:0:0:0:
192,192,362802,1,0,0:0:0:0:
320,192,362902,1,0,0:0:0:0:
64,192,363002,1,0,0:0:0:0:
448,192,363002,1,0,0:0:0:0:
192,192,363002,1,0,0:0:0:0:
448,192,363202,1,0,0:0:0:0:
192,192,363302,1,0,0:0:0:0:
320,192,363402,1,0,0:0:0:0:
448,192,363402,1,0,0:0:0:0:
64,192,363502,1,0,0:0:0:0:
448,192,363602,1,0,0:0:0:0:
320,192,363652,1,0,0:0:0:0:
192,192,363702,1,0,0:0:0:0:
64,192,363752,1,0,0:0:0:0:
448,192,363802,1,0,0:0:0:0:
320,192,363852,1,0,0:0:0:0:
192,192,363902,1,0,0:0:0:0:
64,192,363952,1,0,0:0:0:0:
448,192,364002,1,0,0:0:0:0:
320,192,364202,1,0,0:0:0:0:
64,192,364202,1,0,0:0:0:0:
192,192,364202,1,0,0:0:0:0:
192,192,364402,1,0,0:0:0:0:
320,192,364402,1,0,0:0:0:0:
448,192,364402,1,0,0:0:0:0:
64,192,364602,1,0,0:0:0:0:
448,192,364602,1,0,0:0:0:0:
320,192,364602,1,0,0:0:0:0:
192,192,364802,1,0,0:0:0:0:
320,192,365002,1,0,0:0:0:0:
448,192,365002,1,0,0:0:0:0:
192,192,365002,1,0,0:0:0:0:
64,192,365202,1,0,0:0:0:0:
448,192,365402,1,0,0:0:0:0:
320,192,365402,1,0,0:0:0:0:
64,192,365402,1,0,0:0:0:0:
192,192,365602,1,0,0:0:0:0:
64,192,365802,1,0,0:0:0:0:
192,192,365802,1,0,0:0:0:0:
320,192,365802,1,0,0:0:0:0:
448,192,366002,1,0,0:0:0:0:
64,192,366202,1,0,0:0:0:0:
192,192,366202,1,0,0:0:0:0:
448,192,366202,1,0,0:0:0:0:
320,192,366402,1,0,0:0:0:0:
448,192,366602,1,0,0:0:0:0:
64,192,366602,1,0,0:0:0:0:
320,192,366602,1,0,0:0:0:0:
448,192,366802,1,0,0:0:0:0:
64,192,367002,1,0,0:0:0:0:
192,192,367002,1,0,0:0:0:0:
320,192,367002,1,0,0:0:0:0:
64,192,367202,1,0,0:0:0:0:
320,192,367302,1,0,0:0:0:0:
448,192,367402,1,0,0:0:0:0:
192,192,367402,1,0,0:0:0:0:
448,192,367602,1,0,0:0:0:0:
192,192,367802,1,0,0:0:0:0:
320,192,367802,1,0,0:0:0:0:
448,192,367802,1,0,0:0:0:0:
64,192,368002,1,0,0:0:0:0:
320,192,368202,1,0,0:0:0:0:
192,192,368202,1,0,0:0:0:0:
64,192,368202,1,0,0:0:0:0:
448,192,368402,1,0,0:0:0:0:
192,192,368602,1,0,0:0:0:0:
64,192,368602,1,0,0:0:0:0:
448,192,368602,1,0,0:0:0:0:
320,192,368802,1,0,0:0:0:0:
64,192,369002,1,0,0:0:0:0:
320,192,369002,1,0,0:0:0:0:
448,192,369002,1,0,0:0:0:0:
448,192,369202,1,0,0:0:0:0:
64,192,369402,1,0,0:0:0:0:
192,192,369402,1,0,0:0:0:0:
320,192,369402,1,0,0:0:0:0:
448,192,369802,1,0,0:0:0:0:
320,192,369852,1,0,0:0:0:0:
192,192,369902,1,0,0:0:0:0:
64,192,370002,1,0,0:0:0:0:
448,192,370102,1,0,0:0:0:0:
320,192,370402,1,0,0:0:0:0:
192,192,370602,1,0,0:0:0:0:
64,192,370702,1,0,0:0:0:0:
320,192,371002,1,0,0:0:0:0:
448,192,371002,1,0,0:0:0:0:
192,192,371202,1,0,0:0:0:0:
64,192,371202,1,0,0:0:0:0:
320,192,371402,1,0,0:0:0:0:
448,192,371402,1,0,0:0:0:0:
64,192,371602,1,0,0:0:0:0:
192,192,371702,1,0,0:0:0:0:
320,192,371802,1,0,0:0:0:0:
448,192,371802,1,0,0:0:0:0:
192,192,372002,1,0,0:0:0:0:
64,192,372002,1,0,0:0:0:0:
320,192,372202,1,0,0:0:0:0:
448,192,372202,1,0,0:0:0:0:
192,192,372402,1,0,0:0:0:0:
64,192,372502,1,0,0:0:0:0:
192,192,372602,1,0,0:0:0:0:
320,192,372602,1,0,0:0:0:0:
64,192,372802,1,0,0:0:0:0:
448,192,372802,1,0,0:0:0:0:
192,192,373002,1,0,0:0:0:0:
320,192,373002,1,0,0:0:0:0:
448,192,373202,1,0,0:0:0:0:
320,192,373302,1,0,0:0:0:0:
192,192,373402,1,0,0:0:0:0:
64,192,373402,1,0,0:0:0:0:
320,192,373602,1,0,0:0:0:0:
448,192,373602,1,0,0:0:0:0:
64,192,373802,1,0,0:0:0:0:
192,192,373802,1,0,0:0:0:0:
320,192,374002,1,0,0:0:0:0:
448,192,374002,1,0,0:0:0:0:
64,192,374202,1,0,0:0:0:0:
320,192,374302,1,0,0:0:0:0:
64,192,374402,1,0,0:0:0:0:
320,192,374502,1,0,0:0:0:0:
192,192,374602,1,0,0:0:0:0:
448,192,374702,1,0,0:0:0:0:
192,192,374802,1,0,0:0:0:0:
448,192,374902,1,0,0:0:0:0:
320,192,375002,1,0,0:0:0:0:
64,192,375102,1,0,0:0:0:0:
320,192,375202,1,0,0:0:0:0:
64,192,375302,1,0,0:0:0:0:
192,192,375402,1,0,0:0:0:0:
448,192,375502,1,0,0:0:0:0:
192,192,375602,1,0,0:0:0:0:
448,192,375702,1,0,0:0:0:0:
320,192,375802,5,0,0:0:0:0:
192,192,375802,1,0,0:0:0:0:
64,192,375802,1,0,0:0:0:0:
64,192,376202,1,0,0:0:0:0:
192,192,376202,1,0,0:0:0:0:
64,192,376602,1,0,0:0:0:0:
64,192,377002,1,0,0:0:0:0:
192,192,377002,1,0,0:0:0:0:
320,192,377002,1,0,0:0:0:0:
448,192,377002,1,0,0:0:0:0:
192,192,377402,1,0,0:0:0:0:
448,192,377402,1,0,0:0:0:0:
64,192,377402,1,0,0:0:0:0:
192,192,377802,1,0,0:0:0:0:
448,192,377802,1,0,0:0:0:0:
320,192,378002,1,0,0:0:0:0:
64,192,378102,1,0,0:0:0:0:
192,192,378202,1,0,0:0:0:0:
448,192,378202,1,0,0:0:0:0:
320,192,378202,1,0,0:0:0:0:
64,192,378402,1,0,0:0:0:0:
192,192,378602,1,0,0:0:0:0:
448,192,378602,1,0,0:0:0:0:
320,192,378602,1,0,0:0:0:0:
64,192,378802,1,0,0:0:0:0:
320,192,378902,1,0,0:0:0:0:
192,192,379002,1,0,0:0:0:0:
448,192,379002,1,0,0:0:0:0:
64,192,379002,1,0,0:0:0:0:
320,192,379202,1,0,0:0:0:0:
192,192,379402,1,0,0:0:0:0:
448,192,379402,1,0,0:0:0:0:
64,192,379402,1,0,0:0:0:0:
448,192,379802,1,0,0:0:0:0:
192,192,379802,1,0,0:0:0:0:
320,192,379802,1,0,0:0:0:0:
448,192,380202,1,0,0:0:0:0:
192,192,380202,1,0,0:0:0:0:
64,192,380202,1,0,0:0:0:0:
320,192,380402,1,0,0:0:0:0:
64,192,380602,1,0,0:0:0:0:
320,192,380602,1,0,0:0:0:0:
448,192,380602,1,0,0:0:0:0:
320,192,381002,1,0,0:0:0:0:
64,192,381002,1,0,0:0:0:0:
448,192,381202,1,0,0:0:0:0:
192,192,381302,1,0,0:0:0:0:
64,192,381402,1,0,0:0:0:0:
320,192,381402,1,0,0:0:0:0:
448,192,381402,1,0,0:0:0:0:
192,192,381602,1,0,0:0:0:0:
320,192,381802,1,0,0:0:0:0:
64,192,381802,1,0,0:0:0:0:
448,192,381802,1,0,0:0:0:0:
192,192,382002,1,0,0:0:0:0:
448,192,382102,1,0,0:0:0:0:
64,192,382202,1,0,0:0:0:0:
320,192,382202,1,0,0:0:0:0:
192,192,382202,1,0,0:0:0:0:
448,192,382402,1,0,0:0:0:0:
320,192,382602,1,0,0:0:0:0:
64,192,382602,1,0,0:0:0:0:
192,192,382602,1,0,0:0:0:0:
448,192,382802,1,0,0:0:0:0:
320,192,383002,1,0,0:0:0:0:
64,192,383002,1,0,0:0:0:0:
448,192,383002,1,0,0:0:0:0:
192,192,383202,1,0,0:0:0:0:
64,192,383302,1,0,0:0:0:0:
320,192,383302,1,0,0:0:0:0:
448,192,383502,1,0,0:0:0:0:
320,192,383602,1,0,0:0:0:0:
64,192,383602,1,0,0:0:0:0:
192,192,383802,1,0,0:0:0:0:
320,192,383802,1,0,0:0:0:0:
64,192,383802,1,0,0:0:0:0:
192,192,384202,1,0,0:0:0:0:
320,192,384202,1,0,0:0:0:0:
448,192,384402,1,0,0:0:0:0:
64,192,384502,1,0,0:0:0:0:
192,192,384602,1,0,0:0:0:0:
320,192,384602,1,0,0:0:0:0:
448,192,384602,1,0,0:0:0:0:
64,192,384802,1,0,0:0:0:0:
320,192,385002,1,0,0:0:0:0:
192,192,385002,1,0,0:0:0:0:
448,192,385002,1,0,0:0:0:0:
64,192,385202,1,0,0:0:0:0:
448,192,385302,1,0,0:0:0:0:
320,192,385402,1,0,0:0:0:0:
192,192,385402,1,0,0:0:0:0:
64,192,385402,1,0,0:0:0:0:
448,192,385602,1,0,0:0:0:0:
192,192,385802,1,0,0:0:0:0:
320,192,385802,1,0,0:0:0:0:
64,192,385802,1,0,0:0:0:0:
192,192,386202,1,0,0:0:0:0:
320,192,386202,1,0,0:0:0:0:
448,192,386202,1,0,0:0:0:0:
320,192,386602,1,0,0:0:0:0:
192,192,386602,1,0,0:0:0:0:
64,192,386602,1,0,0:0:0:0:
64,192,387102,1,0,0:0:0:0:
448,192,387102,1,0,0:0:0:0:
192,192,387202,1,0,0:0:0:0:
320,192,387202,1,0,0:0:0:0:
64,192,387402,1,0,0:0:0:0:
448,192,387402,1,0,0:0:0:0:
320,192,387502,1,0,0:0:0:0:
192,192,387602,1,0,0:0:0:0:
320,192,387702,1,0,0:0:0:0:
64,192,387802,1,0,0:0:0:0:
448,192,387802,1,0,0:0:0:0:
64,192,387935,1,0,0:0:0:0:
448,192,387935,1,0,0:0:0:0:
64,192,388068,1,0,0:0:0:0:
448,192,388068,1,0,0:0:0:0:
320,192,388202,1,0,0:0:0:0:
192,192,388202,1,0,0:0:0:0:
192,192,388468,1,0,0:0:0:0:
320,192,388468,1,0,0:0:0:0:
64,192,388602,1,0,0:0:0:0:
192,192,388602,1,0,0:0:0:0:
320,192,388602,1,0,0:0:0:0:
448,192,388602,1,0,0:0:0:0:
64,192,390202,1,0,0:0:0:0:
320,192,390402,1,0,0:0:0:0:
64,192,390602,1,0,0:0:0:0:
448,192,390602,1,0,0:0:0:0:
448,192,390802,1,0,0:0:0:0:
320,192,390802,1,0,0:0:0:0:
192,192,390902,1,0,0:0:0:0:
64,192,391002,1,0,0:0:0:0:
448,192,391002,1,0,0:0:0:0:
320,192,391002,1,0,0:0:0:0:
192,192,391202,1,0,0:0:0:0:
64,192,391202,1,0,0:0:0:0:
64,192,391402,1,0,0:0:0:0:
448,192,391402,1,0,0:0:0:0:
320,192,391402,1,0,0:0:0:0:
192,192,391602,1,0,0:0:0:0:
320,192,391602,1,0,0:0:0:0:
448,192,391702,1,0,0:0:0:0:
64,192,391802,1,0,0:0:0:0:
192,192,391802,1,0,0:0:0:0:
448,192,392002,1,0,0:0:0:0:
320,192,392002,1,0,0:0:0:0:
64,192,392202,1,0,0:0:0:0:
192,192,392202,1,0,0:0:0:0:
448,192,392202,1,0,0:0:0:0:
320,192,392402,1,0,0:0:0:0:
64,192,392602,1,0,0:0:0:0:
448,192,392602,1,0,0:0:0:0:
192,192,392602,1,0,0:0:0:0:
320,192,392902,1,0,0:0:0:0:
64,192,393002,1,0,0:0:0:0:
192,192,393002,1,0,0:0:0:0:
448,192,393202,1,0,0:0:0:0:
320,192,393202,1,0,0:0:0:0:
192,192,393202,1,0,0:0:0:0:
448,192,393402,1,0,0:0:0:0:
320,192,393502,1,0,0:0:0:0:
64,192,393702,1,0,0:0:0:0:
448,192,393802,1,0,0:0:0:0:
320,192,393802,1,0,0:0:0:0:
64,192,394002,1,0,0:0:0:0:
192,192,394002,1,0,0:0:0:0:
320,192,394102,1,0,0:0:0:0:
448,192,394202,1,0,0:0:0:0:
64,192,394202,1,0,0:0:0:0:
192,192,394202,1,0,0:0:0:0:
320,192,394402,1,0,0:0:0:0:
192,192,394402,1,0,0:0:0:0:
448,192,394602,1,0,0:0:0:0:
64,192,394602,1,0,0:0:0:0:
320,192,394602,1,0,0:0:0:0:
192,192,394802,1,0,0:0:0:0:
64,192,394802,1,0,0:0:0:0:
320,192,394902,1,0,0:0:0:0:
448,192,394902,1,0,0:0:0:0:
192,192,395002,1,0,0:0:0:0:
64,192,395002,1,0,0:0:0:0:
320,192,395202,1,0,0:0:0:0:
448,192,395202,1,0,0:0:0:0:
448,192,395402,1,0,0:0:0:0:
192,192,395402,1,0,0:0:0:0:
64,192,395402,1,0,0:0:0:0:
192,192,395602,1,0,0:0:0:0:
320,192,395802,1,0,0:0:0:0:
64,192,395802,1,0,0:0:0:0:
448,192,395802,1,0,0:0:0:0:
192,192,396002,1,0,0:0:0:0:
320,192,396102,1,0,0:0:0:0:
64,192,396102,1,0,0:0:0:0:
448,192,396102,1,0,0:0:0:0:
448,192,396302,1,0,0:0:0:0:
320,192,396402,1,0,0:0:0:0:
64,192,396402,1,0,0:0:0:0:
192,192,396402,1,0,0:0:0:0:
64,192,396802,1,0,0:0:0:0:
448,192,396802,1,0,0:0:0:0:
64,192,397002,1,0,0:0:0:0:
320,192,397002,1,0,0:0:0:0:
320,192,397202,1,0,0:0:0:0:
448,192,397202,1,0,0:0:0:0:
192,192,397302,1,0,0:0:0:0:
64,192,397302,1,0,0:0:0:0:
320,192,397402,1,0,0:0:0:0:
448,192,397402,1,0,0:0:0:0:
192,192,397602,1,0,0:0:0:0:
320,192,397602,1,0,0:0:0:0:
64,192,397702,1,0,0:0:0:0:
448,192,397802,1,0,0:0:0:0:
192,192,397802,1,0,0:0:0:0:
64,192,398002,1,0,0:0:0:0:
320,192,398002,1,0,0:0:0:0:
448,192,398002,1,0,0:0:0:0:
192,192,398102,1,0,0:0:0:0:
320,192,398302,1,0,0:0:0:0:
192,192,398402,1,0,0:0:0:0:
64,192,398402,1,0,0:0:0:0:
320,192,398502,1,0,0:0:0:0:
448,192,398602,1,0,0:0:0:0:
192,192,398602,1,0,0:0:0:0:
64,192,398802,1,0,0:0:0:0:
192,192,398802,1,0,0:0:0:0:
320,192,398902,1,0,0:0:0:0:
448,192,399002,1,0,0:0:0:0:
64,192,399002,1,0,0:0:0:0:
192,192,399002,1,0,0:0:0:0:
448,192,399202,1,0,0:0:0:0:
64,192,399302,1,0,0:0:0:0:
320,192,399302,1,0,0:0:0:0:
448,192,399402,1,0,0:0:0:0:
192,192,399402,1,0,0:0:0:0:
448,192,399602,1,0,0:0:0:0:
192,192,399602,1,0,0:0:0:0:
320,192,399602,1,0,0:0:0:0:
64,192,399902,1,0,0:0:0:0:
192,192,399902,1,0,0:0:0:0:
320,192,400002,1,0,0:0:0:0:
448,192,400002,1,0,0:0:0:0:
448,192,400202,1,0,0:0:0:0:
320,192,400202,1,0,0:0:0:0:
192,192,400302,1,0,0:0:0:0:
64,192,400302,1,0,0:0:0:0:
448,192,400402,1,0,0:0:0:0:
320,192,400452,1,0,0:0:0:0:
192,192,400502,1,0,0:0:0:0:
64,192,400552,1,0,0:0:0:0:
448,192,400602,1,0,0:0:0:0:
320,192,400602,1,0,0:0:0:0:
64,192,400802,1,0,0:0:0:0:
192,192,400802,1,0,0:0:0:0:
320,192,400902,1,0,0:0:0:0:
448,192,400902,1,0,0:0:0:0:
320,192,401102,1,0,0:0:0:0:
448,192,401102,1,0,0:0:0:0:
192,192,401202,1,0,0:0:0:0:
64,192,401202,1,0,0:0:0:0:
320,192,401402,1,0,0:0:0:0:
320,192,401602,1,0,0:0:0:0:
320,192,401802,1,0,0:0:0:0:
320,192,402002,5,0,0:0:0:0:
448,192,402202,1,0,0:0:0:0:
448,192,402402,1,0,0:0:0:0:
448,192,402602,1,0,0:0:0:0:
448,192,402802,1,0,0:0:0:0:
64,192,403002,5,0,0:0:0:0:
192,192,403002,1,0,0:0:0:0:
320,192,403002,1,0,0:0:0:0:
448,192,403002,1,0,0:0:0:0:
320,192,403602,1,0,0:0:0:0:
320,192,403802,1,0,0:0:0:0:
320,192,404602,1,0,0:0:0:0:
320,192,405202,1,0,0:0:0:0:
320,192,405402,1,0,0:0:0:0:
192,192,405802,1,0,0:0:0:0:
64,192,405902,1,0,0:0:0:0:
192,192,406002,1,0,0:0:0:0:
64,192,406102,1,0,0:0:0:0:
320,192,406202,1,0,0:0:0:0:
320,192,406802,1,0,0:0:0:0:
320,192,407002,1,0,0:0:0:0:
320,192,407802,1,0,0:0:0:0:
320,192,408402,1,0,0:0:0:0:
320,192,408602,1,0,0:0:0:0:
64,192,409402,1,0,0:0:0:0:
448,192,409402,1,0,0:0:0:0:
64,192,409802,1,0,0:0:0:0:
448,192,409802,1,0,0:0:0:0:
64,192,410202,1,0,0:0:0:0:
448,192,410202,1,0,0:0:0:0:
448,192,410602,1,0,0:0:0:0:
64,192,410602,1,0,0:0:0:0:
448,192,411002,1,0,0:0:0:0:
64,192,411002,1,0,0:0:0:0:
64,192,411402,1,0,0:0:0:0:
448,192,411402,1,0,0:0:0:0:
64,192,411802,1,0,0:0:0:0:
448,192,411802,1,0,0:0:0:0:
448,192,412202,1,0,0:0:0:0:
64,192,412202,1,0,0:0:0:0:
192,192,412602,1,0,0:0:0:0:
320,192,412602,1,0,0:0:0:0:
192,192,413002,1,0,0:0:0:0:
320,192,413002,1,0,0:0:0:0:
192,192,413402,1,0,0:0:0:0:
320,192,413402,1,0,0:0:0:0:
320,192,413802,1,0,0:0:0:0:
192,192,413802,1,0,0:0:0:0:
64,192,414202,1,0,0:0:0:0:
192,192,414202,1,0,0:0:0:0:
320,192,414202,1,0,0:0:0:0:
448,192,414202,1,0,0:0:0:0:
448,192,415002,1,0,0:0:0:0:
320,192,415002,1,0,0:0:0:0:
64,192,415302,1,0,0:0:0:0:
192,192,415302,1,0,0:0:0:0:
320,192,415602,1,0,0:0:0:0:
448,192,415602,1,0,0:0:0:0:
64,192,415802,1,0,0:0:0:0:
192,192,415802,1,0,0:0:0:0:
448,192,415802,1,0,0:0:0:0:
448,192,416002,1,0,0:0:0:0:
320,192,416002,1,0,0:0:0:0:
64,192,416202,1,0,0:0:0:0:
320,192,416202,1,0,0:0:0:0:
192,192,416402,1,0,0:0:0:0:
448,192,416402,1,0,0:0:0:0:
448,192,416602,1,0,0:0:0:0:
64,192,416602,1,0,0:0:0:0:
192,192,416802,1,0,0:0:0:0:
320,192,416802,1,0,0:0:0:0:
448,192,417002,1,0,0:0:0:0:
320,192,417002,1,0,0:0:0:0:
192,192,417202,1,0,0:0:0:0:
64,192,417402,1,0,0:0:0:0:
448,192,417402,1,0,0:0:0:0:
320,192,417402,1,0,0:0:0:0:
64,192,417602,1,0,0:0:0:0:
192,192,417602,1,0,0:0:0:0:
448,192,417802,1,0,0:0:0:0:
192,192,417802,1,0,0:0:0:0:
320,192,418002,1,0,0:0:0:0:
64,192,418002,1,0,0:0:0:0:
192,192,418202,1,0,0:0:0:0:
448,192,418202,1,0,0:0:0:0:
320,192,418402,1,0,0:0:0:0:
64,192,418402,1,0,0:0:0:0:
192,192,418602,1,0,0:0:0:0:
64,192,418602,1,0,0:0:0:0:
320,192,418802,1,0,0:0:0:0:
448,192,418802,1,0,0:0:0:0:
64,192,419002,1,0,0:0:0:0:
192,192,419002,1,0,0:0:0:0:
320,192,419002,1,0,0:0:0:0:
64,192,419202,1,0,0:0:0:0:
448,192,419202,1,0,0:0:0:0:
320,192,419402,1,0,0:0:0:0:
192,192,419402,1,0,0:0:0:0:
448,192,419602,1,0,0:0:0:0:
64,192,419602,1,0,0:0:0:0:
320,192,419802,1,0,0:0:0:0:
192,192,419802,1,0,0:0:0:0:
448,192,420002,1,0,0:0:0:0:
64,192,420002,1,0,0:0:0:0:
192,192,420202,1,0,0:0:0:0:
320,192,420202,1,0,0:0:0:0:
448,192,420402,1,0,0:0:0:0:
192,192,420602,1,0,0:0:0:0:
320,192,420602,1,0,0:0:0:0:
64,192,420602,1,0,0:0:0:0:
192,192,420802,1,0,0:0:0:0:
448,192,420802,1,0,0:0:0:0:
320,192,421002,1,0,0:0:0:0:
448,192,421002,1,0,0:0:0:0:
64,192,421302,1,0,0:0:0:0:
192,192,421302,1,0,0:0:0:0:
320,192,421402,1,0,0:0:0:0:
448,192,421402,1,0,0:0:0:0:
192,192,421602,1,0,0:0:0:0:
320,192,421602,1,0,0:0:0:0:
64,192,421802,1,0,0:0:0:0:
448,192,421802,1,0,0:0:0:0:
192,192,421902,1,0,0:0:0:0:
320,192,421902,1,0,0:0:0:0:
192,192,422202,1,0,0:0:0:0:
320,192,422202,1,0,0:0:0:0:
448,192,422202,1,0,0:0:0:0:
64,192,422602,1,0,0:0:0:0:
448,192,422802,1,0,0:0:0:0:
192,192,422902,1,0,0:0:0:0:
64,192,423002,1,0,0:0:0:0:
448,192,423102,1,0,0:0:0:0:
192,192,423202,1,0,0:0:0:0:
64,192,423302,1,0,0:0:0:0:
320,192,423402,1,0,0:0:0:0:
320,192,423602,1,0,0:0:0:0:
64,192,423802,1,0,0:0:0:0:
320,192,423802,1,0,0:0:0:0:
192,192,423802,1,0,0:0:0:0:
64,192,424202,1,0,0:0:0:0:
192,192,424302,5,0,0:0:0:0:
448,192,424402,1,0,0:0:0:0:
64,192,424502,1,0,0:0:0:0:
192,192,424602,1,0,0:0:0:0:
320,192,424702,1,0,0:0:0:0:
448,192,424802,1,0,0:0:0:0:
192,192,425002,1,0,0:0:0:0:
192,192,425202,1,0,0:0:0:0:
64,192,425402,5,0,0:0:0:0:
192,192,425502,1,0,0:0:0:0:
320,192,425602,1,0,0:0:0:0:
448,192,425702,1,0,0:0:0:0:
64,192,425802,1,0,0:0:0:0:
320,192,425902,1,0,0:0:0:0:
192,192,426002,1,0,0:0:0:0:
448,192,426102,1,0,0:0:0:0:
64,192,426202,1,0,0:0:0:0:
192,192,426302,1,0,0:0:0:0:
320,192,426402,1,0,0:0:0:0:
448,192,426502,1,0,0:0:0:0:
64,192,426602,1,0,0:0:0:0:
320,192,426702,1,0,0:0:0:0:
192,192,426802,1,0,0:0:0:0:
448,192,426902,1,0,0:0:0:0:
320,192,427002,1,0,0:0:0:0:
192,192,427002,1,0,0:0:0:0:
64,192,427002,1,0,0:0:0:0:
64,192,427402,1,0,0:0:0:0:
192,192,427402,1,0,0:0:0:0:
64,192,427802,1,0,0:0:0:0:
64,192,428202,1,0,0:0:0:0:
192,192,428202,1,0,0:0:0:0:
320,192,428202,1,0,0:0:0:0:
448,192,428202,1,0,0:0:0:0:
64,192,428602,1,0,0:0:0:0:
192,192,428602,1,0,0:0:0:0:
448,192,428602,1,0,0:0:0:0:
320,192,428802,1,0,0:0:0:0:
448,192,429002,1,0,0:0:0:0:
192,192,429002,1,0,0:0:0:0:
64,192,429002,1,0,0:0:0:0:
64,192,429202,1,0,0:0:0:0:
320,192,429402,1,0,0:0:0:0:
448,192,429402,1,0,0:0:0:0:
192,192,429402,1,0,0:0:0:0:
64,192,429602,1,0,0:0:0:0:
448,192,429802,1,0,0:0:0:0:
320,192,429802,1,0,0:0:0:0:
192,192,429802,1,0,0:0:0:0:
320,192,430002,1,0,0:0:0:0:
192,192,430202,1,0,0:0:0:0:
64,192,430202,1,0,0:0:0:0:
448,192,430202,1,0,0:0:0:0:
320,192,430402,1,0,0:0:0:0:
320,192,430602,1,0,0:0:0:0:
192,192,430602,1,0,0:0:0:0:
64,192,430602,1,0,0:0:0:0:
448,192,430802,1,0,0:0:0:0:
192,192,431002,1,0,0:0:0:0:
64,192,431002,1,0,0:0:0:0:
320,192,431002,1,0,0:0:0:0:
320,192,431202,1,0,0:0:0:0:
448,192,431402,1,0,0:0:0:0:
192,192,431402,1,0,0:0:0:0:
64,192,431402,1,0,0:0:0:0:
192,192,431602,1,0,0:0:0:0:
64,192,431802,1,0,0:0:0:0:
320,192,431802,1,0,0:0:0:0:
448,192,431802,1,0,0:0:0:0:
320,192,432002,1,0,0:0:0:0:
192,192,432202,1,0,0:0:0:0:
64,192,432202,1,0,0:0:0:0:
448,192,432202,1,0,0:0:0:0:
448,192,432402,1,0,0:0:0:0:
320,192,432602,1,0,0:0:0:0:
192,192,432602,1,0,0:0:0:0:
64,192,432602,1,0,0:0:0:0:
192,192,432802,1,0,0:0:0:0:
64,192,433002,1,0,0:0:0:0:
320,192,433002,1,0,0:0:0:0:
448,192,433002,1,0,0:0:0:0:
448,192,433202,1,0,0:0:0:0:
64,192,433402,1,0,0:0:0:0:
192,192,433402,1,0,0:0:0:0:
320,192,433402,1,0,0:0:0:0:
320,192,433602,1,0,0:0:0:0:
448,192,433802,1,0,0:0:0:0:
192,192,433802,1,0,0:0:0:0:
64,192,433802,1,0,0:0:0:0:
192,192,434002,1,0,0:0:0:0:
320,192,434202,1,0,0:0:0:0:
448,192,434202,1,0,0:0:0:0:
64,192,434502,1,0,0:0:0:0:
192,192,434502,1,0,0:0:0:0:
320,192,434802,1,0,0:0:0:0:
448,192,434802,1,0,0:0:0:0:
64,192,435002,1,0,0:0:0:0:
192,192,435002,1,0,0:0:0:0:
320,192,435002,1,0,0:0:0:0:
320,192,435202,1,0,0:0:0:0:
448,192,435202,1,0,0:0:0:0:
192,192,435202,1,0,0:0:0:0:
448,192,435402,1,0,0:0:0:0:
320,192,435402,1,0,0:0:0:0:
64,192,435402,1,0,0:0:0:0:
192,192,435602,1,0,0:0:0:0:
192,192,435802,1,0,0:0:0:0:
448,192,435802,1,0,0:0:0:0:
64,192,435802,1,0,0:0:0:0:
64,192,436002,1,0,0:0:0:0:
320,192,436202,1,0,0:0:0:0:
192,192,436202,1,0,0:0:0:0:
448,192,436202,1,0,0:0:0:0:
192,192,436402,1,0,0:0:0:0:
448,192,436602,1,0,0:0:0:0:
64,192,436602,1,0,0:0:0:0:
320,192,436602,1,0,0:0:0:0:
320,192,436802,1,0,0:0:0:0:
448,192,437002,1,0,0:0:0:0:
192,192,437002,1,0,0:0:0:0:
64,192,437002,1,0,0:0:0:0:
64,192,437202,1,0,0:0:0:0:
320,192,437402,1,0,0:0:0:0:
192,192,437402,1,0,0:0:0:0:
448,192,437402,1,0,0:0:0:0:
192,192,437602,1,0,0:0:0:0:
64,192,437602,1,0,0:0:0:0:
320,192,437602,1,0,0:0:0:0:
64,192,437802,1,0,0:0:0:0:
192,192,437902,1,0,0:0:0:0:
320,192,437902,1,0,0:0:0:0:
448,192,438002,1,0,0:0:0:0:
320,192,438202,1,0,0:0:0:0:
192,192,438202,1,0,0:0:0:0:
448,192,438202,1,0,0:0:0:0:
64,192,438402,1,0,0:0:0:0:
320,192,438502,1,0,0:0:0:0:
64,192,438702,1,0,0:0:0:0:
192,192,438802,1,0,0:0:0:0:
320,192,439002,1,0,0:0:0:0:
448,192,439002,1,0,0:0:0:0:
64,192,439202,1,0,0:0:0:0:
320,192,439302,1,0,0:0:0:0:
448,192,439402,1,0,0:0:0:0:
192,192,439502,1,0,0:0:0:0:
320,192,439602,1,0,0:0:0:0:
448,192,439802,1,0,0:0:0:0:
192,192,440002,1,0,0:0:0:0:
448,192,440102,1,0,0:0:0:0:
192,192,440202,1,0,0:0:0:0:
64,192,440302,1,0,0:0:0:0:
320,192,440402,1,0,0:0:0:0:
192,192,440602,1,0,0:0:0:0:
64,192,440602,1,0,0:0:0:0:
448,192,440702,1,0,0:0:0:0:
320,192,440802,1,0,0:0:0:0:
192,192,440902,1,0,0:0:0:0:
64,192,440902,1,0,0:0:0:0:
448,192,441002,1,0,0:0:0:0:
320,192,441002,1,0,0:0:0:0:
64,192,441202,1,0,0:0:0:0:
448,192,441202,1,0,0:0:0:0:
192,192,441402,1,0,0:0:0:0:
320,192,441402,1,0,0:0:0:0:
64,192,441502,1,0,0:0:0:0:
448,192,441502,1,0,0:0:0:0:
192,192,441602,1,0,0:0:0:0:
320,192,441602,1,0,0:0:0:0:
192,192,441802,1,0,0:0:0:0:
320,192,441802,1,0,0:0:0:0:
448,192,441802,1,0,0:0:0:0:
64,192,442002,1,0,0:0:0:0:
192,192,442052,1,0,0:0:0:0:
320,192,442102,1,0,0:0:0:0:
448,192,442152,1,0,0:0:0:0:
64,192,442202,1,0,0:0:0:0:
192,192,442202,1,0,0:0:0:0:
320,192,442402,1,0,0:0:0:0:
448,192,442402,1,0,0:0:0:0:
192,192,442602,1,0,0:0:0:0:
64,192,442602,1,0,0:0:0:0:
448,192,442602,1,0,0:0:0:0:
320,192,442802,1,0,0:0:0:0:
192,192,442802,1,0,0:0:0:0:
448,192,442802,1,0,0:0:0:0:
320,192,443002,1,0,0:0:0:0:
64,192,443002,1,0,0:0:0:0:
192,192,443002,1,0,0:0:0:0:
192,192,443202,1,0,0:0:0:0:
448,192,443202,1,0,0:0:0:0:
320,192,443402,1,0,0:0:0:0:
448,192,443402,1,0,0:0:0:0:
64,192,443402,1,0,0:0:0:0:
64,192,443602,1,0,0:0:0:0:
192,192,443602,1,0,0:0:0:0:
192,192,443802,1,0,0:0:0:0:
320,192,443802,1,0,0:0:0:0:
448,192,443802,1,0,0:0:0:0:
320,192,444002,1,0,0:0:0:0:
192,192,444102,1,0,0:0:0:0:
64,192,444102,1,0,0:0:0:0:
448,192,444202,1,0,0:0:0:0:
320,192,444202,1,0,0:0:0:0:
320,192,444402,1,0,0:0:0:0:
64,192,444402,1,0,0:0:0:0:
448,192,444402,1,0,0:0:0:0:
192,192,444602,1,0,0:0:0:0:
320,192,444602,1,0,0:0:0:0:
448,192,444602,1,0,0:0:0:0:
64,192,444802,1,0,0:0:0:0:
320,192,444802,1,0,0:0:0:0:
448,192,445002,1,0,0:0:0:0:
320,192,445002,1,0,0:0:0:0:
192,192,445002,1,0,0:0:0:0:
192,192,445202,1,0,0:0:0:0:
64,192,445202,1,0,0:0:0:0:
320,192,445402,1,0,0:0:0:0:
64,192,445402,1,0,0:0:0:0:
448,192,445402,1,0,0:0:0:0:
448,192,445602,1,0,0:0:0:0:
192,192,445602,1,0,0:0:0:0:
64,192,445802,1,0,0:0:0:0:
320,192,445802,1,0,0:0:0:0:
448,192,445802,1,0,0:0:0:0:
320,192,446002,1,0,0:0:0:0:
192,192,446002,1,0,0:0:0:0:
448,192,446202,1,0,0:0:0:0:
64,192,446202,1,0,0:0:0:0:
192,192,446202,1,0,0:0:0:0:
192,192,446402,1,0,0:0:0:0:
320,192,446402,1,0,0:0:0:0:
64,192,446602,1,0,0:0:0:0:
320,192,446602,1,0,0:0:0:0:
448,192,446602,1,0,0:0:0:0:
320,192,446802,1,0,0:0:0:0:
192,192,446802,1,0,0:0:0:0:
192,192,447002,1,0,0:0:0:0:
64,192,447002,1,0,0:0:0:0:
320,192,447002,1,0,0:0:0:0:
448,192,447202,1,0,0:0:0:0:
64,192,447302,1,0,0:0:0:0:
320,192,447402,1,0,0:0:0:0:
64,192,447502,1,0,0:0:0:0:
320,192,447602,1,0,0:0:0:0:
64,192,447702,1,0,0:0:0:0:
320,192,447802,1,0,0:0:0:0:
448,192,447802,1,0,0:0:0:0:
192,192,447802,1,0,0:0:0:0:
64,192,448002,1,0,0:0:0:0:
448,192,448002,1,0,0:0:0:0:
320,192,448202,1,0,0:0:0:0:
192,192,448202,1,0,0:0:0:0:
64,192,448202,1,0,0:0:0:0:
448,192,448402,1,0,0:0:0:0:
320,192,448402,1,0,0:0:0:0:
192,192,448602,1,0,0:0:0:0:
64,192,448602,1,0,0:0:0:0:
448,192,448602,1,0,0:0:0:0:
320,192,448802,1,0,0:0:0:0:
448,192,448802,1,0,0:0:0:0:
64,192,449002,1,0,0:0:0:0:
192,192,449002,1,0,0:0:0:0:
320,192,449002,1,0,0:0:0:0:
448,192,449202,1,0,0:0:0:0:
192,192,449202,1,0,0:0:0:0:
320,192,449402,1,0,0:0:0:0:
64,192,449402,1,0,0:0:0:0:
448,192,449402,1,0,0:0:0:0:
192,192,449602,1,0,0:0:0:0:
320,192,449602,1,0,0:0:0:0:
64,192,449802,1,0,0:0:0:0:
448,192,449802,1,0,0:0:0:0:
192,192,449802,1,0,0:0:0:0:
320,192,450002,1,0,0:0:0:0:
192,192,450002,1,0,0:0:0:0:
448,192,450202,1,0,0:0:0:0:
64,192,450202,1,0,0:0:0:0:
320,192,450202,1,0,0:0:0:0:
64,192,450502,1,0,0:0:0:0:
192,192,450502,1,0,0:0:0:0:
320,192,450502,1,0,0:0:0:0:
448,192,450802,1,0,0:0:0:0:
320,192,450802,1,0,0:0:0:0:
192,192,450802,1,0,0:0:0:0:
64,192,451002,1,0,0:0:0:0:
192,192,451002,1,0,0:0:0:0:
448,192,451002,1,0,0:0:0:0:
192,192,451802,1,0,0:0:0:0:
320,192,452202,1,0,0:0:0:0:
448,192,452202,1,0,0:0:0:0:
64,192,452802,1,0,0:0:0:0:
192,192,452802,1,0,0:0:0:0:
64,192,453002,1,0,0:0:0:0:
192,192,453002,1,0,0:0:0:0:
192,192,453702,1,0,0:0:0:0:
64,192,453702,1,0,0:0:0:0:
64,192,453902,1,0,0:0:0:0:
192,192,453902,1,0,0:0:0:0:
320,192,454002,1,0,0:0:0:0:
448,192,454002,1,0,0:0:0:0:
64,192,454202,1,0,0:0:0:0:
192,192,454202,1,0,0:0:0:0:
192,192,454402,1,0,0:0:0:0:
320,192,454402,1,0,0:0:0:0:
64,192,454602,1,0,0:0:0:0:
448,192,454602,1,0,0:0:0:0:
320,192,454802,1,0,0:0:0:0:
192,192,454802,1,0,0:0:0:0:
448,192,455002,1,0,0:0:0:0:
320,192,455002,1,0,0:0:0:0:
64,192,455202,1,0,0:0:0:0:
192,192,455202,1,0,0:0:0:0:
320,192,455402,1,0,0:0:0:0:
448,192,455402,1,0,0:0:0:0:
192,192,455602,1,0,0:0:0:0:
320,192,455602,1,0,0:0:0:0:
64,192,455802,1,0,0:0:0:0:
192,192,455802,1,0,0:0:0:0:
320,192,456002,1,0,0:0:0:0:
448,192,456002,1,0,0:0:0:0:
192,192,456202,1,0,0:0:0:0:
320,192,456202,1,0,0:0:0:0:
64,192,456402,1,0,0:0:0:0:
448,192,456402,1,0,0:0:0:0:
192,192,456602,1,0,0:0:0:0:
448,192,456602,1,0,0:0:0:0:
320,192,456802,1,0,0:0:0:0:
192,192,456802,1,0,0:0:0:0:
64,192,457002,1,0,0:0:0:0:
320,192,457002,1,0,0:0:0:0:
192,192,457202,1,0,0:0:0:0:
448,192,457202,1,0,0:0:0:0:
64,192,457402,1,0,0:0:0:0:
192,192,457502,1,0,0:0:0:0:
320,192,457602,1,0,0:0:0:0:
448,192,457702,1,0,0:0:0:0:
64,192,457802,1,0,0:0:0:0:
192,192,457902,1,0,0:0:0:0:
320,192,458002,1,0,0:0:0:0:
448,192,458102,1,0,0:0:0:0:
64,192,458202,1,0,0:0:0:0:
192,192,458302,1,0,0:0:0:0:
320,192,458402,1,0,0:0:0:0:
448,192,458502,1,0,0:0:0:0:
64,192,458602,1,0,0:0:0:0:
192,192,458702,1,0,0:0:0:0:
320,192,458802,1,0,0:0:0:0:
448,192,458902,1,0,0:0:0:0:
64,192,459002,1,0,0:0:0:0:
192,192,459002,1,0,0:0:0:0:
320,192,459002,1,0,0:0:0:0:
448,192,460602,5,0,0:0:0:0:
192,192,460602,1,0,0:0:0:0:
320,192,460602,1,0,0:0:0:0:
64,192,461402,1,0,0:0:0:0:
192,192,461402,1,0,0:0:0:0:
320,192,461402,1,0,0:0:0:0:
448,192,461602,1,0,0:0:0:0:
320,192,461702,1,0,0:0:0:0:
448,192,461802,1,0,0:0:0:0:
192,192,461802,1,0,0:0:0:0:
64,192,461802,1,0,0:0:0:0:
320,192,462202,1,0,0:0:0:0:
192,192,462402,1,0,0:0:0:0:
64,192,462502,1,0,0:0:0:0:
192,192,462602,1,0,0:0:0:0:
320,192,462602,1,0,0:0:0:0:
448,192,462602,1,0,0:0:0:0:
64,192,462702,1,0,0:0:0:0:
320,192,462802,1,0,0:0:0:0:
448,192,462902,1,0,0:0:0:0:
64,192,463002,1,0,0:0:0:0:
192,192,463002,1,0,0:0:0:0:
320,192,463002,1,0,0:0:0:0:
448,192,463202,1,0,0:0:0:0:
320,192,463302,1,0,0:0:0:0:
192,192,463402,1,0,0:0:0:0:
64,192,463502,1,0,0:0:0:0:
192,192,463602,1,0,0:0:0:0:
320,192,463702,1,0,0:0:0:0:
192,192,463802,1,0,0:0:0:0:
64,192,463802,1,0,0:0:0:0:
448,192,463802,1,0,0:0:0:0:
64,192,464602,1,0,0:0:0:0:
320,192,464602,1,0,0:0:0:0:
448,192,464602,1,0,0:0:0:0:
192,192,464802,1,0,0:0:0:0:
320,192,464902,1,0,0:0:0:0:
64,192,465002,1,0,0:0:0:0:
192,192,465002,1,0,0:0:0:0:
448,192,465002,1,0,0:0:0:0:
320,192,465102,1,0,0:0:0:0:
64,192,465202,1,0,0:0:0:0:
448,192,465402,1,0,0:0:0:0:
192,192,465602,1,0,0:0:0:0:
64,192,465702,1,0,0:0:0:0:
192,192,465802,1,0,0:0:0:0:
320,192,465802,1,0,0:0:0:0:
448,192,465802,1,0,0:0:0:0:
64,192,465902,1,0,0:0:0:0:
320,192,466002,1,0,0:0:0:0:
448,192,466102,1,0,0:0:0:0:
64,192,466202,1,0,0:0:0:0:
320,192,466202,1,0,0:0:0:0:
192,192,466202,1,0,0:0:0:0:
448,192,466402,1,0,0:0:0:0:
320,192,466402,1,0,0:0:0:0:
192,192,466602,1,0,0:0:0:0:
320,192,466602,1,0,0:0:0:0:
64,192,466602,1,0,0:0:0:0:
448,192,466602,1,0,0:0:0:0:
192,192,467002,1,0,0:0:0:0:
320,192,467002,1,0,0:0:0:0:
448,192,467002,1,0,0:0:0:0:
64,192,467802,1,0,0:0:0:0:
192,192,467802,1,0,0:0:0:0:
320,192,467802,1,0,0:0:0:0:
448,192,467902,1,0,0:0:0:0:
192,192,468002,1,0,0:0:0:0:
64,192,468102,1,0,0:0:0:0:
192,192,468202,1,0,0:0:0:0:
320,192,468202,1,0,0:0:0:0:
448,192,468202,1,0,0:0:0:0:
64,192,468602,1,0,0:0:0:0:
320,192,468802,1,0,0:0:0:0:
192,192,468902,1,0,0:0:0:0:
64,192,469002,1,0,0:0:0:0:
320,192,469002,1,0,0:0:0:0:
448,192,469002,1,0,0:0:0:0:
192,192,469102,1,0,0:0:0:0:
448,192,469202,1,0,0:0:0:0:
320,192,469302,1,0,0:0:0:0:
64,192,469402,1,0,0:0:0:0:
192,192,469402,1,0,0:0:0:0:
448,192,469402,1,0,0:0:0:0:
320,192,469602,1,0,0:0:0:0:
192,192,469702,1,0,0:0:0:0:
64,192,469802,1,0,0:0:0:0:
448,192,469902,1,0,0:0:0:0:
64,192,470002,1,0,0:0:0:0:
320,192,470202,1,0,0:0:0:0:
192,192,470202,1,0,0:0:0:0:
448,192,470202,1,0,0:0:0:0:
64,192,471002,1,0,0:0:0:0:
192,192,471002,1,0,0:0:0:0:
320,192,471002,1,0,0:0:0:0:
192,192,471202,1,0,0:0:0:0:
64,192,471302,1,0,0:0:0:0:
192,192,471402,1,0,0:0:0:0:
448,192,471402,1,0,0:0:0:0:
320,192,471402,1,0,0:0:0:0:
64,192,471602,1,0,0:0:0:0:
192,192,471602,1,0,0:0:0:0:
320,192,471702,1,0,0:0:0:0:
448,192,471702,1,0,0:0:0:0:
192,192,471802,1,0,0:0:0:0:
64,192,471802,1,0,0:0:0:0:
192,192,472102,1,0,0:0:0:0:
320,192,472102,1,0,0:0:0:0:
320,192,472402,5,0,0:0:0:0:
448,192,472402,1,0,0:0:0:0:
64,192,472602,1,0,0:0:0:0:
192,192,472602,1,0,0:0:0:0:
320,192,472602,1,0,0:0:0:0:
192,192,473002,1,0,0:0:0:0:
320,192,473002,1,0,0:0:0:0:
448,192,473002,1,0,0:0:0:0:
192,192,473402,5,0,0:0:0:0:
320,192,473402,1,0,0:0:0:0:
64,192,473402,1,0,0:0:0:0:
448,192,473402,1,0,0:0:0:0:
