osu file format v14

[General]
AudioFilename: course 1.mp3
AudioLeadIn: 1000
PreviewTime: 467010
Countdown: 0
SampleSet: Soft
StackLeniency: 0.7
Mode: 3
LetterboxInBreaks: 0
SpecialStyle: 0
WidescreenStoryboard: 0

[Editor]
DistanceSpacing: 1
BeatDivisor: 2
GridSize: 4
TimelineZoom: 1.7

[Metadata]
Title:4K Rice Course /Section 000000/
TitleUnicode:4K Rice Course /Section 000000/
Artist:Rice Certification inc.
ArtistUnicode:Rice Certification inc.
Creator:Ryu Sei
Version:Grade 1
Source:not osu!
Tags:banshi ばんし ginkiha Fading_Star(banshi-Remix) nomico Maple_Wizen mili Utopiosphere yak_won Lucid
BeatmapID:1762581
BeatmapSetID:842340

[Difficulty]
HPDrainRate:7
CircleSize:4
OverallDifficulty:10
ApproachRate:5
SliderMultiplier:1.4
SliderTickRate:1

[Events]
//Background and Video events
0,0,"misplaced shadow.jpg",0,0
//Break Periods
2,154038,162632
2,287460,296065
2,422748,431525
//Storyboard Layer 0 (Background)
//Storyboard Layer 1 (Fail)
//Storyboard Layer 2 (Pass)
//Storyboard Layer 3 (Foreground)
//Storyboard Sound Samples

[TimingPoints]
-8,512.820512820513,4,2,1,9,1,0
163832,428.571428571429,4,2,1,9,1,0
163832,-119.65811965812,4,2,1,9,0,0
297265,340.909090909091,4,2,1,9,1,0
297265,-150.42735042735,4,2,1,9,0,0
343628,340.909090909091,3,2,1,9,1,0
343628,-150.42735042735,3,2,1,9,0,0
368173,340.909090909091,4,2,1,9,1,0
368173,-150.42735042735,4,2,1,9,0,0
432725,342.857142857143,4,2,1,9,1,0
432725,-149.57264957265,4,2,1,9,0,0

[HitObjects]
64,192,2043,5,0,0:0:0:0:
448,192,2043,1,0,0:0:0:0:
320,192,2427,1,0,0:0:0:0:
192,192,2812,1,0,0:0:0:0:
64,192,3197,1,0,0:0:0:0:
320,192,3581,1,0,0:0:0:0:
64,192,3838,1,0,0:0:0:0:
192,192,3966,1,0,0:0:0:0:
448,192,4094,1,0,0:0:0:0:
64,192,4479,1,0,0:0:0:0:
320,192,4863,1,0,0:0:0:0:
448,192,5248,1,0,0:0:0:0:
320,192,5633,1,0,0:0:0:0:
192,192,5889,1,0,0:0:0:0:
64,192,6145,1,0,0:0:0:0:
448,192,6530,1,0,0:0:0:0:
320,192,6915,1,0,0:0:0:0:
192,192,7299,1,0,0:0:0:0:
64,192,7684,1,0,0:0:0:0:
192,192,7940,1,0,0:0:0:0:
320,192,8068,1,0,0:0:0:0:
448,192,8197,1,0,0:0:0:0:
64,192,8581,1,0,0:0:0:0:
320,192,8966,1,0,0:0:0:0:
448,192,9350,1,0,0:0:0:0:
320,192,9735,1,0,0:0:0:0:
192,192,9992,1,0,0:0:0:0:
64,192,10248,5,0,0:0:0:0:
320,192,10633,1,0,0:0:0:0:
192,192,11017,1,0,0:0:0:0:
64,192,11402,1,0,0:0:0:0:
320,192,11786,1,0,0:0:0:0:
64,192,12043,1,0,0:0:0:0:
192,192,12171,1,0,0:0:0:0:
448,192,12299,1,0,0:0:0:0:
64,192,12684,1,0,0:0:0:0:
320,192,13068,1,0,0:0:0:0:
448,192,13453,1,0,0:0:0:0:
320,192,13838,1,0,0:0:0:0:
192,192,14094,1,0,0:0:0:0:
64,192,14350,1,0,0:0:0:0:
448,192,14735,1,0,0:0:0:0:
320,192,15120,1,0,0:0:0:0:
192,192,15504,1,0,0:0:0:0:
64,192,15889,1,0,0:0:0:0:
192,192,16145,1,0,0:0:0:0:
320,192,16274,1,0,0:0:0:0:
448,192,16402,1,0,0:0:0:0:
64,192,16786,1,0,0:0:0:0:
320,192,17171,1,0,0:0:0:0:
448,192,17556,1,0,0:0:0:0:
320,192,17940,1,0,0:0:0:0:
192,192,18197,1,0,0:0:0:0:
64,192,18453,5,0,0:0:0:0:
448,192,18453,1,0,0:0:0:0:
320,192,18453,1,0,0:0:0:0:
320,192,18838,1,0,0:0:0:0:
448,192,18966,1,0,0:0:0:0:
192,192,19222,1,0,0:0:0:0:
448,192,19479,1,0,0:0:0:0:
64,192,19607,1,0,0:0:0:0:
320,192,19992,1,0,0:0:0:0:
448,192,19992,1,0,0:0:0:0:
64,192,20248,1,0,0:0:0:0:
192,192,20376,1,0,0:0:0:0:
448,192,20504,1,0,0:0:0:0:
320,192,20504,1,0,0:0:0:0:
64,192,20889,1,0,0:0:0:0:
192,192,21017,1,0,0:0:0:0:
320,192,21274,1,0,0:0:0:0:
64,192,21530,1,0,0:0:0:0:
448,192,21658,1,0,0:0:0:0:
320,192,22043,1,0,0:0:0:0:
64,192,22043,1,0,0:0:0:0:
192,192,22299,1,0,0:0:0:0:
64,192,22556,1,0,0:0:0:0:
448,192,22556,1,0,0:0:0:0:
448,192,22940,1,0,0:0:0:0:
192,192,23068,1,0,0:0:0:0:
320,192,23325,1,0,0:0:0:0:
64,192,23581,1,0,0:0:0:0:
192,192,23709,1,0,0:0:0:0:
64,192,24094,1,0,0:0:0:0:
448,192,24094,1,0,0:0:0:0:
192,192,24350,1,0,0:0:0:0:
320,192,24479,1,0,0:0:0:0:
448,192,24607,1,0,0:0:0:0:
64,192,24607,1,0,0:0:0:0:
64,192,24992,1,0,0:0:0:0:
448,192,25120,1,0,0:0:0:0:
320,192,25376,1,0,0:0:0:0:
192,192,25633,1,0,0:0:0:0:
448,192,25761,1,0,0:0:0:0:
320,192,26145,1,0,0:0:0:0:
64,192,26145,1,0,0:0:0:0:
192,192,26402,1,0,0:0:0:0:
64,192,26658,5,0,0:0:0:0:
448,192,26658,1,0,0:0:0:0:
320,192,26658,1,0,0:0:0:0:
320,192,27043,1,0,0:0:0:0:
448,192,27171,1,0,0:0:0:0:
192,192,27427,1,0,0:0:0:0:
320,192,27684,1,0,0:0:0:0:
64,192,27812,1,0,0:0:0:0:
320,192,28197,1,0,0:0:0:0:
448,192,28197,1,0,0:0:0:0:
64,192,28453,1,0,0:0:0:0:
192,192,28581,1,0,0:0:0:0:
448,192,28709,1,0,0:0:0:0:
320,192,28709,1,0,0:0:0:0:
64,192,29094,1,0,0:0:0:0:
192,192,29222,1,0,0:0:0:0:
320,192,29479,1,0,0:0:0:0:
64,192,29735,1,0,0:0:0:0:
448,192,29863,1,0,0:0:0:0:
320,192,30248,1,0,0:0:0:0:
64,192,30248,1,0,0:0:0:0:
192,192,30504,1,0,0:0:0:0:
64,192,30761,1,0,0:0:0:0:
320,192,30761,1,0,0:0:0:0:
448,192,31145,1,0,0:0:0:0:
192,192,31274,1,0,0:0:0:0:
320,192,31530,1,0,0:0:0:0:
64,192,31786,1,0,0:0:0:0:
192,192,31915,1,0,0:0:0:0:
64,192,32299,1,0,0:0:0:0:
448,192,32299,1,0,0:0:0:0:
192,192,32556,1,0,0:0:0:0:
320,192,32684,1,0,0:0:0:0:
448,192,32812,1,0,0:0:0:0:
64,192,32812,1,0,0:0:0:0:
64,192,33197,1,0,0:0:0:0:
448,192,33325,1,0,0:0:0:0:
320,192,33581,1,0,0:0:0:0:
192,192,33838,1,0,0:0:0:0:
448,192,33966,1,0,0:0:0:0:
320,192,34350,1,0,0:0:0:0:
64,192,34350,1,0,0:0:0:0:
192,192,34607,1,0,0:0:0:0:
64,192,34863,5,0,0:0:0:0:
448,192,34863,1,0,0:0:0:0:
320,192,34863,1,0,0:0:0:0:
320,192,35248,1,0,0:0:0:0:
64,192,35376,1,0,0:0:0:0:
192,192,35633,1,0,0:0:0:0:
448,192,35889,1,0,0:0:0:0:
64,192,36017,1,0,0:0:0:0:
320,192,36402,1,0,0:0:0:0:
192,192,36402,1,0,0:0:0:0:
64,192,36658,1,0,0:0:0:0:
192,192,36786,1,0,0:0:0:0:
448,192,36915,1,0,0:0:0:0:
320,192,36915,1,0,0:0:0:0:
64,192,37299,1,0,0:0:0:0:
448,192,37427,1,0,0:0:0:0:
320,192,37684,1,0,0:0:0:0:
64,192,37940,1,0,0:0:0:0:
448,192,38068,1,0,0:0:0:0:
320,192,38453,1,0,0:0:0:0:
64,192,38453,1,0,0:0:0:0:
192,192,38709,1,0,0:0:0:0:
64,192,38966,1,0,0:0:0:0:
320,192,38966,1,0,0:0:0:0:
448,192,39350,1,0,0:0:0:0:
64,192,39479,1,0,0:0:0:0:
320,192,39735,1,0,0:0:0:0:
448,192,39992,1,0,0:0:0:0:
192,192,40120,1,0,0:0:0:0:
64,192,40504,1,0,0:0:0:0:
320,192,40504,1,0,0:0:0:0:
192,192,40761,1,0,0:0:0:0:
320,192,40889,1,0,0:0:0:0:
448,192,41017,1,0,0:0:0:0:
64,192,41017,1,0,0:0:0:0:
64,192,41402,1,0,0:0:0:0:
448,192,41530,1,0,0:0:0:0:
320,192,41786,1,0,0:0:0:0:
192,192,42043,1,0,0:0:0:0:
448,192,42171,1,0,0:0:0:0:
320,192,42556,1,0,0:0:0:0:
64,192,42556,1,0,0:0:0:0:
192,192,42812,1,0,0:0:0:0:
64,192,43068,5,0,0:0:0:0:
448,192,43068,1,0,0:0:0:0:
320,192,43453,1,0,0:0:0:0:
448,192,43581,1,0,0:0:0:0:
192,192,43838,1,0,0:0:0:0:
320,192,44094,1,0,0:0:0:0:
64,192,44222,1,0,0:0:0:0:
320,192,44607,1,0,0:0:0:0:
448,192,44607,1,0,0:0:0:0:
64,192,44863,1,0,0:0:0:0:
192,192,44992,1,0,0:0:0:0:
448,192,45120,1,0,0:0:0:0:
320,192,45120,1,0,0:0:0:0:
64,192,45504,1,0,0:0:0:0:
192,192,45633,1,0,0:0:0:0:
320,192,45889,1,0,0:0:0:0:
64,192,46145,1,0,0:0:0:0:
448,192,46274,1,0,0:0:0:0:
320,192,46658,1,0,0:0:0:0:
64,192,46658,1,0,0:0:0:0:
192,192,46915,1,0,0:0:0:0:
64,192,47171,1,0,0:0:0:0:
448,192,47171,1,0,0:0:0:0:
448,192,47556,1,0,0:0:0:0:
192,192,47684,1,0,0:0:0:0:
320,192,47940,1,0,0:0:0:0:
64,192,48197,1,0,0:0:0:0:
192,192,48325,1,0,0:0:0:0:
64,192,48709,1,0,0:0:0:0:
448,192,48709,1,0,0:0:0:0:
192,192,48966,1,0,0:0:0:0:
320,192,49094,1,0,0:0:0:0:
448,192,49222,1,0,0:0:0:0:
64,192,49607,1,0,0:0:0:0:
192,192,49735,1,0,0:0:0:0:
320,192,49992,1,0,0:0:0:0:
64,192,50248,1,0,0:0:0:0:
448,192,50376,1,0,0:0:0:0:
320,192,50761,1,0,0:0:0:0:
64,192,50761,1,0,0:0:0:0:
192,192,51017,1,0,0:0:0:0:
448,192,51274,1,0,0:0:0:0:
64,192,51274,1,0,0:0:0:0:
192,192,51530,1,0,0:0:0:0:
64,192,51786,1,0,0:0:0:0:
448,192,51915,1,0,0:0:0:0:
64,192,52299,1,0,0:0:0:0:
320,192,52299,1,0,0:0:0:0:
192,192,52684,1,0,0:0:0:0:
64,192,52812,1,0,0:0:0:0:
320,192,53068,1,0,0:0:0:0:
64,192,53325,1,0,0:0:0:0:
320,192,53581,1,0,0:0:0:0:
64,192,53838,1,0,0:0:0:0:
320,192,53966,1,0,0:0:0:0:
64,192,54350,1,0,0:0:0:0:
320,192,54350,1,0,0:0:0:0:
320,192,54735,1,0,0:0:0:0:
64,192,54863,1,0,0:0:0:0:
320,192,55120,1,0,0:0:0:0:
448,192,55376,1,0,0:0:0:0:
64,192,55633,1,0,0:0:0:0:
448,192,55889,1,0,0:0:0:0:
320,192,56017,1,0,0:0:0:0:
448,192,56402,1,0,0:0:0:0:
192,192,56402,1,0,0:0:0:0:
64,192,56786,1,0,0:0:0:0:
448,192,56915,1,0,0:0:0:0:
192,192,57171,1,0,0:0:0:0:
448,192,57427,1,0,0:0:0:0:
320,192,57684,1,0,0:0:0:0:
448,192,57940,1,0,0:0:0:0:
192,192,58068,1,0,0:0:0:0:
448,192,58453,1,0,0:0:0:0:
64,192,58453,1,0,0:0:0:0:
320,192,58838,1,0,0:0:0:0:
448,192,58966,1,0,0:0:0:0:
64,192,59222,1,0,0:0:0:0:
320,192,59479,1,0,0:0:0:0:
64,192,59735,1,0,0:0:0:0:
448,192,59735,1,0,0:0:0:0:
448,192,59992,1,0,0:0:0:0:
320,192,60120,1,0,0:0:0:0:
64,192,60120,1,0,0:0:0:0:
448,192,60248,1,0,0:0:0:0:
192,192,60504,1,0,0:0:0:0:
320,192,60504,1,0,0:0:0:0:
448,192,60761,1,0,0:0:0:0:
64,192,60889,1,0,0:0:0:0:
320,192,60889,1,0,0:0:0:0:
448,192,61017,1,0,0:0:0:0:
192,192,61274,1,0,0:0:0:0:
320,192,61274,1,0,0:0:0:0:
192,192,61786,1,0,0:0:0:0:
448,192,61786,1,0,0:0:0:0:
64,192,62043,1,0,0:0:0:0:
192,192,62171,1,0,0:0:0:0:
320,192,62171,1,0,0:0:0:0:
64,192,62299,1,0,0:0:0:0:
192,192,62556,1,0,0:0:0:0:
448,192,62556,1,0,0:0:0:0:
320,192,62812,1,0,0:0:0:0:
192,192,62940,1,0,0:0:0:0:
64,192,62940,1,0,0:0:0:0:
320,192,63068,1,0,0:0:0:0:
192,192,63325,1,0,0:0:0:0:
448,192,63325,1,0,0:0:0:0:
448,192,63838,1,0,0:0:0:0:
64,192,63838,1,0,0:0:0:0:
64,192,64094,1,0,0:0:0:0:
192,192,64222,1,0,0:0:0:0:
448,192,64222,1,0,0:0:0:0:
64,192,64350,1,0,0:0:0:0:
320,192,64607,1,0,0:0:0:0:
192,192,64607,1,0,0:0:0:0:
64,192,64863,1,0,0:0:0:0:
448,192,64992,1,0,0:0:0:0:
192,192,64992,1,0,0:0:0:0:
64,192,65120,1,0,0:0:0:0:
320,192,65376,1,0,0:0:0:0:
192,192,65376,1,0,0:0:0:0:
192,192,65889,1,0,0:0:0:0:
64,192,65889,1,0,0:0:0:0:
448,192,66145,1,0,0:0:0:0:
320,192,66274,1,0,0:0:0:0:
192,192,66274,1,0,0:0:0:0:
64,192,66402,1,0,0:0:0:0:
448,192,66658,1,0,0:0:0:0:
320,192,66658,1,0,0:0:0:0:
192,192,66915,1,0,0:0:0:0:
320,192,67043,1,0,0:0:0:0:
448,192,67043,1,0,0:0:0:0:
192,192,67171,1,0,0:0:0:0:
320,192,67427,1,0,0:0:0:0:
64,192,67427,1,0,0:0:0:0:
448,192,67684,1,0,0:0:0:0:
192,192,67684,1,0,0:0:0:0:
64,192,68068,1,0,0:0:0:0:
320,192,68197,1,0,0:0:0:0:
64,192,68453,1,0,0:0:0:0:
320,192,68966,1,0,0:0:0:0:
64,192,69222,1,0,0:0:0:0:
448,192,69222,1,0,0:0:0:0:
64,192,69735,1,0,0:0:0:0:
320,192,69735,1,0,0:0:0:0:
192,192,69992,1,0,0:0:0:0:
448,192,70248,1,0,0:0:0:0:
320,192,70248,1,0,0:0:0:0:
192,192,70504,1,0,0:0:0:0:
64,192,70761,1,0,0:0:0:0:
448,192,71017,1,0,0:0:0:0:
192,192,71274,1,0,0:0:0:0:
320,192,71274,1,0,0:0:0:0:
64,192,71530,1,0,0:0:0:0:
448,192,71786,1,0,0:0:0:0:
192,192,72043,1,0,0:0:0:0:
64,192,72299,1,0,0:0:0:0:
320,192,72299,1,0,0:0:0:0:
448,192,72556,1,0,0:0:0:0:
320,192,72812,1,0,0:0:0:0:
192,192,73068,1,0,0:0:0:0:
64,192,73325,1,0,0:0:0:0:
448,192,73325,1,0,0:0:0:0:
320,192,73581,1,0,0:0:0:0:
64,192,73838,1,0,0:0:0:0:
192,192,74094,1,0,0:0:0:0:
448,192,74350,1,0,0:0:0:0:
320,192,74350,1,0,0:0:0:0:
64,192,74607,1,0,0:0:0:0:
448,192,74863,1,0,0:0:0:0:
320,192,75120,1,0,0:0:0:0:
192,192,75376,1,0,0:0:0:0:
320,192,75633,1,0,0:0:0:0:
448,192,75889,1,0,0:0:0:0:
192,192,76145,1,0,0:0:0:0:
64,192,76402,1,0,0:0:0:0:
448,192,76402,1,0,0:0:0:0:
320,192,76658,1,0,0:0:0:0:
192,192,76915,1,0,0:0:0:0:
64,192,77171,1,0,0:0:0:0:
320,192,77427,1,0,0:0:0:0:
192,192,77427,1,0,0:0:0:0:
448,192,77684,1,0,0:0:0:0:
64,192,77940,1,0,0:0:0:0:
320,192,77940,1,0,0:0:0:0:
192,192,78197,1,0,0:0:0:0:
448,192,78453,1,0,0:0:0:0:
64,192,78453,1,0,0:0:0:0:
192,192,78709,1,0,0:0:0:0:
320,192,78966,1,0,0:0:0:0:
448,192,79222,1,0,0:0:0:0:
192,192,79479,1,0,0:0:0:0:
64,192,79479,1,0,0:0:0:0:
448,192,79735,1,0,0:0:0:0:
320,192,79992,1,0,0:0:0:0:
192,192,80248,1,0,0:0:0:0:
320,192,80504,1,0,0:0:0:0:
64,192,80504,1,0,0:0:0:0:
192,192,80761,1,0,0:0:0:0:
320,192,81017,1,0,0:0:0:0:
64,192,81274,1,0,0:0:0:0:
448,192,81530,1,0,0:0:0:0:
192,192,81530,1,0,0:0:0:0:
320,192,81786,1,0,0:0:0:0:
192,192,82043,1,0,0:0:0:0:
448,192,82299,1,0,0:0:0:0:
64,192,82556,1,0,0:0:0:0:
320,192,82556,1,0,0:0:0:0:
192,192,82812,1,0,0:0:0:0:
64,192,83068,1,0,0:0:0:0:
320,192,83325,1,0,0:0:0:0:
192,192,83581,1,0,0:0:0:0:
448,192,83581,1,0,0:0:0:0:
64,192,83838,1,0,0:0:0:0:
192,192,84094,1,0,0:0:0:0:
448,192,84350,1,0,0:0:0:0:
320,192,84607,1,0,0:0:0:0:
64,192,84607,1,0,0:0:0:0:
192,192,84863,1,0,0:0:0:0:
448,192,85120,1,0,0:0:0:0:
320,192,85376,1,0,0:0:0:0:
448,192,85633,1,0,0:0:0:0:
192,192,85633,1,0,0:0:0:0:
64,192,85889,1,0,0:0:0:0:
192,192,86145,1,0,0:0:0:0:
320,192,86145,1,0,0:0:0:0:
448,192,86402,1,0,0:0:0:0:
64,192,86658,1,0,0:0:0:0:
320,192,86658,1,0,0:0:0:0:
192,192,86915,1,0,0:0:0:0:
448,192,87171,1,0,0:0:0:0:
64,192,87427,1,0,0:0:0:0:
320,192,87684,1,0,0:0:0:0:
192,192,87684,1,0,0:0:0:0:
448,192,87940,1,0,0:0:0:0:
64,192,88197,1,0,0:0:0:0:
192,192,88453,1,0,0:0:0:0:
448,192,88709,1,0,0:0:0:0:
320,192,88709,1,0,0:0:0:0:
192,192,88966,1,0,0:0:0:0:
64,192,89222,1,0,0:0:0:0:
448,192,89222,1,0,0:0:0:0:
320,192,89479,1,0,0:0:0:0:
192,192,89735,1,0,0:0:0:0:
448,192,89735,1,0,0:0:0:0:
64,192,89992,1,0,0:0:0:0:
320,192,90248,1,0,0:0:0:0:
448,192,90504,1,0,0:0:0:0:
64,192,90761,1,0,0:0:0:0:
192,192,90761,1,0,0:0:0:0:
320,192,91017,1,0,0:0:0:0:
448,192,91274,1,0,0:0:0:0:
320,192,91530,1,0,0:0:0:0:
448,192,91786,1,0,0:0:0:0:
192,192,91786,1,0,0:0:0:0:
64,192,92043,1,0,0:0:0:0:
320,192,92299,1,0,0:0:0:0:
448,192,92556,1,0,0:0:0:0:
192,192,92812,1,0,0:0:0:0:
64,192,92812,1,0,0:0:0:0:
448,192,93068,1,0,0:0:0:0:
320,192,93325,1,0,0:0:0:0:
192,192,93581,1,0,0:0:0:0:
320,192,93838,1,0,0:0:0:0:
64,192,93838,1,0,0:0:0:0:
448,192,94094,1,0,0:0:0:0:
192,192,94350,1,0,0:0:0:0:
320,192,94350,1,0,0:0:0:0:
64,192,94607,1,0,0:0:0:0:
448,192,94863,1,0,0:0:0:0:
192,192,94863,1,0,0:0:0:0:
320,192,95120,1,0,0:0:0:0:
448,192,95376,1,0,0:0:0:0:
64,192,95633,1,0,0:0:0:0:
192,192,95889,1,0,0:0:0:0:
448,192,95889,1,0,0:0:0:0:
320,192,96145,1,0,0:0:0:0:
192,192,96402,1,0,0:0:0:0:
64,192,96658,1,0,0:0:0:0:
448,192,96915,1,0,0:0:0:0:
192,192,96915,1,0,0:0:0:0:
320,192,97171,1,0,0:0:0:0:
448,192,97427,1,0,0:0:0:0:
192,192,97684,1,0,0:0:0:0:
64,192,97940,1,0,0:0:0:0:
320,192,97940,1,0,0:0:0:0:
448,192,98197,1,0,0:0:0:0:
64,192,98453,1,0,0:0:0:0:
192,192,98709,1,0,0:0:0:0:
320,192,98966,1,0,0:0:0:0:
448,192,98966,1,0,0:0:0:0:
192,192,99222,1,0,0:0:0:0:
64,192,99479,1,0,0:0:0:0:
320,192,99735,1,0,0:0:0:0:
448,192,99992,1,0,0:0:0:0:
64,192,99992,1,0,0:0:0:0:
192,192,100248,1,0,0:0:0:0:
448,192,100504,1,0,0:0:0:0:
320,192,100675,1,0,0:0:0:0:
192,192,100846,1,0,0:0:0:0:
64,192,101017,1,0,0:0:0:0:
448,192,101530,1,0,0:0:0:0:
320,192,101701,1,0,0:0:0:0:
192,192,101872,1,0,0:0:0:0:
64,192,102043,1,0,0:0:0:0:
192,192,102214,1,0,0:0:0:0:
320,192,102385,1,0,0:0:0:0:
64,192,102556,1,0,0:0:0:0:
448,192,102556,1,0,0:0:0:0:
64,192,104479,1,0,0:0:0:0:
192,192,104543,1,0,0:0:0:0:
448,192,104607,1,0,0:0:0:0:
320,192,105633,1,0,0:0:0:0:
320,192,105803,1,0,0:0:0:0:
320,192,105974,1,0,0:0:0:0:
64,192,106145,1,0,0:0:0:0:
192,192,106658,1,0,0:0:0:0:
448,192,106658,1,0,0:0:0:0:
448,192,108485,1,0,0:0:0:0:
320,192,108549,1,0,0:0:0:0:
192,192,108613,1,0,0:0:0:0:
64,192,108667,1,0,0:0:0:0:
320,192,109735,1,0,0:0:0:0:
320,192,109906,1,0,0:0:0:0:
320,192,110077,1,0,0:0:0:0:
448,192,110248,1,0,0:0:0:0:
192,192,110419,1,0,0:0:0:0:
64,192,110590,1,0,0:0:0:0:
448,192,110761,1,0,0:0:0:0:
192,192,111274,1,0,0:0:0:0:
320,192,111274,1,0,0:0:0:0:
64,192,111786,1,0,0:0:0:0:
192,192,112299,1,0,0:0:0:0:
448,192,112299,1,0,0:0:0:0:
320,192,112812,1,0,0:0:0:0:
64,192,113325,1,0,0:0:0:0:
448,192,113325,1,0,0:0:0:0:
192,192,113838,1,0,0:0:0:0:
320,192,114350,1,0,0:0:0:0:
448,192,114350,1,0,0:0:0:0:
64,192,114863,1,0,0:0:0:0:
192,192,115376,1,0,0:0:0:0:
448,192,115376,1,0,0:0:0:0:
320,192,115889,1,0,0:0:0:0:
64,192,116402,1,0,0:0:0:0:
192,192,116402,1,0,0:0:0:0:
448,192,116915,1,0,0:0:0:0:
64,192,117427,1,0,0:0:0:0:
320,192,117427,1,0,0:0:0:0:
192,192,117940,1,0,0:0:0:0:
64,192,118453,1,0,0:0:0:0:
448,192,118453,1,0,0:0:0:0:
64,192,118966,1,0,0:0:0:0:
320,192,118966,1,0,0:0:0:0:
448,192,119350,1,0,0:0:0:0:
192,192,119479,1,0,0:0:0:0:
448,192,119735,1,0,0:0:0:0:
192,192,120248,1,0,0:0:0:0:
448,192,120504,1,0,0:0:0:0:
64,192,120504,1,0,0:0:0:0:
64,192,121017,5,0,0:0:0:0:
192,192,121017,1,0,0:0:0:0:
448,192,121017,1,0,0:0:0:0:
320,192,121274,1,0,0:0:0:0:
448,192,121402,1,0,0:0:0:0:
192,192,121530,1,0,0:0:0:0:
320,192,121786,1,0,0:0:0:0:
64,192,121786,1,0,0:0:0:0:
448,192,122043,1,0,0:0:0:0:
192,192,122171,1,0,0:0:0:0:
320,192,122299,1,0,0:0:0:0:
64,192,122556,1,0,0:0:0:0:
448,192,122556,1,0,0:0:0:0:
192,192,122812,1,0,0:0:0:0:
64,192,122812,1,0,0:0:0:0:
320,192,122940,1,0,0:0:0:0:
448,192,123068,1,0,0:0:0:0:
192,192,123068,1,0,0:0:0:0:
320,192,123325,1,0,0:0:0:0:
64,192,123453,1,0,0:0:0:0:
448,192,123581,1,0,0:0:0:0:
320,192,123838,1,0,0:0:0:0:
192,192,123838,1,0,0:0:0:0:
64,192,124094,1,0,0:0:0:0:
192,192,124222,1,0,0:0:0:0:
320,192,124350,1,0,0:0:0:0:
448,192,124607,1,0,0:0:0:0:
64,192,124607,1,0,0:0:0:0:
320,192,124863,1,0,0:0:0:0:
192,192,124863,1,0,0:0:0:0:
64,192,125120,1,0,0:0:0:0:
448,192,125120,1,0,0:0:0:0:
320,192,125376,1,0,0:0:0:0:
448,192,125504,1,0,0:0:0:0:
192,192,125633,1,0,0:0:0:0:
320,192,125889,1,0,0:0:0:0:
64,192,125889,1,0,0:0:0:0:
448,192,126145,1,0,0:0:0:0:
192,192,126274,1,0,0:0:0:0:
320,192,126402,1,0,0:0:0:0:
64,192,126658,1,0,0:0:0:0:
448,192,126658,1,0,0:0:0:0:
192,192,126915,1,0,0:0:0:0:
448,192,126915,1,0,0:0:0:0:
320,192,127043,1,0,0:0:0:0:
448,192,127171,1,0,0:0:0:0:
64,192,127171,1,0,0:0:0:0:
192,192,127427,1,0,0:0:0:0:
64,192,127556,1,0,0:0:0:0:
448,192,127684,1,0,0:0:0:0:
320,192,127940,1,0,0:0:0:0:
192,192,127940,1,0,0:0:0:0:
64,192,128197,1,0,0:0:0:0:
448,192,128325,1,0,0:0:0:0:
192,192,128453,1,0,0:0:0:0:
320,192,128709,1,0,0:0:0:0:
64,192,128709,1,0,0:0:0:0:
192,192,128966,1,0,0:0:0:0:
448,192,128966,1,0,0:0:0:0:
64,192,129222,5,0,0:0:0:0:
448,192,129222,1,0,0:0:0:0:
320,192,129222,1,0,0:0:0:0:
192,192,129479,1,0,0:0:0:0:
448,192,129607,1,0,0:0:0:0:
320,192,129735,1,0,0:0:0:0:
64,192,129992,1,0,0:0:0:0:
192,192,129992,1,0,0:0:0:0:
448,192,130248,1,0,0:0:0:0:
320,192,130376,1,0,0:0:0:0:
192,192,130504,1,0,0:0:0:0:
448,192,130761,1,0,0:0:0:0:
64,192,130761,1,0,0:0:0:0:
64,192,131017,1,0,0:0:0:0:
320,192,131017,1,0,0:0:0:0:
192,192,131145,1,0,0:0:0:0:
320,192,131274,1,0,0:0:0:0:
448,192,131274,1,0,0:0:0:0:
192,192,131530,1,0,0:0:0:0:
64,192,131658,1,0,0:0:0:0:
448,192,131786,1,0,0:0:0:0:
320,192,132043,1,0,0:0:0:0:
192,192,132043,1,0,0:0:0:0:
64,192,132299,1,0,0:0:0:0:
320,192,132427,1,0,0:0:0:0:
192,192,132556,1,0,0:0:0:0:
64,192,132812,1,0,0:0:0:0:
448,192,132812,1,0,0:0:0:0:
320,192,133068,1,0,0:0:0:0:
192,192,133068,1,0,0:0:0:0:
448,192,133325,1,0,0:0:0:0:
64,192,133325,1,0,0:0:0:0:
192,192,133581,1,0,0:0:0:0:
448,192,133709,1,0,0:0:0:0:
320,192,133838,1,0,0:0:0:0:
64,192,134094,1,0,0:0:0:0:
192,192,134094,1,0,0:0:0:0:
448,192,134350,1,0,0:0:0:0:
320,192,134479,1,0,0:0:0:0:
192,192,134607,1,0,0:0:0:0:
448,192,134863,1,0,0:0:0:0:
64,192,134863,1,0,0:0:0:0:
448,192,135120,1,0,0:0:0:0:
320,192,135120,1,0,0:0:0:0:
192,192,135248,1,0,0:0:0:0:
64,192,135376,1,0,0:0:0:0:
448,192,135376,1,0,0:0:0:0:
320,192,135633,1,0,0:0:0:0:
64,192,135761,1,0,0:0:0:0:
448,192,135889,1,0,0:0:0:0:
320,192,136145,1,0,0:0:0:0:
192,192,136145,1,0,0:0:0:0:
64,192,136402,1,0,0:0:0:0:
448,192,136530,1,0,0:0:0:0:
320,192,136658,1,0,0:0:0:0:
64,192,136915,1,0,0:0:0:0:
192,192,136915,1,0,0:0:0:0:
448,192,137171,1,0,0:0:0:0:
320,192,137171,1,0,0:0:0:0:
448,192,137427,5,0,0:0:0:0:
320,192,137427,1,0,0:0:0:0:
64,192,137427,1,0,0:0:0:0:
192,192,137684,1,0,0:0:0:0:
64,192,137812,1,0,0:0:0:0:
320,192,137940,1,0,0:0:0:0:
192,192,138197,1,0,0:0:0:0:
448,192,138197,1,0,0:0:0:0:
64,192,138453,1,0,0:0:0:0:
320,192,138581,1,0,0:0:0:0:
192,192,138709,1,0,0:0:0:0:
448,192,138966,1,0,0:0:0:0:
64,192,138966,1,0,0:0:0:0:
320,192,139222,1,0,0:0:0:0:
448,192,139222,1,0,0:0:0:0:
192,192,139350,1,0,0:0:0:0:
64,192,139479,1,0,0:0:0:0:
320,192,139479,1,0,0:0:0:0:
192,192,139735,1,0,0:0:0:0:
448,192,139863,1,0,0:0:0:0:
64,192,139992,1,0,0:0:0:0:
192,192,140248,1,0,0:0:0:0:
320,192,140248,1,0,0:0:0:0:
448,192,140504,1,0,0:0:0:0:
320,192,140633,1,0,0:0:0:0:
192,192,140761,1,0,0:0:0:0:
64,192,141017,1,0,0:0:0:0:
448,192,141017,1,0,0:0:0:0:
192,192,141274,1,0,0:0:0:0:
320,192,141274,1,0,0:0:0:0:
448,192,141530,1,0,0:0:0:0:
64,192,141530,1,0,0:0:0:0:
192,192,141786,1,0,0:0:0:0:
64,192,141915,1,0,0:0:0:0:
320,192,142043,1,0,0:0:0:0:
192,192,142299,1,0,0:0:0:0:
448,192,142299,1,0,0:0:0:0:
64,192,142556,1,0,0:0:0:0:
320,192,142684,1,0,0:0:0:0:
192,192,142812,1,0,0:0:0:0:
448,192,143068,1,0,0:0:0:0:
64,192,143068,1,0,0:0:0:0:
320,192,143325,1,0,0:0:0:0:
64,192,143325,1,0,0:0:0:0:
192,192,143453,1,0,0:0:0:0:
64,192,143581,1,0,0:0:0:0:
448,192,143581,1,0,0:0:0:0:
320,192,143838,1,0,0:0:0:0:
448,192,143966,1,0,0:0:0:0:
64,192,144094,1,0,0:0:0:0:
192,192,144350,1,0,0:0:0:0:
320,192,144350,1,0,0:0:0:0:
448,192,144607,1,0,0:0:0:0:
64,192,144735,1,0,0:0:0:0:
320,192,144863,1,0,0:0:0:0:
192,192,145120,1,0,0:0:0:0:
448,192,145120,1,0,0:0:0:0:
320,192,145376,1,0,0:0:0:0:
64,192,145376,1,0,0:0:0:0:
448,192,145633,5,0,0:0:0:0:
64,192,145633,1,0,0:0:0:0:
192,192,145633,1,0,0:0:0:0:
320,192,145889,1,0,0:0:0:0:
64,192,146017,1,0,0:0:0:0:
192,192,146145,1,0,0:0:0:0:
448,192,146402,1,0,0:0:0:0:
320,192,146402,1,0,0:0:0:0:
64,192,146658,1,0,0:0:0:0:
192,192,146786,1,0,0:0:0:0:
320,192,146915,1,0,0:0:0:0:
64,192,147171,1,0,0:0:0:0:
448,192,147171,1,0,0:0:0:0:
448,192,147427,1,0,0:0:0:0:
192,192,147427,1,0,0:0:0:0:
320,192,147556,1,0,0:0:0:0:
192,192,147684,1,0,0:0:0:0:
64,192,147684,1,0,0:0:0:0:
320,192,147940,1,0,0:0:0:0:
448,192,148068,1,0,0:0:0:0:
64,192,148197,1,0,0:0:0:0:
192,192,148453,1,0,0:0:0:0:
320,192,148453,1,0,0:0:0:0:
448,192,148709,1,0,0:0:0:0:
192,192,148838,1,0,0:0:0:0:
320,192,148966,1,0,0:0:0:0:
448,192,149222,1,0,0:0:0:0:
64,192,149222,1,0,0:0:0:0:
192,192,149479,1,0,0:0:0:0:
320,192,149479,1,0,0:0:0:0:
64,192,149735,1,0,0:0:0:0:
448,192,149735,1,0,0:0:0:0:
320,192,149992,1,0,0:0:0:0:
64,192,150120,1,0,0:0:0:0:
192,192,150248,1,0,0:0:0:0:
448,192,150504,1,0,0:0:0:0:
320,192,150504,1,0,0:0:0:0:
64,192,150761,1,0,0:0:0:0:
192,192,150889,1,0,0:0:0:0:
320,192,151017,1,0,0:0:0:0:
64,192,151274,1,0,0:0:0:0:
448,192,151274,1,0,0:0:0:0:
64,192,151530,1,0,0:0:0:0:
192,192,151530,1,0,0:0:0:0:
320,192,151658,1,0,0:0:0:0:
448,192,151786,1,0,0:0:0:0:
64,192,151786,1,0,0:0:0:0:
192,192,152043,1,0,0:0:0:0:
448,192,152171,1,0,0:0:0:0:
64,192,152299,1,0,0:0:0:0:
192,192,152556,1,0,0:0:0:0:
320,192,152556,1,0,0:0:0:0:
448,192,152812,5,0,0:0:0:0:
64,192,152940,1,0,0:0:0:0:
192,192,153068,1,0,0:0:0:0:
448,192,153325,1,0,0:0:0:0:
320,192,153325,1,0,0:0:0:0:
64,192,153581,1,0,0:0:0:0:
192,192,153581,1,0,0:0:0:0:
192,192,153838,5,0,0:0:0:0:
448,192,153838,1,0,0:0:0:0:
448,192,163832,5,0,0:0:0:0:
64,192,163832,1,0,0:0:0:0:
320,192,163832,1,0,0:0:0:0:
192,192,164046,1,0,0:0:0:0:
320,192,164260,1,0,0:0:0:0:
64,192,164260,1,0,0:0:0:0:
192,192,164474,1,0,0:0:0:0:
448,192,164689,1,0,0:0:0:0:
320,192,164689,1,0,0:0:0:0:
192,192,164903,1,0,0:0:0:0:
64,192,165117,1,0,0:0:0:0:
320,192,165117,1,0,0:0:0:0:
448,192,165332,1,0,0:0:0:0:
320,192,165546,1,0,0:0:0:0:
192,192,165546,1,0,0:0:0:0:
64,192,165760,1,0,0:0:0:0:
192,192,165974,1,0,0:0:0:0:
448,192,165974,1,0,0:0:0:0:
320,192,166189,1,0,0:0:0:0:
448,192,166403,1,0,0:0:0:0:
192,192,166403,1,0,0:0:0:0:
320,192,166617,1,0,0:0:0:0:
64,192,166832,1,0,0:0:0:0:
192,192,166832,1,0,0:0:0:0:
320,192,167046,1,0,0:0:0:0:
448,192,167260,1,0,0:0:0:0:
64,192,167260,1,0,0:0:0:0:
192,192,167474,1,0,0:0:0:0:
320,192,167689,1,0,0:0:0:0:
448,192,167689,1,0,0:0:0:0:
64,192,167903,1,0,0:0:0:0:
192,192,168117,1,0,0:0:0:0:
320,192,168117,1,0,0:0:0:0:
448,192,168332,1,0,0:0:0:0:
64,192,168546,1,0,0:0:0:0:
320,192,168546,1,0,0:0:0:0:
448,192,168760,1,0,0:0:0:0:
192,192,168974,1,0,0:0:0:0:
320,192,168974,1,0,0:0:0:0:
64,192,169189,1,0,0:0:0:0:
448,192,169403,1,0,0:0:0:0:
192,192,169403,1,0,0:0:0:0:
64,192,169617,1,0,0:0:0:0:
320,192,169832,1,0,0:0:0:0:
448,192,169832,1,0,0:0:0:0:
192,192,170046,1,0,0:0:0:0:
64,192,170260,1,0,0:0:0:0:
320,192,170260,1,0,0:0:0:0:
448,192,170474,1,0,0:0:0:0:
192,192,170689,1,0,0:0:0:0:
320,192,170689,1,0,0:0:0:0:
64,192,170903,1,0,0:0:0:0:
448,192,171117,1,0,0:0:0:0:
192,192,171117,1,0,0:0:0:0:
64,192,171332,1,0,0:0:0:0:
320,192,171546,1,0,0:0:0:0:
192,192,171546,1,0,0:0:0:0:
448,192,171760,1,0,0:0:0:0:
64,192,171974,1,0,0:0:0:0:
320,192,171974,1,0,0:0:0:0:
192,192,172189,1,0,0:0:0:0:
448,192,172403,1,0,0:0:0:0:
64,192,172403,1,0,0:0:0:0:
320,192,172617,1,0,0:0:0:0:
192,192,172832,1,0,0:0:0:0:
448,192,172832,1,0,0:0:0:0:
64,192,173046,1,0,0:0:0:0:
320,192,173260,1,0,0:0:0:0:
192,192,173260,1,0,0:0:0:0:
64,192,173474,1,0,0:0:0:0:
448,192,173689,1,0,0:0:0:0:
192,192,173689,1,0,0:0:0:0:
320,192,173903,1,0,0:0:0:0:
64,192,174117,1,0,0:0:0:0:
448,192,174117,1,0,0:0:0:0:
192,192,174332,1,0,0:0:0:0:
320,192,174546,1,0,0:0:0:0:
64,192,174546,1,0,0:0:0:0:
192,192,174760,1,0,0:0:0:0:
448,192,174974,1,0,0:0:0:0:
320,192,174974,1,0,0:0:0:0:
64,192,175189,1,0,0:0:0:0:
192,192,175403,1,0,0:0:0:0:
448,192,175403,1,0,0:0:0:0:
64,192,175617,5,0,0:0:0:0:
320,192,175832,5,0,0:0:0:0:
448,192,175832,1,0,0:0:0:0:
192,192,176046,1,0,0:0:0:0:
448,192,176260,1,0,0:0:0:0:
64,192,176260,1,0,0:0:0:0:
320,192,176474,1,0,0:0:0:0:
64,192,176689,5,0,0:0:0:0:
64,192,176796,1,0,0:0:0:0:
448,192,177010,1,0,0:0:0:0:
448,192,177117,1,0,0:0:0:0:
192,192,177332,1,0,0:0:0:0:
320,192,177439,1,0,0:0:0:0:
192,192,177546,1,0,0:0:0:0:
448,192,177653,1,0,0:0:0:0:
64,192,177760,1,0,0:0:0:0:
448,192,177867,1,0,0:0:0:0:
320,192,177974,1,0,0:0:0:0:
192,192,178082,1,0,0:0:0:0:
448,192,178189,1,0,0:0:0:0:
64,192,178403,1,0,0:0:0:0:
448,192,178510,1,0,0:0:0:0:
448,192,178724,1,0,0:0:0:0:
64,192,178939,1,0,0:0:0:0:
448,192,179046,1,0,0:0:0:0:
320,192,179046,1,0,0:0:0:0:
192,192,179153,1,0,0:0:0:0:
64,192,179367,1,0,0:0:0:0:
192,192,179474,1,0,0:0:0:0:
64,192,179582,1,0,0:0:0:0:
448,192,179689,1,0,0:0:0:0:
320,192,179796,1,0,0:0:0:0:
64,192,179903,1,0,0:0:0:0:
192,192,180117,1,0,0:0:0:0:
64,192,180224,1,0,0:0:0:0:
64,192,180439,1,0,0:0:0:0:
192,192,180439,1,0,0:0:0:0:
192,192,180653,1,0,0:0:0:0:
64,192,180760,1,0,0:0:0:0:
448,192,180760,1,0,0:0:0:0:
320,192,180867,1,0,0:0:0:0:
448,192,181082,1,0,0:0:0:0:
64,192,181189,1,0,0:0:0:0:
448,192,181296,1,0,0:0:0:0:
320,192,181403,1,0,0:0:0:0:
192,192,181510,1,0,0:0:0:0:
448,192,181617,1,0,0:0:0:0:
64,192,181832,1,0,0:0:0:0:
448,192,181939,1,0,0:0:0:0:
448,192,182153,1,0,0:0:0:0:
64,192,182367,1,0,0:0:0:0:
320,192,182474,1,0,0:0:0:0:
448,192,182474,1,0,0:0:0:0:
192,192,182582,1,0,0:0:0:0:
64,192,182796,1,0,0:0:0:0:
448,192,182903,1,0,0:0:0:0:
64,192,183010,1,0,0:0:0:0:
192,192,183117,1,0,0:0:0:0:
320,192,183224,1,0,0:0:0:0:
64,192,183332,1,0,0:0:0:0:
448,192,183546,1,0,0:0:0:0:
64,192,183653,1,0,0:0:0:0:
448,192,183867,1,0,0:0:0:0:
64,192,183867,1,0,0:0:0:0:
448,192,184082,1,0,0:0:0:0:
192,192,184189,1,0,0:0:0:0:
64,192,184189,1,0,0:0:0:0:
320,192,184296,1,0,0:0:0:0:
448,192,184510,1,0,0:0:0:0:
64,192,184617,1,0,0:0:0:0:
448,192,184724,1,0,0:0:0:0:
320,192,184832,1,0,0:0:0:0:
192,192,184939,1,0,0:0:0:0:
448,192,185046,1,0,0:0:0:0:
64,192,185260,1,0,0:0:0:0:
448,192,185367,1,0,0:0:0:0:
448,192,185582,1,0,0:0:0:0:
64,192,185796,1,0,0:0:0:0:
448,192,185903,1,0,0:0:0:0:
320,192,185903,1,0,0:0:0:0:
192,192,186010,1,0,0:0:0:0:
64,192,186224,1,0,0:0:0:0:
448,192,186332,1,0,0:0:0:0:
64,192,186439,1,0,0:0:0:0:
192,192,186546,1,0,0:0:0:0:
320,192,186653,1,0,0:0:0:0:
64,192,186760,1,0,0:0:0:0:
448,192,186974,1,0,0:0:0:0:
64,192,187082,1,0,0:0:0:0:
64,192,187296,1,0,0:0:0:0:
448,192,187296,1,0,0:0:0:0:
448,192,187510,1,0,0:0:0:0:
64,192,187617,1,0,0:0:0:0:
192,192,187617,1,0,0:0:0:0:
320,192,187724,1,0,0:0:0:0:
448,192,187939,1,0,0:0:0:0:
64,192,188046,1,0,0:0:0:0:
448,192,188153,1,0,0:0:0:0:
320,192,188260,1,0,0:0:0:0:
192,192,188367,1,0,0:0:0:0:
448,192,188474,1,0,0:0:0:0:
64,192,188689,1,0,0:0:0:0:
448,192,188796,1,0,0:0:0:0:
448,192,189010,1,0,0:0:0:0:
64,192,189224,1,0,0:0:0:0:
320,192,189332,1,0,0:0:0:0:
448,192,189332,1,0,0:0:0:0:
192,192,189439,1,0,0:0:0:0:
64,192,189546,1,0,0:0:0:0:
320,192,189546,1,0,0:0:0:0:
192,192,189867,1,0,0:0:0:0:
448,192,189867,1,0,0:0:0:0:
64,192,190189,1,0,0:0:0:0:
192,192,190189,1,0,0:0:0:0:
320,192,190510,1,0,0:0:0:0:
448,192,190510,1,0,0:0:0:0:
192,192,190832,1,0,0:0:0:0:
320,192,190832,1,0,0:0:0:0:
64,192,191260,1,0,0:0:0:0:
448,192,191260,1,0,0:0:0:0:
192,192,191474,1,0,0:0:0:0:
320,192,191689,1,0,0:0:0:0:
64,192,191903,1,0,0:0:0:0:
448,192,192117,1,0,0:0:0:0:
320,192,192332,1,0,0:0:0:0:
192,192,192546,1,0,0:0:0:0:
64,192,192760,1,0,0:0:0:0:
448,192,192974,1,0,0:0:0:0:
192,192,193189,1,0,0:0:0:0:
320,192,193403,1,0,0:0:0:0:
64,192,193617,1,0,0:0:0:0:
448,192,193832,1,0,0:0:0:0:
320,192,194046,1,0,0:0:0:0:
192,192,194260,1,0,0:0:0:0:
64,192,194474,1,0,0:0:0:0:
448,192,194689,1,0,0:0:0:0:
192,192,194903,1,0,0:0:0:0:
320,192,195117,1,0,0:0:0:0:
64,192,195332,1,0,0:0:0:0:
448,192,195546,1,0,0:0:0:0:
320,192,195760,1,0,0:0:0:0:
192,192,195974,1,0,0:0:0:0:
64,192,196189,1,0,0:0:0:0:
448,192,196403,1,0,0:0:0:0:
192,192,196617,1,0,0:0:0:0:
320,192,196832,1,0,0:0:0:0:
64,192,197046,1,0,0:0:0:0:
448,192,197260,1,0,0:0:0:0:
320,192,197474,1,0,0:0:0:0:
192,192,197689,1,0,0:0:0:0:
64,192,197903,1,0,0:0:0:0:
320,192,198224,1,0,0:0:0:0:
320,192,198439,1,0,0:0:0:0:
320,192,198760,1,0,0:0:0:0:
320,192,199082,1,0,0:0:0:0:
320,192,199296,1,0,0:0:0:0:
320,192,199617,1,0,0:0:0:0:
320,192,199939,1,0,0:0:0:0:
320,192,200153,1,0,0:0:0:0:
320,192,200474,1,0,0:0:0:0:
320,192,200796,1,0,0:0:0:0:
320,192,201010,1,0,0:0:0:0:
448,192,201332,1,0,0:0:0:0:
64,192,201653,1,0,0:0:0:0:
64,192,201867,1,0,0:0:0:0:
64,192,202189,1,0,0:0:0:0:
64,192,202510,1,0,0:0:0:0:
64,192,202724,1,0,0:0:0:0:
64,192,203046,1,0,0:0:0:0:
64,192,203367,1,0,0:0:0:0:
64,192,203582,1,0,0:0:0:0:
64,192,203903,1,0,0:0:0:0:
64,192,204224,1,0,0:0:0:0:
64,192,204439,1,0,0:0:0:0:
192,192,204760,1,0,0:0:0:0:
448,192,204974,1,0,0:0:0:0:
64,192,204974,1,0,0:0:0:0:
320,192,205082,1,0,0:0:0:0:
320,192,205296,1,0,0:0:0:0:
192,192,205403,1,0,0:0:0:0:
320,192,205617,1,0,0:0:0:0:
64,192,205832,1,0,0:0:0:0:
320,192,205939,1,0,0:0:0:0:
320,192,206153,1,0,0:0:0:0:
448,192,206260,1,0,0:0:0:0:
320,192,206474,1,0,0:0:0:0:
64,192,206689,1,0,0:0:0:0:
192,192,206796,1,0,0:0:0:0:
192,192,207010,1,0,0:0:0:0:
320,192,207117,1,0,0:0:0:0:
192,192,207332,1,0,0:0:0:0:
448,192,207546,1,0,0:0:0:0:
192,192,207653,1,0,0:0:0:0:
192,192,207867,1,0,0:0:0:0:
320,192,207974,1,0,0:0:0:0:
192,192,208189,1,0,0:0:0:0:
448,192,208403,1,0,0:0:0:0:
64,192,208510,1,0,0:0:0:0:
64,192,208724,1,0,0:0:0:0:
192,192,208832,1,0,0:0:0:0:
64,192,209046,1,0,0:0:0:0:
320,192,209260,1,0,0:0:0:0:
64,192,209367,1,0,0:0:0:0:
64,192,209582,1,0,0:0:0:0:
448,192,209689,1,0,0:0:0:0:
64,192,209903,1,0,0:0:0:0:
192,192,210117,1,0,0:0:0:0:
448,192,210224,1,0,0:0:0:0:
448,192,210439,1,0,0:0:0:0:
64,192,210546,1,0,0:0:0:0:
448,192,210760,1,0,0:0:0:0:
320,192,210974,1,0,0:0:0:0:
448,192,211082,1,0,0:0:0:0:
448,192,211296,1,0,0:0:0:0:
192,192,211403,1,0,0:0:0:0:
448,192,211617,1,0,0:0:0:0:
64,192,211832,1,0,0:0:0:0:
192,192,211939,1,0,0:0:0:0:
192,192,212153,1,0,0:0:0:0:
320,192,212260,1,0,0:0:0:0:
192,192,212474,1,0,0:0:0:0:
448,192,212689,1,0,0:0:0:0:
192,192,212796,1,0,0:0:0:0:
192,192,213010,1,0,0:0:0:0:
64,192,213117,1,0,0:0:0:0:
192,192,213332,1,0,0:0:0:0:
448,192,213546,1,0,0:0:0:0:
320,192,213653,1,0,0:0:0:0:
320,192,213867,1,0,0:0:0:0:
192,192,213974,1,0,0:0:0:0:
320,192,214189,1,0,0:0:0:0:
64,192,214403,1,0,0:0:0:0:
320,192,214510,1,0,0:0:0:0:
320,192,214724,1,0,0:0:0:0:
192,192,214832,1,0,0:0:0:0:
320,192,215046,1,0,0:0:0:0:
64,192,215260,1,0,0:0:0:0:
448,192,215367,1,0,0:0:0:0:
448,192,215582,1,0,0:0:0:0:
320,192,215689,1,0,0:0:0:0:
448,192,215903,1,0,0:0:0:0:
192,192,216117,1,0,0:0:0:0:
448,192,216224,1,0,0:0:0:0:
448,192,216439,1,0,0:0:0:0:
64,192,216546,1,0,0:0:0:0:
448,192,216760,1,0,0:0:0:0:
320,192,216974,1,0,0:0:0:0:
64,192,217082,1,0,0:0:0:0:
64,192,217296,1,0,0:0:0:0:
448,192,217403,1,0,0:0:0:0:
64,192,217617,1,0,0:0:0:0:
192,192,217832,1,0,0:0:0:0:
64,192,217939,1,0,0:0:0:0:
64,192,218153,1,0,0:0:0:0:
320,192,218260,1,0,0:0:0:0:
64,192,218474,1,0,0:0:0:0:
192,192,218689,1,0,0:0:0:0:
320,192,218689,1,0,0:0:0:0:
64,192,218796,1,0,0:0:0:0:
64,192,219010,1,0,0:0:0:0:
448,192,219117,1,0,0:0:0:0:
64,192,219332,1,0,0:0:0:0:
320,192,219546,1,0,0:0:0:0:
64,192,219653,1,0,0:0:0:0:
64,192,219867,1,0,0:0:0:0:
192,192,219974,1,0,0:0:0:0:
64,192,220189,1,0,0:0:0:0:
320,192,220403,1,0,0:0:0:0:
448,192,220510,1,0,0:0:0:0:
448,192,220724,1,0,0:0:0:0:
64,192,220832,1,0,0:0:0:0:
448,192,221046,1,0,0:0:0:0:
192,192,221260,1,0,0:0:0:0:
448,192,221367,1,0,0:0:0:0:
448,192,221582,1,0,0:0:0:0:
64,192,221689,1,0,0:0:0:0:
448,192,221903,1,0,0:0:0:0:
192,192,222117,1,0,0:0:0:0:
320,192,222224,1,0,0:0:0:0:
320,192,222439,1,0,0:0:0:0:
448,192,222546,1,0,0:0:0:0:
320,192,222760,1,0,0:0:0:0:
64,192,222974,1,0,0:0:0:0:
320,192,223082,1,0,0:0:0:0:
320,192,223296,1,0,0:0:0:0:
192,192,223403,1,0,0:0:0:0:
320,192,223617,1,0,0:0:0:0:
448,192,223832,1,0,0:0:0:0:
192,192,223939,1,0,0:0:0:0:
192,192,224153,1,0,0:0:0:0:
320,192,224260,1,0,0:0:0:0:
192,192,224474,1,0,0:0:0:0:
64,192,224689,1,0,0:0:0:0:
192,192,224796,1,0,0:0:0:0:
192,192,225010,1,0,0:0:0:0:
448,192,225117,1,0,0:0:0:0:
192,192,225332,1,0,0:0:0:0:
320,192,225546,1,0,0:0:0:0:
448,192,225653,1,0,0:0:0:0:
448,192,225867,1,0,0:0:0:0:
64,192,225974,1,0,0:0:0:0:
448,192,226189,1,0,0:0:0:0:
192,192,226403,1,0,0:0:0:0:
448,192,226510,1,0,0:0:0:0:
448,192,226724,1,0,0:0:0:0:
320,192,226832,1,0,0:0:0:0:
448,192,227046,1,0,0:0:0:0:
192,192,227260,1,0,0:0:0:0:
64,192,227367,1,0,0:0:0:0:
64,192,227582,1,0,0:0:0:0:
448,192,227689,1,0,0:0:0:0:
64,192,227903,1,0,0:0:0:0:
320,192,228117,1,0,0:0:0:0:
64,192,228224,1,0,0:0:0:0:
64,192,228439,1,0,0:0:0:0:
448,192,228546,1,0,0:0:0:0:
64,192,228760,1,0,0:0:0:0:
320,192,228974,1,0,0:0:0:0:
192,192,229082,1,0,0:0:0:0:
192,192,229296,1,0,0:0:0:0:
64,192,229403,1,0,0:0:0:0:
192,192,229617,1,0,0:0:0:0:
448,192,229832,1,0,0:0:0:0:
192,192,229939,1,0,0:0:0:0:
192,192,230153,1,0,0:0:0:0:
320,192,230260,1,0,0:0:0:0:
192,192,230474,1,0,0:0:0:0:
64,192,230689,1,0,0:0:0:0:
320,192,230796,1,0,0:0:0:0:
320,192,231010,1,0,0:0:0:0:
192,192,231117,1,0,0:0:0:0:
320,192,231332,1,0,0:0:0:0:
448,192,231546,1,0,0:0:0:0:
320,192,231653,1,0,0:0:0:0:
320,192,231867,1,0,0:0:0:0:
64,192,231974,1,0,0:0:0:0:
320,192,232189,1,0,0:0:0:0:
64,192,232403,1,0,0:0:0:0:
192,192,232403,1,0,0:0:0:0:
448,192,232724,1,0,0:0:0:0:
192,192,232832,1,0,0:0:0:0:
320,192,233046,1,0,0:0:0:0:
64,192,233260,1,0,0:0:0:0:
192,192,233260,1,0,0:0:0:0:
448,192,233582,1,0,0:0:0:0:
192,192,233689,1,0,0:0:0:0:
320,192,233903,1,0,0:0:0:0:
64,192,234117,1,0,0:0:0:0:
192,192,234117,1,0,0:0:0:0:
448,192,234439,1,0,0:0:0:0:
320,192,234546,1,0,0:0:0:0:
192,192,234760,1,0,0:0:0:0:
64,192,234974,1,0,0:0:0:0:
320,192,234974,1,0,0:0:0:0:
448,192,235296,1,0,0:0:0:0:
320,192,235403,1,0,0:0:0:0:
192,192,235617,1,0,0:0:0:0:
64,192,235832,1,0,0:0:0:0:
448,192,235832,1,0,0:0:0:0:
320,192,236153,1,0,0:0:0:0:
448,192,236260,1,0,0:0:0:0:
192,192,236474,1,0,0:0:0:0:
64,192,236689,1,0,0:0:0:0:
448,192,236689,1,0,0:0:0:0:
320,192,237010,1,0,0:0:0:0:
448,192,237117,1,0,0:0:0:0:
192,192,237332,1,0,0:0:0:0:
64,192,237546,1,0,0:0:0:0:
320,192,237546,1,0,0:0:0:0:
448,192,237867,1,0,0:0:0:0:
192,192,237974,1,0,0:0:0:0:
320,192,238189,1,0,0:0:0:0:
192,192,238403,1,0,0:0:0:0:
64,192,238403,1,0,0:0:0:0:
448,192,238724,1,0,0:0:0:0:
64,192,238832,1,0,0:0:0:0:
320,192,239046,1,0,0:0:0:0:
192,192,239260,1,0,0:0:0:0:
64,192,239260,1,0,0:0:0:0:
448,192,239582,1,0,0:0:0:0:
192,192,239689,1,0,0:0:0:0:
320,192,239903,1,0,0:0:0:0:
64,192,240117,1,0,0:0:0:0:
192,192,240117,1,0,0:0:0:0:
448,192,240439,1,0,0:0:0:0:
192,192,240546,1,0,0:0:0:0:
320,192,240760,1,0,0:0:0:0:
64,192,240974,1,0,0:0:0:0:
192,192,240974,1,0,0:0:0:0:
448,192,241296,1,0,0:0:0:0:
320,192,241403,1,0,0:0:0:0:
192,192,241617,1,0,0:0:0:0:
64,192,241832,1,0,0:0:0:0:
320,192,241832,1,0,0:0:0:0:
448,192,242153,1,0,0:0:0:0:
320,192,242260,1,0,0:0:0:0:
192,192,242474,1,0,0:0:0:0:
64,192,242689,1,0,0:0:0:0:
448,192,242689,1,0,0:0:0:0:
320,192,243010,1,0,0:0:0:0:
448,192,243117,1,0,0:0:0:0:
192,192,243332,1,0,0:0:0:0:
64,192,243546,1,0,0:0:0:0:
448,192,243546,1,0,0:0:0:0:
320,192,243867,1,0,0:0:0:0:
448,192,243974,1,0,0:0:0:0:
192,192,244189,1,0,0:0:0:0:
64,192,244403,1,0,0:0:0:0:
320,192,244403,1,0,0:0:0:0:
448,192,244724,1,0,0:0:0:0:
192,192,244832,1,0,0:0:0:0:
320,192,245046,1,0,0:0:0:0:
192,192,245260,1,0,0:0:0:0:
64,192,245260,1,0,0:0:0:0:
448,192,245582,1,0,0:0:0:0:
64,192,245689,1,0,0:0:0:0:
320,192,245903,1,0,0:0:0:0:
64,192,246117,1,0,0:0:0:0:
448,192,246117,1,0,0:0:0:0:
192,192,246332,1,0,0:0:0:0:
448,192,246439,1,0,0:0:0:0:
64,192,246546,1,0,0:0:0:0:
192,192,246653,1,0,0:0:0:0:
320,192,246760,1,0,0:0:0:0:
64,192,246974,1,0,0:0:0:0:
192,192,246974,1,0,0:0:0:0:
448,192,247296,1,0,0:0:0:0:
192,192,247296,1,0,0:0:0:0:
64,192,247510,1,0,0:0:0:0:
320,192,247617,1,0,0:0:0:0:
192,192,247617,1,0,0:0:0:0:
448,192,247724,1,0,0:0:0:0:
64,192,247832,1,0,0:0:0:0:
320,192,248046,1,0,0:0:0:0:
448,192,248153,1,0,0:0:0:0:
64,192,248260,1,0,0:0:0:0:
320,192,248367,1,0,0:0:0:0:
192,192,248474,1,0,0:0:0:0:
64,192,248689,1,0,0:0:0:0:
320,192,248689,1,0,0:0:0:0:
448,192,249010,1,0,0:0:0:0:
320,192,249010,1,0,0:0:0:0:
64,192,249224,1,0,0:0:0:0:
192,192,249332,1,0,0:0:0:0:
448,192,249332,1,0,0:0:0:0:
320,192,249439,1,0,0:0:0:0:
64,192,249546,1,0,0:0:0:0:
448,192,249760,1,0,0:0:0:0:
320,192,249867,1,0,0:0:0:0:
64,192,249974,1,0,0:0:0:0:
448,192,250082,1,0,0:0:0:0:
192,192,250189,1,0,0:0:0:0:
64,192,250403,1,0,0:0:0:0:
448,192,250403,1,0,0:0:0:0:
320,192,250724,1,0,0:0:0:0:
448,192,250724,1,0,0:0:0:0:
64,192,250939,1,0,0:0:0:0:
192,192,251046,1,0,0:0:0:0:
448,192,251046,1,0,0:0:0:0:
320,192,251153,1,0,0:0:0:0:
64,192,251260,1,0,0:0:0:0:
192,192,251474,1,0,0:0:0:0:
448,192,251582,1,0,0:0:0:0:
64,192,251689,1,0,0:0:0:0:
192,192,251796,1,0,0:0:0:0:
320,192,251903,1,0,0:0:0:0:
192,192,252117,1,0,0:0:0:0:
64,192,252117,1,0,0:0:0:0:
448,192,252439,1,0,0:0:0:0:
64,192,252439,1,0,0:0:0:0:
192,192,252653,1,0,0:0:0:0:
320,192,252760,1,0,0:0:0:0:
64,192,252760,1,0,0:0:0:0:
448,192,252867,1,0,0:0:0:0:
64,192,252974,1,0,0:0:0:0:
192,192,253189,1,0,0:0:0:0:
448,192,253296,1,0,0:0:0:0:
64,192,253403,1,0,0:0:0:0:
192,192,253510,1,0,0:0:0:0:
320,192,253617,1,0,0:0:0:0:
64,192,253832,1,0,0:0:0:0:
192,192,253832,1,0,0:0:0:0:
448,192,254153,1,0,0:0:0:0:
192,192,254153,1,0,0:0:0:0:
64,192,254367,1,0,0:0:0:0:
320,192,254474,1,0,0:0:0:0:
192,192,254474,1,0,0:0:0:0:
448,192,254582,1,0,0:0:0:0:
64,192,254689,1,0,0:0:0:0:
320,192,254903,1,0,0:0:0:0:
448,192,255010,1,0,0:0:0:0:
64,192,255117,1,0,0:0:0:0:
320,192,255224,1,0,0:0:0:0:
192,192,255332,1,0,0:0:0:0:
64,192,255546,1,0,0:0:0:0:
320,192,255546,1,0,0:0:0:0:
448,192,255867,1,0,0:0:0:0:
320,192,255867,1,0,0:0:0:0:
64,192,256082,1,0,0:0:0:0:
192,192,256189,1,0,0:0:0:0:
448,192,256189,1,0,0:0:0:0:
320,192,256296,1,0,0:0:0:0:
64,192,256403,1,0,0:0:0:0:
448,192,256617,1,0,0:0:0:0:
320,192,256724,1,0,0:0:0:0:
64,192,256832,1,0,0:0:0:0:
448,192,256939,1,0,0:0:0:0:
192,192,257046,1,0,0:0:0:0:
64,192,257260,1,0,0:0:0:0:
448,192,257260,1,0,0:0:0:0:
320,192,257582,1,0,0:0:0:0:
448,192,257582,1,0,0:0:0:0:
64,192,257796,1,0,0:0:0:0:
192,192,257903,1,0,0:0:0:0:
448,192,257903,1,0,0:0:0:0:
320,192,258010,1,0,0:0:0:0:
64,192,258117,1,0,0:0:0:0:
192,192,258332,1,0,0:0:0:0:
448,192,258546,1,0,0:0:0:0:
320,192,258760,1,0,0:0:0:0:
64,192,258974,1,0,0:0:0:0:
192,192,259189,1,0,0:0:0:0:
320,192,259403,1,0,0:0:0:0:
448,192,259617,1,0,0:0:0:0:
320,192,259724,1,0,0:0:0:0:
64,192,259832,1,0,0:0:0:0:
448,192,259832,1,0,0:0:0:0:
192,192,260046,1,0,0:0:0:0:
448,192,260153,1,0,0:0:0:0:
64,192,260260,1,0,0:0:0:0:
320,192,260260,1,0,0:0:0:0:
192,192,260367,1,0,0:0:0:0:
320,192,260474,1,0,0:0:0:0:
64,192,260689,1,0,0:0:0:0:
192,192,260689,1,0,0:0:0:0:
448,192,261010,1,0,0:0:0:0:
192,192,261010,1,0,0:0:0:0:
320,192,261117,1,0,0:0:0:0:
64,192,261224,1,0,0:0:0:0:
320,192,261332,1,0,0:0:0:0:
192,192,261332,1,0,0:0:0:0:
448,192,261439,1,0,0:0:0:0:
64,192,261546,1,0,0:0:0:0:
320,192,261760,1,0,0:0:0:0:
448,192,261867,1,0,0:0:0:0:
64,192,261974,1,0,0:0:0:0:
192,192,261974,1,0,0:0:0:0:
320,192,262082,1,0,0:0:0:0:
192,192,262189,1,0,0:0:0:0:
64,192,262403,1,0,0:0:0:0:
320,192,262403,1,0,0:0:0:0:
448,192,262724,1,0,0:0:0:0:
320,192,262724,1,0,0:0:0:0:
192,192,262832,1,0,0:0:0:0:
64,192,262939,1,0,0:0:0:0:
192,192,263046,1,0,0:0:0:0:
448,192,263046,1,0,0:0:0:0:
320,192,263153,1,0,0:0:0:0:
64,192,263260,1,0,0:0:0:0:
448,192,263474,1,0,0:0:0:0:
320,192,263582,1,0,0:0:0:0:
64,192,263689,1,0,0:0:0:0:
192,192,263689,1,0,0:0:0:0:
448,192,263796,1,0,0:0:0:0:
192,192,263903,1,0,0:0:0:0:
64,192,264117,1,0,0:0:0:0:
448,192,264117,1,0,0:0:0:0:
320,192,264439,1,0,0:0:0:0:
448,192,264439,1,0,0:0:0:0:
192,192,264546,1,0,0:0:0:0:
64,192,264653,1,0,0:0:0:0:
192,192,264760,1,0,0:0:0:0:
448,192,264760,1,0,0:0:0:0:
320,192,264867,1,0,0:0:0:0:
64,192,264974,1,0,0:0:0:0:
192,192,265189,1,0,0:0:0:0:
448,192,265296,1,0,0:0:0:0:
64,192,265403,1,0,0:0:0:0:
320,192,265403,1,0,0:0:0:0:
192,192,265510,1,0,0:0:0:0:
320,192,265617,1,0,0:0:0:0:
192,192,265832,1,0,0:0:0:0:
64,192,265832,1,0,0:0:0:0:
448,192,266153,1,0,0:0:0:0:
64,192,266153,1,0,0:0:0:0:
320,192,266260,1,0,0:0:0:0:
192,192,266367,1,0,0:0:0:0:
320,192,266474,1,0,0:0:0:0:
64,192,266474,1,0,0:0:0:0:
448,192,266582,1,0,0:0:0:0:
64,192,266689,1,0,0:0:0:0:
192,192,266903,1,0,0:0:0:0:
448,192,267010,1,0,0:0:0:0:
64,192,267117,1,0,0:0:0:0:
320,192,267117,1,0,0:0:0:0:
192,192,267224,1,0,0:0:0:0:
320,192,267332,1,0,0:0:0:0:
64,192,267546,1,0,0:0:0:0:
192,192,267546,1,0,0:0:0:0:
448,192,267867,1,0,0:0:0:0:
192,192,267867,1,0,0:0:0:0:
320,192,267974,1,0,0:0:0:0:
64,192,268082,1,0,0:0:0:0:
320,192,268189,1,0,0:0:0:0:
192,192,268189,1,0,0:0:0:0:
448,192,268296,1,0,0:0:0:0:
64,192,268403,1,0,0:0:0:0:
320,192,268617,1,0,0:0:0:0:
448,192,268724,1,0,0:0:0:0:
64,192,268832,1,0,0:0:0:0:
192,192,268832,1,0,0:0:0:0:
320,192,268939,1,0,0:0:0:0:
192,192,269046,1,0,0:0:0:0:
64,192,269260,1,0,0:0:0:0:
320,192,269260,1,0,0:0:0:0:
448,192,269582,1,0,0:0:0:0:
320,192,269582,1,0,0:0:0:0:
192,192,269689,1,0,0:0:0:0:
64,192,269796,1,0,0:0:0:0:
192,192,269903,1,0,0:0:0:0:
448,192,269903,1,0,0:0:0:0:
320,192,270010,1,0,0:0:0:0:
64,192,270117,1,0,0:0:0:0:
448,192,270332,1,0,0:0:0:0:
320,192,270439,1,0,0:0:0:0:
64,192,270546,1,0,0:0:0:0:
192,192,270546,1,0,0:0:0:0:
448,192,270653,1,0,0:0:0:0:
192,192,270760,1,0,0:0:0:0:
64,192,270974,1,0,0:0:0:0:
448,192,270974,1,0,0:0:0:0:
320,192,271296,1,0,0:0:0:0:
448,192,271296,1,0,0:0:0:0:
192,192,271403,1,0,0:0:0:0:
64,192,271510,1,0,0:0:0:0:
192,192,271617,1,0,0:0:0:0:
448,192,271617,1,0,0:0:0:0:
320,192,271724,1,0,0:0:0:0:
64,192,271832,1,0,0:0:0:0:
448,192,272046,1,0,0:0:0:0:
192,192,272153,1,0,0:0:0:0:
64,192,272260,1,0,0:0:0:0:
320,192,272260,1,0,0:0:0:0:
448,192,272367,1,0,0:0:0:0:
320,192,272474,1,0,0:0:0:0:
64,192,272689,1,0,0:0:0:0:
448,192,272689,1,0,0:0:0:0:
192,192,273010,1,0,0:0:0:0:
448,192,273010,1,0,0:0:0:0:
320,192,273117,1,0,0:0:0:0:
64,192,273224,1,0,0:0:0:0:
320,192,273332,1,0,0:0:0:0:
448,192,273332,1,0,0:0:0:0:
192,192,273439,1,0,0:0:0:0:
64,192,273546,1,0,0:0:0:0:
448,192,273546,1,0,0:0:0:0:
320,192,273760,1,0,0:0:0:0:
448,192,273867,1,0,0:0:0:0:
64,192,273974,1,0,0:0:0:0:
192,192,273974,1,0,0:0:0:0:
320,192,274082,1,0,0:0:0:0:
192,192,274189,1,0,0:0:0:0:
64,192,274403,1,0,0:0:0:0:
320,192,274403,1,0,0:0:0:0:
448,192,274724,1,0,0:0:0:0:
320,192,274724,1,0,0:0:0:0:
192,192,274832,1,0,0:0:0:0:
64,192,274939,1,0,0:0:0:0:
192,192,275046,1,0,0:0:0:0:
320,192,275046,1,0,0:0:0:0:
448,192,275153,1,0,0:0:0:0:
64,192,275260,1,0,0:0:0:0:
192,192,275474,1,0,0:0:0:0:
448,192,275582,1,0,0:0:0:0:
64,192,275689,1,0,0:0:0:0:
320,192,275689,1,0,0:0:0:0:
192,192,275796,1,0,0:0:0:0:
320,192,275903,1,0,0:0:0:0:
64,192,276117,1,0,0:0:0:0:
192,192,276117,1,0,0:0:0:0:
448,192,276439,1,0,0:0:0:0:
192,192,276439,1,0,0:0:0:0:
320,192,276546,1,0,0:0:0:0:
64,192,276653,1,0,0:0:0:0:
320,192,276760,1,0,0:0:0:0:
448,192,276760,1,0,0:0:0:0:
192,192,276867,1,0,0:0:0:0:
64,192,276974,1,0,0:0:0:0:
448,192,277189,1,0,0:0:0:0:
192,192,277296,1,0,0:0:0:0:
64,192,277403,1,0,0:0:0:0:
320,192,277403,1,0,0:0:0:0:
448,192,277510,1,0,0:0:0:0:
320,192,277617,1,0,0:0:0:0:
64,192,277832,1,0,0:0:0:0:
448,192,277832,1,0,0:0:0:0:
192,192,278153,1,0,0:0:0:0:
448,192,278153,1,0,0:0:0:0:
320,192,278260,1,0,0:0:0:0:
64,192,278367,1,0,0:0:0:0:
320,192,278474,1,0,0:0:0:0:
448,192,278474,1,0,0:0:0:0:
192,192,278582,1,0,0:0:0:0:
64,192,278689,1,0,0:0:0:0:
320,192,278903,1,0,0:0:0:0:
448,192,279010,1,0,0:0:0:0:
64,192,279117,1,0,0:0:0:0:
192,192,279117,1,0,0:0:0:0:
320,192,279224,1,0,0:0:0:0:
192,192,279332,1,0,0:0:0:0:
320,192,279546,1,0,0:0:0:0:
64,192,279546,1,0,0:0:0:0:
448,192,279867,1,0,0:0:0:0:
64,192,279867,1,0,0:0:0:0:
192,192,279974,1,0,0:0:0:0:
320,192,280082,1,0,0:0:0:0:
192,192,280189,1,0,0:0:0:0:
64,192,280189,1,0,0:0:0:0:
448,192,280296,1,0,0:0:0:0:
64,192,280403,1,0,0:0:0:0:
320,192,280617,1,0,0:0:0:0:
448,192,280724,1,0,0:0:0:0:
64,192,280832,1,0,0:0:0:0:
192,192,280832,1,0,0:0:0:0:
320,192,280939,1,0,0:0:0:0:
192,192,281046,1,0,0:0:0:0:
64,192,281260,1,0,0:0:0:0:
320,192,281260,1,0,0:0:0:0:
448,192,281582,1,0,0:0:0:0:
320,192,281582,1,0,0:0:0:0:
192,192,281689,1,0,0:0:0:0:
64,192,281796,1,0,0:0:0:0:
192,192,281903,1,0,0:0:0:0:
320,192,281903,1,0,0:0:0:0:
448,192,282010,1,0,0:0:0:0:
64,192,282117,1,0,0:0:0:0:
192,192,282332,1,0,0:0:0:0:
448,192,282439,1,0,0:0:0:0:
64,192,282546,1,0,0:0:0:0:
320,192,282546,1,0,0:0:0:0:
192,192,282653,1,0,0:0:0:0:
320,192,282760,1,0,0:0:0:0:
64,192,282974,1,0,0:0:0:0:
192,192,282974,1,0,0:0:0:0:
448,192,283296,1,0,0:0:0:0:
192,192,283296,1,0,0:0:0:0:
320,192,283403,1,0,0:0:0:0:
64,192,283510,1,0,0:0:0:0:
320,192,283617,1,0,0:0:0:0:
448,192,283617,1,0,0:0:0:0:
192,192,283724,1,0,0:0:0:0:
64,192,283832,1,0,0:0:0:0:
448,192,284046,1,0,0:0:0:0:
192,192,284153,1,0,0:0:0:0:
64,192,284260,1,0,0:0:0:0:
320,192,284260,1,0,0:0:0:0:
448,192,284367,1,0,0:0:0:0:
320,192,284474,1,0,0:0:0:0:
64,192,284689,1,0,0:0:0:0:
448,192,284689,1,0,0:0:0:0:
192,192,285010,1,0,0:0:0:0:
448,192,285010,1,0,0:0:0:0:
320,192,285117,1,0,0:0:0:0:
64,192,285224,1,0,0:0:0:0:
320,192,285332,1,0,0:0:0:0:
448,192,285332,1,0,0:0:0:0:
192,192,285439,1,0,0:0:0:0:
64,192,285546,1,0,0:0:0:0:
192,192,285760,1,0,0:0:0:0:
320,192,285974,1,0,0:0:0:0:
448,192,286189,5,0,0:0:0:0:
192,192,286403,1,0,0:0:0:0:
64,192,286617,1,0,0:0:0:0:
448,192,286832,1,0,0:0:0:0:
320,192,287046,1,0,0:0:0:0:
64,192,287260,5,0,0:0:0:0:
448,192,287260,1,0,0:0:0:0:
192,192,297265,5,0,0:0:0:0:
448,192,297435,1,0,0:0:0:0:
320,192,297605,1,0,0:0:0:0:
64,192,297776,1,0,0:0:0:0:
192,192,297946,1,0,0:0:0:0:
64,192,298117,1,0,0:0:0:0:
192,192,298287,1,0,0:0:0:0:
320,192,298458,1,0,0:0:0:0:
448,192,298628,1,0,0:0:0:0:
192,192,298799,1,0,0:0:0:0:
320,192,298969,1,0,0:0:0:0:
64,192,299140,1,0,0:0:0:0:
448,192,299310,1,0,0:0:0:0:
64,192,299480,1,0,0:0:0:0:
192,192,299651,1,0,0:0:0:0:
320,192,299821,1,0,0:0:0:0:
448,192,299992,1,0,0:0:0:0:
64,192,300162,1,0,0:0:0:0:
192,192,300333,1,0,0:0:0:0:
320,192,300503,1,0,0:0:0:0:
448,192,300674,1,0,0:0:0:0:
64,192,300844,1,0,0:0:0:0:
320,192,301015,1,0,0:0:0:0:
192,192,301185,1,0,0:0:0:0:
448,192,301355,1,0,0:0:0:0:
64,192,301526,1,0,0:0:0:0:
192,192,301696,1,0,0:0:0:0:
448,192,301867,1,0,0:0:0:0:
320,192,302037,1,0,0:0:0:0:
192,192,302208,1,0,0:0:0:0:
64,192,302378,1,0,0:0:0:0:
320,192,302549,1,0,0:0:0:0:
192,192,302719,5,0,0:0:0:0:
448,192,302890,1,0,0:0:0:0:
320,192,303060,1,0,0:0:0:0:
64,192,303230,1,0,0:0:0:0:
192,192,303401,1,0,0:0:0:0:
64,192,303571,1,0,0:0:0:0:
192,192,303742,1,0,0:0:0:0:
320,192,303912,1,0,0:0:0:0:
448,192,304083,1,0,0:0:0:0:
192,192,304253,1,0,0:0:0:0:
320,192,304424,1,0,0:0:0:0:
64,192,304594,1,0,0:0:0:0:
448,192,304765,1,0,0:0:0:0:
64,192,304935,1,0,0:0:0:0:
192,192,305105,1,0,0:0:0:0:
320,192,305276,1,0,0:0:0:0:
448,192,305446,1,0,0:0:0:0:
64,192,305617,1,0,0:0:0:0:
192,192,305787,1,0,0:0:0:0:
320,192,305958,1,0,0:0:0:0:
448,192,306128,1,0,0:0:0:0:
64,192,306299,1,0,0:0:0:0:
320,192,306469,1,0,0:0:0:0:
192,192,306640,1,0,0:0:0:0:
448,192,306810,1,0,0:0:0:0:
64,192,306980,1,0,0:0:0:0:
192,192,307151,1,0,0:0:0:0:
320,192,307321,1,0,0:0:0:0:
448,192,307492,1,0,0:0:0:0:
64,192,307492,1,0,0:0:0:0:
192,192,307577,1,0,0:0:0:0:
320,192,307662,1,0,0:0:0:0:
448,192,307747,1,0,0:0:0:0:
64,192,307833,1,0,0:0:0:0:
192,192,307918,1,0,0:0:0:0:
320,192,308003,1,0,0:0:0:0:
448,192,308088,1,0,0:0:0:0:
192,192,308174,5,0,0:0:0:0:
64,192,308174,1,0,0:0:0:0:
448,192,308344,1,0,0:0:0:0:
320,192,308515,1,0,0:0:0:0:
64,192,308685,1,0,0:0:0:0:
448,192,308685,1,0,0:0:0:0:
192,192,308855,1,0,0:0:0:0:
64,192,309026,1,0,0:0:0:0:
192,192,309196,1,0,0:0:0:0:
320,192,309367,1,0,0:0:0:0:
448,192,309537,1,0,0:0:0:0:
64,192,309537,1,0,0:0:0:0:
192,192,309708,1,0,0:0:0:0:
320,192,309878,1,0,0:0:0:0:
64,192,310049,1,0,0:0:0:0:
192,192,310049,1,0,0:0:0:0:
448,192,310219,1,0,0:0:0:0:
64,192,310390,1,0,0:0:0:0:
192,192,310560,1,0,0:0:0:0:
320,192,310730,1,0,0:0:0:0:
448,192,310901,1,0,0:0:0:0:
192,192,310901,1,0,0:0:0:0:
64,192,311071,1,0,0:0:0:0:
192,192,311242,1,0,0:0:0:0:
320,192,311412,1,0,0:0:0:0:
64,192,311412,1,0,0:0:0:0:
448,192,311583,1,0,0:0:0:0:
64,192,311753,1,0,0:0:0:0:
320,192,311924,1,0,0:0:0:0:
192,192,312094,1,0,0:0:0:0:
448,192,312265,1,0,0:0:0:0:
320,192,312265,1,0,0:0:0:0:
64,192,312435,1,0,0:0:0:0:
192,192,312605,1,0,0:0:0:0:
448,192,312776,1,0,0:0:0:0:
64,192,312776,1,0,0:0:0:0:
320,192,312946,1,0,0:0:0:0:
192,192,313117,1,0,0:0:0:0:
64,192,313287,1,0,0:0:0:0:
320,192,313458,1,0,0:0:0:0:
192,192,313628,5,0,0:0:0:0:
64,192,313628,1,0,0:0:0:0:
448,192,313799,1,0,0:0:0:0:
320,192,313969,1,0,0:0:0:0:
64,192,314140,1,0,0:0:0:0:
448,192,314140,1,0,0:0:0:0:
192,192,314310,1,0,0:0:0:0:
64,192,314480,1,0,0:0:0:0:
192,192,314651,1,0,0:0:0:0:
320,192,314821,1,0,0:0:0:0:
448,192,314992,1,0,0:0:0:0:
64,192,314992,1,0,0:0:0:0:
192,192,315162,1,0,0:0:0:0:
320,192,315333,1,0,0:0:0:0:
64,192,315503,1,0,0:0:0:0:
192,192,315503,1,0,0:0:0:0:
448,192,315674,1,0,0:0:0:0:
64,192,315844,1,0,0:0:0:0:
192,192,316015,1,0,0:0:0:0:
320,192,316185,1,0,0:0:0:0:
448,192,316355,1,0,0:0:0:0:
192,192,316355,1,0,0:0:0:0:
64,192,316526,1,0,0:0:0:0:
192,192,316696,1,0,0:0:0:0:
320,192,316867,1,0,0:0:0:0:
64,192,316867,1,0,0:0:0:0:
448,192,317037,1,0,0:0:0:0:
64,192,317208,1,0,0:0:0:0:
320,192,317378,1,0,0:0:0:0:
192,192,317549,1,0,0:0:0:0:
448,192,317719,1,0,0:0:0:0:
320,192,317719,1,0,0:0:0:0:
64,192,317890,5,0,0:0:0:0:
192,192,318060,1,0,0:0:0:0:
320,192,318230,1,0,0:0:0:0:
448,192,318401,1,0,0:0:0:0:
192,192,318571,1,0,0:0:0:0:
320,192,318742,1,0,0:0:0:0:
64,192,318912,1,0,0:0:0:0:
320,192,319083,5,0,0:0:0:0:
448,192,319253,1,0,0:0:0:0:
320,192,319424,1,0,0:0:0:0:
64,192,319594,1,0,0:0:0:0:
320,192,319765,1,0,0:0:0:0:
192,192,319935,1,0,0:0:0:0:
64,192,320105,1,0,0:0:0:0:
192,192,320276,1,0,0:0:0:0:
320,192,320446,1,0,0:0:0:0:
448,192,320617,1,0,0:0:0:0:
320,192,320787,1,0,0:0:0:0:
64,192,320958,1,0,0:0:0:0:
192,192,321128,1,0,0:0:0:0:
320,192,321299,1,0,0:0:0:0:
448,192,321469,1,0,0:0:0:0:
320,192,321640,1,0,0:0:0:0:
64,192,321810,1,0,0:0:0:0:
448,192,321980,1,0,0:0:0:0:
320,192,322151,1,0,0:0:0:0:
192,192,322492,1,0,0:0:0:0:
64,192,322662,1,0,0:0:0:0:
64,192,323174,1,0,0:0:0:0:
448,192,323344,1,0,0:0:0:0:
320,192,323515,1,0,0:0:0:0:
192,192,323855,1,0,0:0:0:0:
64,192,324026,1,0,0:0:0:0:
64,192,324537,1,0,0:0:0:0:
448,192,324708,1,0,0:0:0:0:
320,192,324878,1,0,0:0:0:0:
448,192,325219,1,0,0:0:0:0:
192,192,325390,1,0,0:0:0:0:
64,192,325730,1,0,0:0:0:0:
448,192,325901,1,0,0:0:0:0:
192,192,326071,1,0,0:0:0:0:
320,192,326242,1,0,0:0:0:0:
64,192,326412,1,0,0:0:0:0:
448,192,326583,1,0,0:0:0:0:
64,192,326753,1,0,0:0:0:0:
320,192,326924,1,0,0:0:0:0:
192,192,327094,1,0,0:0:0:0:
64,192,327265,1,0,0:0:0:0:
448,192,327435,1,0,0:0:0:0:
320,192,327605,1,0,0:0:0:0:
192,192,327946,1,0,0:0:0:0:
64,192,328117,1,0,0:0:0:0:
64,192,328628,1,0,0:0:0:0:
448,192,328799,1,0,0:0:0:0:
320,192,328969,1,0,0:0:0:0:
192,192,329310,1,0,0:0:0:0:
64,192,329480,1,0,0:0:0:0:
64,192,329992,1,0,0:0:0:0:
448,192,330162,1,0,0:0:0:0:
320,192,330333,1,0,0:0:0:0:
448,192,330674,1,0,0:0:0:0:
192,192,330844,1,0,0:0:0:0:
64,192,331185,1,0,0:0:0:0:
448,192,331355,1,0,0:0:0:0:
192,192,331526,1,0,0:0:0:0:
320,192,331696,1,0,0:0:0:0:
64,192,331867,1,0,0:0:0:0:
448,192,332037,1,0,0:0:0:0:
64,192,332208,1,0,0:0:0:0:
320,192,332378,1,0,0:0:0:0:
192,192,332549,1,0,0:0:0:0:
64,192,332719,1,0,0:0:0:0:
448,192,333060,1,0,0:0:0:0:
320,192,334083,1,0,0:0:0:0:
192,192,334424,1,0,0:0:0:0:
64,192,335446,1,0,0:0:0:0:
320,192,335787,1,0,0:0:0:0:
448,192,336810,1,0,0:0:0:0:
320,192,337151,1,0,0:0:0:0:
64,192,337492,1,0,0:0:0:0:
192,192,337833,1,0,0:0:0:0:
64,192,338174,1,0,0:0:0:0:
320,192,338515,1,0,0:0:0:0:
448,192,339537,1,0,0:0:0:0:
192,192,339878,1,0,0:0:0:0:
64,192,340901,1,0,0:0:0:0:
320,192,341242,1,0,0:0:0:0:
448,192,342265,1,0,0:0:0:0:
192,192,342605,1,0,0:0:0:0:
320,192,343628,1,0,0:0:0:0:
64,192,343798,1,0,0:0:0:0:
192,192,343968,1,0,0:0:0:0:
320,192,344139,1,0,0:0:0:0:
64,192,344309,1,0,0:0:0:0:
448,192,344480,1,0,0:0:0:0:
320,192,344650,1,0,0:0:0:0:
192,192,344991,1,0,0:0:0:0:
64,192,345332,1,0,0:0:0:0:
448,192,345673,1,0,0:0:0:0:
192,192,345843,1,0,0:0:0:0:
320,192,346014,1,0,0:0:0:0:
448,192,346184,1,0,0:0:0:0:
64,192,346355,1,0,0:0:0:0:
448,192,346525,1,0,0:0:0:0:
320,192,346696,1,0,0:0:0:0:
64,192,347037,1,0,0:0:0:0:
448,192,347037,1,0,0:0:0:0:
64,192,347378,1,0,0:0:0:0:
448,192,347378,1,0,0:0:0:0:
320,192,347718,1,0,0:0:0:0:
64,192,347889,1,0,0:0:0:0:
192,192,348059,1,0,0:0:0:0:
320,192,348230,1,0,0:0:0:0:
64,192,348400,1,0,0:0:0:0:
448,192,348571,1,0,0:0:0:0:
320,192,348741,1,0,0:0:0:0:
192,192,349082,1,0,0:0:0:0:
64,192,349423,1,0,0:0:0:0:
448,192,349764,1,0,0:0:0:0:
192,192,349934,1,0,0:0:0:0:
320,192,350105,1,0,0:0:0:0:
448,192,350275,1,0,0:0:0:0:
64,192,350446,1,0,0:0:0:0:
448,192,350616,1,0,0:0:0:0:
320,192,350787,1,0,0:0:0:0:
64,192,351128,1,0,0:0:0:0:
448,192,351128,1,0,0:0:0:0:
64,192,351468,1,0,0:0:0:0:
448,192,351468,1,0,0:0:0:0:
192,192,351809,1,0,0:0:0:0:
448,192,351809,1,0,0:0:0:0:
320,192,352150,1,0,0:0:0:0:
448,192,352150,1,0,0:0:0:0:
64,192,352491,1,0,0:0:0:0:
192,192,352491,1,0,0:0:0:0:
448,192,352662,1,0,0:0:0:0:
320,192,352832,1,0,0:0:0:0:
64,192,352832,1,0,0:0:0:0:
192,192,353173,1,0,0:0:0:0:
448,192,353173,1,0,0:0:0:0:
64,192,353514,1,0,0:0:0:0:
320,192,353514,1,0,0:0:0:0:
320,192,353855,1,0,0:0:0:0:
192,192,353855,1,0,0:0:0:0:
192,192,354196,1,0,0:0:0:0:
64,192,354196,1,0,0:0:0:0:
320,192,354537,1,0,0:0:0:0:
192,192,354537,1,0,0:0:0:0:
448,192,354707,1,0,0:0:0:0:
192,192,354878,1,0,0:0:0:0:
320,192,354878,1,0,0:0:0:0:
64,192,355218,1,0,0:0:0:0:
448,192,355218,1,0,0:0:0:0:
320,192,355559,1,0,0:0:0:0:
192,192,355559,1,0,0:0:0:0:
64,192,355900,1,0,0:0:0:0:
448,192,355900,1,0,0:0:0:0:
448,192,356241,1,0,0:0:0:0:
320,192,356241,1,0,0:0:0:0:
448,192,356582,1,0,0:0:0:0:
192,192,356582,1,0,0:0:0:0:
192,192,356923,1,0,0:0:0:0:
64,192,356923,1,0,0:0:0:0:
320,192,357264,1,0,0:0:0:0:
448,192,357264,1,0,0:0:0:0:
64,192,357605,1,0,0:0:0:0:
320,192,357605,1,0,0:0:0:0:
448,192,357946,1,0,0:0:0:0:
192,192,357946,1,0,0:0:0:0:
192,192,358287,1,0,0:0:0:0:
320,192,358287,1,0,0:0:0:0:
448,192,358628,1,0,0:0:0:0:
64,192,358628,1,0,0:0:0:0:
320,192,358798,1,0,0:0:0:0:
64,192,358968,1,0,0:0:0:0:
448,192,358968,1,0,0:0:0:0:
448,192,359309,1,0,0:0:0:0:
192,192,359650,1,0,0:0:0:0:
448,192,359991,1,0,0:0:0:0:
64,192,359991,1,0,0:0:0:0:
448,192,360332,1,0,0:0:0:0:
192,192,360332,1,0,0:0:0:0:
64,192,360673,1,0,0:0:0:0:
192,192,360673,1,0,0:0:0:0:
448,192,360843,1,0,0:0:0:0:
320,192,361014,1,0,0:0:0:0:
192,192,361014,1,0,0:0:0:0:
192,192,361355,1,0,0:0:0:0:
448,192,361355,1,0,0:0:0:0:
64,192,361696,1,0,0:0:0:0:
320,192,361696,1,0,0:0:0:0:
448,192,361696,1,0,0:0:0:0:
320,192,362037,1,0,0:0:0:0:
192,192,362037,1,0,0:0:0:0:
64,192,362378,1,0,0:0:0:0:
320,192,362378,1,0,0:0:0:0:
320,192,362718,1,0,0:0:0:0:
192,192,362718,1,0,0:0:0:0:
448,192,362889,1,0,0:0:0:0:
192,192,363059,1,0,0:0:0:0:
64,192,363059,1,0,0:0:0:0:
448,192,363400,1,0,0:0:0:0:
320,192,363400,1,0,0:0:0:0:
320,192,363741,1,0,0:0:0:0:
192,192,363741,1,0,0:0:0:0:
64,192,363741,1,0,0:0:0:0:
448,192,364082,1,0,0:0:0:0:
320,192,364082,1,0,0:0:0:0:
320,192,364423,1,0,0:0:0:0:
192,192,364423,1,0,0:0:0:0:
448,192,364764,1,0,0:0:0:0:
64,192,364764,1,0,0:0:0:0:
192,192,364934,1,0,0:0:0:0:
192,192,365105,1,0,0:0:0:0:
448,192,365105,1,0,0:0:0:0:
320,192,365446,1,0,0:0:0:0:
448,192,365446,1,0,0:0:0:0:
64,192,365787,1,0,0:0:0:0:
320,192,365787,1,0,0:0:0:0:
192,192,366128,1,0,0:0:0:0:
64,192,366128,1,0,0:0:0:0:
320,192,366468,1,0,0:0:0:0:
448,192,366468,1,0,0:0:0:0:
448,192,366809,1,0,0:0:0:0:
64,192,366809,1,0,0:0:0:0:
320,192,366980,1,0,0:0:0:0:
64,192,367150,1,0,0:0:0:0:
192,192,367150,1,0,0:0:0:0:
192,192,368173,5,0,0:0:0:0:
448,192,368343,1,0,0:0:0:0:
320,192,368513,1,0,0:0:0:0:
64,192,368684,1,0,0:0:0:0:
192,192,368854,1,0,0:0:0:0:
64,192,369025,1,0,0:0:0:0:
192,192,369195,1,0,0:0:0:0:
320,192,369366,1,0,0:0:0:0:
448,192,369536,1,0,0:0:0:0:
192,192,369707,1,0,0:0:0:0:
320,192,369877,1,0,0:0:0:0:
64,192,370048,1,0,0:0:0:0:
448,192,370218,1,0,0:0:0:0:
64,192,370388,1,0,0:0:0:0:
192,192,370559,1,0,0:0:0:0:
320,192,370729,1,0,0:0:0:0:
448,192,370900,1,0,0:0:0:0:
64,192,371070,1,0,0:0:0:0:
192,192,371241,1,0,0:0:0:0:
320,192,371411,1,0,0:0:0:0:
448,192,371582,1,0,0:0:0:0:
64,192,371752,1,0,0:0:0:0:
320,192,371923,1,0,0:0:0:0:
192,192,372093,1,0,0:0:0:0:
448,192,372263,1,0,0:0:0:0:
64,192,372434,1,0,0:0:0:0:
192,192,372604,1,0,0:0:0:0:
448,192,372775,1,0,0:0:0:0:
320,192,372945,1,0,0:0:0:0:
192,192,373116,1,0,0:0:0:0:
64,192,373286,1,0,0:0:0:0:
320,192,373457,1,0,0:0:0:0:
192,192,373627,5,0,0:0:0:0:
448,192,373798,1,0,0:0:0:0:
320,192,373968,1,0,0:0:0:0:
64,192,374138,1,0,0:0:0:0:
192,192,374309,1,0,0:0:0:0:
64,192,374479,1,0,0:0:0:0:
192,192,374650,1,0,0:0:0:0:
320,192,374820,1,0,0:0:0:0:
448,192,374991,1,0,0:0:0:0:
192,192,375161,1,0,0:0:0:0:
320,192,375332,1,0,0:0:0:0:
64,192,375502,1,0,0:0:0:0:
448,192,375673,1,0,0:0:0:0:
64,192,375843,1,0,0:0:0:0:
192,192,376013,1,0,0:0:0:0:
320,192,376184,1,0,0:0:0:0:
448,192,376354,1,0,0:0:0:0:
64,192,376525,1,0,0:0:0:0:
192,192,376695,1,0,0:0:0:0:
320,192,376866,1,0,0:0:0:0:
448,192,377036,1,0,0:0:0:0:
64,192,377207,1,0,0:0:0:0:
320,192,377377,1,0,0:0:0:0:
192,192,377548,1,0,0:0:0:0:
448,192,377718,1,0,0:0:0:0:
64,192,377888,1,0,0:0:0:0:
192,192,378059,1,0,0:0:0:0:
320,192,378229,1,0,0:0:0:0:
448,192,378400,1,0,0:0:0:0:
320,192,378570,1,0,0:0:0:0:
192,192,378741,1,0,0:0:0:0:
64,192,378911,1,0,0:0:0:0:
192,192,379082,5,0,0:0:0:0:
448,192,379252,1,0,0:0:0:0:
320,192,379423,1,0,0:0:0:0:
64,192,379593,1,0,0:0:0:0:
192,192,379763,1,0,0:0:0:0:
64,192,379934,1,0,0:0:0:0:
192,192,380104,1,0,0:0:0:0:
320,192,380275,1,0,0:0:0:0:
448,192,380445,1,0,0:0:0:0:
192,192,380616,1,0,0:0:0:0:
320,192,380786,1,0,0:0:0:0:
64,192,380957,1,0,0:0:0:0:
448,192,381127,1,0,0:0:0:0:
64,192,381298,1,0,0:0:0:0:
192,192,381468,1,0,0:0:0:0:
320,192,381638,1,0,0:0:0:0:
448,192,381809,1,0,0:0:0:0:
64,192,381979,1,0,0:0:0:0:
192,192,382150,1,0,0:0:0:0:
320,192,382320,1,0,0:0:0:0:
448,192,382491,1,0,0:0:0:0:
64,192,382661,1,0,0:0:0:0:
320,192,382832,1,0,0:0:0:0:
192,192,383002,1,0,0:0:0:0:
448,192,383173,1,0,0:0:0:0:
64,192,383343,1,0,0:0:0:0:
192,192,383513,1,0,0:0:0:0:
448,192,383684,1,0,0:0:0:0:
320,192,383854,1,0,0:0:0:0:
192,192,384025,1,0,0:0:0:0:
64,192,384195,1,0,0:0:0:0:
320,192,384366,1,0,0:0:0:0:
192,192,384536,5,0,0:0:0:0:
448,192,384707,1,0,0:0:0:0:
320,192,384877,1,0,0:0:0:0:
64,192,385048,1,0,0:0:0:0:
192,192,385218,1,0,0:0:0:0:
64,192,385388,1,0,0:0:0:0:
192,192,385559,1,0,0:0:0:0:
320,192,385729,1,0,0:0:0:0:
448,192,385900,1,0,0:0:0:0:
192,192,386070,1,0,0:0:0:0:
320,192,386241,1,0,0:0:0:0:
64,192,386411,1,0,0:0:0:0:
448,192,386582,1,0,0:0:0:0:
64,192,386752,1,0,0:0:0:0:
192,192,386923,1,0,0:0:0:0:
320,192,387093,1,0,0:0:0:0:
448,192,387263,1,0,0:0:0:0:
64,192,387434,1,0,0:0:0:0:
192,192,387604,1,0,0:0:0:0:
320,192,387775,1,0,0:0:0:0:
448,192,387945,1,0,0:0:0:0:
64,192,388116,1,0,0:0:0:0:
320,192,388286,1,0,0:0:0:0:
192,192,388457,1,0,0:0:0:0:
448,192,388627,1,0,0:0:0:0:
64,192,388798,1,0,0:0:0:0:
192,192,388968,1,0,0:0:0:0:
320,192,389138,1,0,0:0:0:0:
448,192,389309,1,0,0:0:0:0:
320,192,389309,1,0,0:0:0:0:
64,192,389309,1,0,0:0:0:0:
192,192,389309,1,0,0:0:0:0:
192,192,389991,5,0,0:0:0:0:
64,192,389991,1,0,0:0:0:0:
320,192,389991,1,0,0:0:0:0:
448,192,390161,1,0,0:0:0:0:
320,192,390332,1,0,0:0:0:0:
64,192,390502,1,0,0:0:0:0:
448,192,390502,1,0,0:0:0:0:
192,192,390673,1,0,0:0:0:0:
64,192,390843,1,0,0:0:0:0:
192,192,391013,1,0,0:0:0:0:
320,192,391184,1,0,0:0:0:0:
448,192,391354,1,0,0:0:0:0:
64,192,391354,1,0,0:0:0:0:
192,192,391525,1,0,0:0:0:0:
320,192,391695,1,0,0:0:0:0:
64,192,391866,1,0,0:0:0:0:
192,192,391866,1,0,0:0:0:0:
448,192,392036,1,0,0:0:0:0:
64,192,392207,1,0,0:0:0:0:
192,192,392377,1,0,0:0:0:0:
320,192,392548,1,0,0:0:0:0:
448,192,392718,1,0,0:0:0:0:
192,192,392718,1,0,0:0:0:0:
64,192,392888,1,0,0:0:0:0:
192,192,393059,1,0,0:0:0:0:
320,192,393229,1,0,0:0:0:0:
64,192,393229,1,0,0:0:0:0:
448,192,393400,1,0,0:0:0:0:
64,192,393570,1,0,0:0:0:0:
320,192,393741,1,0,0:0:0:0:
192,192,393911,1,0,0:0:0:0:
448,192,394082,1,0,0:0:0:0:
320,192,394082,1,0,0:0:0:0:
64,192,394252,1,0,0:0:0:0:
192,192,394423,1,0,0:0:0:0:
448,192,394593,1,0,0:0:0:0:
64,192,394593,1,0,0:0:0:0:
320,192,394763,1,0,0:0:0:0:
192,192,394934,1,0,0:0:0:0:
64,192,395104,1,0,0:0:0:0:
320,192,395275,1,0,0:0:0:0:
64,192,395445,5,0,0:0:0:0:
448,192,395445,1,0,0:0:0:0:
192,192,395445,1,0,0:0:0:0:
320,192,395616,1,0,0:0:0:0:
192,192,395786,1,0,0:0:0:0:
448,192,395957,1,0,0:0:0:0:
64,192,395957,1,0,0:0:0:0:
320,192,396127,1,0,0:0:0:0:
448,192,396298,1,0,0:0:0:0:
320,192,396468,1,0,0:0:0:0:
192,192,396638,1,0,0:0:0:0:
64,192,396809,1,0,0:0:0:0:
448,192,396809,1,0,0:0:0:0:
320,192,396979,1,0,0:0:0:0:
192,192,397150,1,0,0:0:0:0:
448,192,397320,1,0,0:0:0:0:
320,192,397320,1,0,0:0:0:0:
64,192,397491,1,0,0:0:0:0:
448,192,397661,1,0,0:0:0:0:
320,192,397832,1,0,0:0:0:0:
192,192,398002,1,0,0:0:0:0:
64,192,398173,1,0,0:0:0:0:
320,192,398173,1,0,0:0:0:0:
448,192,398343,1,0,0:0:0:0:
320,192,398513,1,0,0:0:0:0:
192,192,398684,1,0,0:0:0:0:
448,192,398684,1,0,0:0:0:0:
64,192,398854,1,0,0:0:0:0:
448,192,399025,1,0,0:0:0:0:
192,192,399195,1,0,0:0:0:0:
320,192,399366,1,0,0:0:0:0:
64,192,399536,1,0,0:0:0:0:
192,192,399536,1,0,0:0:0:0:
448,192,399707,1,0,0:0:0:0:
320,192,399877,1,0,0:0:0:0:
64,192,400048,1,0,0:0:0:0:
448,192,400048,1,0,0:0:0:0:
192,192,400218,1,0,0:0:0:0:
320,192,400388,1,0,0:0:0:0:
448,192,400559,1,0,0:0:0:0:
192,192,400729,1,0,0:0:0:0:
320,192,400900,5,0,0:0:0:0:
64,192,400900,1,0,0:0:0:0:
448,192,400900,1,0,0:0:0:0:
192,192,401070,1,0,0:0:0:0:
320,192,401241,1,0,0:0:0:0:
64,192,401411,1,0,0:0:0:0:
448,192,401411,1,0,0:0:0:0:
320,192,401582,1,0,0:0:0:0:
64,192,401752,1,0,0:0:0:0:
320,192,401923,1,0,0:0:0:0:
192,192,402093,1,0,0:0:0:0:
448,192,402263,1,0,0:0:0:0:
64,192,402263,1,0,0:0:0:0:
320,192,402434,1,0,0:0:0:0:
192,192,402604,1,0,0:0:0:0:
64,192,402775,1,0,0:0:0:0:
320,192,402775,1,0,0:0:0:0:
448,192,402945,1,0,0:0:0:0:
64,192,403116,1,0,0:0:0:0:
320,192,403286,1,0,0:0:0:0:
192,192,403457,1,0,0:0:0:0:
448,192,403627,1,0,0:0:0:0:
320,192,403627,1,0,0:0:0:0:
64,192,403798,1,0,0:0:0:0:
320,192,403968,1,0,0:0:0:0:
192,192,404138,1,0,0:0:0:0:
64,192,404138,1,0,0:0:0:0:
448,192,404309,1,0,0:0:0:0:
64,192,404479,1,0,0:0:0:0:
192,192,404650,1,0,0:0:0:0:
320,192,404820,1,0,0:0:0:0:
448,192,404991,1,0,0:0:0:0:
192,192,404991,1,0,0:0:0:0:
64,192,405161,1,0,0:0:0:0:
320,192,405332,1,0,0:0:0:0:
448,192,405502,1,0,0:0:0:0:
64,192,405502,1,0,0:0:0:0:
192,192,405673,1,0,0:0:0:0:
320,192,405843,1,0,0:0:0:0:
64,192,406013,1,0,0:0:0:0:
192,192,406184,1,0,0:0:0:0:
64,192,406354,5,0,0:0:0:0:
448,192,406354,1,0,0:0:0:0:
320,192,406354,1,0,0:0:0:0:
192,192,406525,1,0,0:0:0:0:
320,192,406695,1,0,0:0:0:0:
448,192,406866,1,0,0:0:0:0:
64,192,406866,1,0,0:0:0:0:
192,192,407036,1,0,0:0:0:0:
448,192,407207,1,0,0:0:0:0:
192,192,407377,1,0,0:0:0:0:
320,192,407548,1,0,0:0:0:0:
64,192,407718,1,0,0:0:0:0:
448,192,407718,1,0,0:0:0:0:
192,192,407888,1,0,0:0:0:0:
320,192,408059,1,0,0:0:0:0:
448,192,408229,1,0,0:0:0:0:
192,192,408229,1,0,0:0:0:0:
64,192,408400,1,0,0:0:0:0:
448,192,408570,1,0,0:0:0:0:
192,192,408741,1,0,0:0:0:0:
320,192,408911,1,0,0:0:0:0:
64,192,409082,1,0,0:0:0:0:
192,192,409082,1,0,0:0:0:0:
448,192,409252,1,0,0:0:0:0:
192,192,409423,1,0,0:0:0:0:
320,192,409593,1,0,0:0:0:0:
448,192,409593,1,0,0:0:0:0:
64,192,409763,1,0,0:0:0:0:
448,192,409934,1,0,0:0:0:0:
320,192,410104,1,0,0:0:0:0:
192,192,410275,1,0,0:0:0:0:
64,192,410445,1,0,0:0:0:0:
448,192,410616,1,0,0:0:0:0:
192,192,410786,1,0,0:0:0:0:
448,192,410957,1,0,0:0:0:0:
320,192,411127,1,0,0:0:0:0:
192,192,411298,1,0,0:0:0:0:
448,192,411468,1,0,0:0:0:0:
64,192,411638,1,0,0:0:0:0:
192,192,411809,1,0,0:0:0:0:
448,192,411979,1,0,0:0:0:0:
192,192,412150,1,0,0:0:0:0:
64,192,412320,1,0,0:0:0:0:
320,192,412491,1,0,0:0:0:0:
64,192,412661,1,0,0:0:0:0:
192,192,412832,1,0,0:0:0:0:
320,192,413002,1,0,0:0:0:0:
192,192,413173,1,0,0:0:0:0:
320,192,413343,1,0,0:0:0:0:
192,192,413513,1,0,0:0:0:0:
64,192,413684,1,0,0:0:0:0:
192,192,413854,1,0,0:0:0:0:
320,192,414025,1,0,0:0:0:0:
448,192,414195,1,0,0:0:0:0:
64,192,414366,1,0,0:0:0:0:
192,192,414536,1,0,0:0:0:0:
448,192,414707,1,0,0:0:0:0:
192,192,414877,1,0,0:0:0:0:
64,192,415048,1,0,0:0:0:0:
320,192,415218,1,0,0:0:0:0:
64,192,415388,1,0,0:0:0:0:
192,192,415559,1,0,0:0:0:0:
320,192,415729,1,0,0:0:0:0:
192,192,415900,1,0,0:0:0:0:
320,192,416070,1,0,0:0:0:0:
192,192,416241,1,0,0:0:0:0:
64,192,416411,1,0,0:0:0:0:
192,192,416582,1,0,0:0:0:0:
320,192,416752,1,0,0:0:0:0:
448,192,416923,1,0,0:0:0:0:
64,192,417093,1,0,0:0:0:0:
192,192,417263,1,0,0:0:0:0:
448,192,417434,1,0,0:0:0:0:
192,192,417604,1,0,0:0:0:0:
64,192,417775,1,0,0:0:0:0:
320,192,417945,1,0,0:0:0:0:
64,192,418116,1,0,0:0:0:0:
192,192,418286,1,0,0:0:0:0:
320,192,418457,1,0,0:0:0:0:
192,192,418627,1,0,0:0:0:0:
320,192,418798,1,0,0:0:0:0:
192,192,418968,1,0,0:0:0:0:
64,192,419138,1,0,0:0:0:0:
192,192,419309,1,0,0:0:0:0:
320,192,419479,1,0,0:0:0:0:
448,192,419650,1,0,0:0:0:0:
64,192,419820,1,0,0:0:0:0:
192,192,419991,1,0,0:0:0:0:
448,192,420161,1,0,0:0:0:0:
192,192,420332,1,0,0:0:0:0:
64,192,420502,1,0,0:0:0:0:
320,192,420673,1,0,0:0:0:0:
64,192,420843,5,0,0:0:0:0:
192,192,421013,1,0,0:0:0:0:
320,192,421184,1,0,0:0:0:0:
192,192,421354,1,0,0:0:0:0:
320,192,421525,1,0,0:0:0:0:
192,192,421695,1,0,0:0:0:0:
64,192,421866,1,0,0:0:0:0:
192,192,422036,1,0,0:0:0:0:
320,192,422207,1,0,0:0:0:0:
448,192,422377,1,0,0:0:0:0:
64,192,422548,1,0,0:0:0:0:
64,192,432725,5,0,0:0:0:0:
448,192,432725,1,0,0:0:0:0:
320,192,433067,1,0,0:0:0:0:
192,192,433325,1,0,0:0:0:0:
64,192,433410,1,0,0:0:0:0:
448,192,433496,1,0,0:0:0:0:
320,192,433582,1,0,0:0:0:0:
64,192,433753,1,0,0:0:0:0:
448,192,433753,1,0,0:0:0:0:
320,192,434096,1,0,0:0:0:0:
192,192,434096,1,0,0:0:0:0:
64,192,434267,1,0,0:0:0:0:
448,192,434439,1,0,0:0:0:0:
192,192,434610,1,0,0:0:0:0:
448,192,434782,1,0,0:0:0:0:
320,192,434953,1,0,0:0:0:0:
192,192,435125,1,0,0:0:0:0:
64,192,435296,1,0,0:0:0:0:
448,192,435467,1,0,0:0:0:0:
64,192,435639,1,0,0:0:0:0:
192,192,435810,1,0,0:0:0:0:
320,192,435982,1,0,0:0:0:0:
448,192,436153,1,0,0:0:0:0:
320,192,436325,1,0,0:0:0:0:
192,192,436496,1,0,0:0:0:0:
64,192,436667,1,0,0:0:0:0:
448,192,436839,1,0,0:0:0:0:
192,192,437010,1,0,0:0:0:0:
320,192,437182,1,0,0:0:0:0:
64,192,437353,1,0,0:0:0:0:
192,192,437525,1,0,0:0:0:0:
320,192,437696,1,0,0:0:0:0:
448,192,437867,1,0,0:0:0:0:
320,192,438039,1,0,0:0:0:0:
192,192,438210,1,0,0:0:0:0:
64,192,438382,1,0,0:0:0:0:
448,192,438553,1,0,0:0:0:0:
192,192,438725,1,0,0:0:0:0:
320,192,438896,1,0,0:0:0:0:
192,192,439239,1,0,0:0:0:0:
64,192,439582,1,0,0:0:0:0:
448,192,439582,1,0,0:0:0:0:
192,192,439925,1,0,0:0:0:0:
320,192,440096,1,0,0:0:0:0:
64,192,440182,1,0,0:0:0:0:
320,192,440267,1,0,0:0:0:0:
448,192,440610,1,0,0:0:0:0:
320,192,440610,1,0,0:0:0:0:
64,192,440953,1,0,0:0:0:0:
192,192,441210,1,0,0:0:0:0:
448,192,441296,1,0,0:0:0:0:
320,192,441467,1,0,0:0:0:0:
448,192,441639,1,0,0:0:0:0:
192,192,441982,1,0,0:0:0:0:
64,192,441982,1,0,0:0:0:0:
448,192,442325,1,0,0:0:0:0:
192,192,442667,1,0,0:0:0:0:
320,192,442839,1,0,0:0:0:0:
64,192,442925,1,0,0:0:0:0:
320,192,443010,1,0,0:0:0:0:
448,192,443353,1,0,0:0:0:0:
192,192,443353,1,0,0:0:0:0:
192,192,443696,1,0,0:0:0:0:
64,192,443782,1,0,0:0:0:0:
192,192,443867,1,0,0:0:0:0:
320,192,444039,1,0,0:0:0:0:
448,192,444382,1,0,0:0:0:0:
320,192,444725,1,0,0:0:0:0:
192,192,444725,1,0,0:0:0:0:
64,192,445067,1,0,0:0:0:0:
448,192,445067,1,0,0:0:0:0:
192,192,445239,1,0,0:0:0:0:
448,192,445410,1,0,0:0:0:0:
320,192,445410,1,0,0:0:0:0:
192,192,445582,1,0,0:0:0:0:
64,192,445753,1,0,0:0:0:0:
448,192,445925,1,0,0:0:0:0:
320,192,446096,1,0,0:0:0:0:
64,192,446096,1,0,0:0:0:0:
192,192,446267,1,0,0:0:0:0:
64,192,446439,1,0,0:0:0:0:
192,192,446610,1,0,0:0:0:0:
448,192,446782,1,0,0:0:0:0:
64,192,446782,1,0,0:0:0:0:
320,192,446953,1,0,0:0:0:0:
192,192,447125,1,0,0:0:0:0:
64,192,447296,1,0,0:0:0:0:
320,192,447467,1,0,0:0:0:0:
192,192,447467,1,0,0:0:0:0:
448,192,447639,1,0,0:0:0:0:
192,192,447810,1,0,0:0:0:0:
320,192,447982,1,0,0:0:0:0:
64,192,448153,1,0,0:0:0:0:
448,192,448153,1,0,0:0:0:0:
320,192,448325,1,0,0:0:0:0:
192,192,448496,1,0,0:0:0:0:
64,192,448667,1,0,0:0:0:0:
448,192,448839,1,0,0:0:0:0:
320,192,448839,1,0,0:0:0:0:
192,192,449010,1,0,0:0:0:0:
320,192,449182,1,0,0:0:0:0:
448,192,449353,1,0,0:0:0:0:
64,192,449525,5,0,0:0:0:0:
320,192,449525,1,0,0:0:0:0:
192,192,449696,1,0,0:0:0:0:
448,192,449867,1,0,0:0:0:0:
192,192,450210,1,0,0:0:0:0:
64,192,450210,1,0,0:0:0:0:
64,192,450553,5,0,0:0:0:0:
448,192,450553,1,0,0:0:0:0:
192,192,450725,1,0,0:0:0:0:
320,192,450896,1,0,0:0:0:0:
64,192,450896,1,0,0:0:0:0:
448,192,451067,1,0,0:0:0:0:
320,192,451239,1,0,0:0:0:0:
192,192,451410,1,0,0:0:0:0:
448,192,451582,1,0,0:0:0:0:
64,192,451582,1,0,0:0:0:0:
192,192,451753,1,0,0:0:0:0:
320,192,451925,1,0,0:0:0:0:
448,192,452096,1,0,0:0:0:0:
64,192,452267,1,0,0:0:0:0:
320,192,452267,1,0,0:0:0:0:
192,192,452439,1,0,0:0:0:0:
64,192,452610,1,0,0:0:0:0:
448,192,452782,1,0,0:0:0:0:
320,192,452953,1,0,0:0:0:0:
192,192,452953,1,0,0:0:0:0:
64,192,453125,1,0,0:0:0:0:
320,192,453296,1,0,0:0:0:0:
192,192,453467,1,0,0:0:0:0:
448,192,453639,1,0,0:0:0:0:
64,192,453639,1,0,0:0:0:0:
320,192,453810,1,0,0:0:0:0:
448,192,453982,1,0,0:0:0:0:
320,192,454153,1,0,0:0:0:0:
192,192,454325,1,0,0:0:0:0:
64,192,454325,1,0,0:0:0:0:
448,192,454496,1,0,0:0:0:0:
320,192,454667,1,0,0:0:0:0:
192,192,454839,1,0,0:0:0:0:
64,192,455010,1,0,0:0:0:0:
448,192,455010,1,0,0:0:0:0:
320,192,455182,1,0,0:0:0:0:
192,192,455353,1,0,0:0:0:0:
64,192,455525,1,0,0:0:0:0:
448,192,455696,1,0,0:0:0:0:
320,192,455696,1,0,0:0:0:0:
192,192,455867,1,0,0:0:0:0:
320,192,456039,1,0,0:0:0:0:
64,192,456039,1,0,0:0:0:0:
448,192,456210,1,0,0:0:0:0:
192,192,456382,1,0,0:0:0:0:
320,192,456382,1,0,0:0:0:0:
448,192,456553,1,0,0:0:0:0:
320,192,456725,1,0,0:0:0:0:
192,192,456896,1,0,0:0:0:0:
64,192,457067,1,0,0:0:0:0:
320,192,457067,1,0,0:0:0:0:
448,192,457239,1,0,0:0:0:0:
320,192,457410,1,0,0:0:0:0:
64,192,457582,1,0,0:0:0:0:
192,192,457753,1,0,0:0:0:0:
448,192,457753,1,0,0:0:0:0:
320,192,457925,1,0,0:0:0:0:
64,192,458096,1,0,0:0:0:0:
192,192,458267,1,0,0:0:0:0:
320,192,458439,1,0,0:0:0:0:
448,192,458439,1,0,0:0:0:0:
64,192,458610,1,0,0:0:0:0:
320,192,458782,1,0,0:0:0:0:
448,192,458953,1,0,0:0:0:0:
64,192,459125,1,0,0:0:0:0:
320,192,459125,1,0,0:0:0:0:
192,192,459296,1,0,0:0:0:0:
64,192,459467,1,0,0:0:0:0:
448,192,459639,1,0,0:0:0:0:
320,192,459810,1,0,0:0:0:0:
64,192,459810,1,0,0:0:0:0:
192,192,459982,1,0,0:0:0:0:
320,192,460153,1,0,0:0:0:0:
448,192,460325,1,0,0:0:0:0:
192,192,460496,1,0,0:0:0:0:
64,192,460496,1,0,0:0:0:0:
448,192,460667,1,0,0:0:0:0:
320,192,460839,1,0,0:0:0:0:
192,192,461010,1,0,0:0:0:0:
320,192,461182,1,0,0:0:0:0:
448,192,461182,1,0,0:0:0:0:
64,192,461353,1,0,0:0:0:0:
448,192,461525,1,0,0:0:0:0:
320,192,461525,1,0,0:0:0:0:
192,192,461696,1,0,0:0:0:0:
320,192,461867,1,0,0:0:0:0:
64,192,462039,1,0,0:0:0:0:
448,192,462210,1,0,0:0:0:0:
320,192,462382,1,0,0:0:0:0:
192,192,462553,1,0,0:0:0:0:
64,192,462725,1,0,0:0:0:0:
320,192,462896,1,0,0:0:0:0:
192,192,463067,1,0,0:0:0:0:
448,192,463239,1,0,0:0:0:0:
192,192,463410,1,0,0:0:0:0:
64,192,463582,1,0,0:0:0:0:
320,192,463753,1,0,0:0:0:0:
64,192,463925,1,0,0:0:0:0:
448,192,464096,1,0,0:0:0:0:
64,192,464267,1,0,0:0:0:0:
192,192,464439,1,0,0:0:0:0:
320,192,464610,1,0,0:0:0:0:
448,192,464782,1,0,0:0:0:0:
320,192,464953,1,0,0:0:0:0:
192,192,465125,1,0,0:0:0:0:
64,192,465296,1,0,0:0:0:0:
320,192,465467,1,0,0:0:0:0:
448,192,465639,1,0,0:0:0:0:
64,192,465810,1,0,0:0:0:0:
320,192,465982,1,0,0:0:0:0:
448,192,466153,1,0,0:0:0:0:
320,192,466325,1,0,0:0:0:0:
192,192,466667,1,0,0:0:0:0:
64,192,467010,1,0,0:0:0:0:
448,192,467010,1,0,0:0:0:0:
320,192,467696,1,0,0:0:0:0:
192,192,468039,1,0,0:0:0:0:
64,192,468382,1,0,0:0:0:0:
448,192,469067,1,0,0:0:0:0:
320,192,469753,1,0,0:0:0:0:
448,192,471125,1,0,0:0:0:0:
192,192,471467,1,0,0:0:0:0:
320,192,471810,1,0,0:0:0:0:
192,192,472153,1,0,0:0:0:0:
64,192,472496,1,0,0:0:0:0:
448,192,473182,1,0,0:0:0:0:
320,192,473525,1,0,0:0:0:0:
64,192,473867,1,0,0:0:0:0:
192,192,474553,1,0,0:0:0:0:
320,192,475239,1,0,0:0:0:0:
64,192,476267,1,0,0:0:0:0:
320,192,476610,1,0,0:0:0:0:
64,192,477982,1,0,0:0:0:0:
448,192,477982,1,0,0:0:0:0:
192,192,478325,1,0,0:0:0:0:
320,192,478667,1,0,0:0:0:0:
448,192,478667,1,0,0:0:0:0:
192,192,479010,1,0,0:0:0:0:
320,192,479010,1,0,0:0:0:0:
64,192,479353,1,0,0:0:0:0:
448,192,479353,1,0,0:0:0:0:
320,192,479696,1,0,0:0:0:0:
448,192,480039,1,0,0:0:0:0:
192,192,480039,1,0,0:0:0:0:
64,192,480382,1,0,0:0:0:0:
192,192,480725,1,0,0:0:0:0:
320,192,480725,1,0,0:0:0:0:
448,192,481067,1,0,0:0:0:0:
320,192,481410,1,0,0:0:0:0:
192,192,481753,1,0,0:0:0:0:
448,192,482096,1,0,0:0:0:0:
64,192,482096,1,0,0:0:0:0:
192,192,482439,1,0,0:0:0:0:
320,192,482439,1,0,0:0:0:0:
320,192,482782,1,0,0:0:0:0:
448,192,482782,1,0,0:0:0:0:
192,192,483125,1,0,0:0:0:0:
64,192,483125,1,0,0:0:0:0:
64,192,483467,1,0,0:0:0:0:
320,192,483467,1,0,0:0:0:0:
448,192,483810,1,0,0:0:0:0:
448,192,484153,1,0,0:0:0:0:
192,192,484153,1,0,0:0:0:0:
320,192,484496,1,0,0:0:0:0:
64,192,484496,1,0,0:0:0:0:
192,192,484839,1,0,0:0:0:0:
448,192,484839,1,0,0:0:0:0:
320,192,485182,1,0,0:0:0:0:
320,192,485525,1,0,0:0:0:0:
64,192,485525,1,0,0:0:0:0:
448,192,485867,1,0,0:0:0:0:
448,192,486210,1,0,0:0:0:0:
192,192,486210,1,0,0:0:0:0:
64,192,486553,1,0,0:0:0:0:
320,192,486896,1,0,0:0:0:0:
64,192,487239,1,0,0:0:0:0:
448,192,487239,1,0,0:0:0:0:
192,192,487582,1,0,0:0:0:0:
320,192,487582,1,0,0:0:0:0:
448,192,487925,1,0,0:0:0:0:
192,192,488267,1,0,0:0:0:0:
64,192,488610,1,0,0:0:0:0:
448,192,488953,1,0,0:0:0:0:
64,192,488953,1,0,0:0:0:0:
320,192,489125,1,0,0:0:0:0:
192,192,489296,1,0,0:0:0:0:
448,192,489296,1,0,0:0:0:0:
64,192,489467,1,0,0:0:0:0:
192,192,489639,1,0,0:0:0:0:
320,192,489810,1,0,0:0:0:0:
64,192,489982,1,0,0:0:0:0:
448,192,489982,1,0,0:0:0:0:
320,192,490153,1,0,0:0:0:0:
192,192,490325,1,0,0:0:0:0:
64,192,490496,1,0,0:0:0:0:
448,192,490667,1,0,0:0:0:0:
192,192,490667,1,0,0:0:0:0:
320,192,490839,1,0,0:0:0:0:
448,192,491010,1,0,0:0:0:0:
64,192,491182,1,0,0:0:0:0:
192,192,491353,1,0,0:0:0:0:
320,192,491353,1,0,0:0:0:0:
448,192,491525,1,0,0:0:0:0:
192,192,491696,1,0,0:0:0:0:
320,192,491867,1,0,0:0:0:0:
64,192,492039,1,0,0:0:0:0:
448,192,492039,1,0,0:0:0:0:
192,192,492210,1,0,0:0:0:0:
64,192,492382,1,0,0:0:0:0:
192,192,492553,1,0,0:0:0:0:
320,192,492725,1,0,0:0:0:0:
448,192,492725,1,0,0:0:0:0:
64,192,492896,1,0,0:0:0:0:
192,192,493067,1,0,0:0:0:0:
320,192,493239,1,0,0:0:0:0:
448,192,493410,1,0,0:0:0:0:
64,192,493410,1,0,0:0:0:0:
192,192,493582,1,0,0:0:0:0:
320,192,493753,1,0,0:0:0:0:
448,192,493925,1,0,0:0:0:0:
64,192,494096,1,0,0:0:0:0:
192,192,494096,1,0,0:0:0:0:
320,192,494267,1,0,0:0:0:0:
192,192,494439,1,0,0:0:0:0:
448,192,494439,1,0,0:0:0:0:
64,192,494610,1,0,0:0:0:0:
320,192,494782,1,0,0:0:0:0:
192,192,494782,1,0,0:0:0:0:
64,192,494953,1,0,0:0:0:0:
192,192,495125,1,0,0:0:0:0:
320,192,495296,1,0,0:0:0:0:
448,192,495467,1,0,0:0:0:0:
192,192,495467,1,0,0:0:0:0:
64,192,495639,1,0,0:0:0:0:
192,192,495810,1,0,0:0:0:0:
448,192,495982,1,0,0:0:0:0:
320,192,496153,1,0,0:0:0:0:
64,192,496153,1,0,0:0:0:0:
192,192,496325,1,0,0:0:0:0:
448,192,496496,1,0,0:0:0:0:
320,192,496667,1,0,0:0:0:0:
192,192,496839,1,0,0:0:0:0:
64,192,496839,1,0,0:0:0:0:
448,192,497010,1,0,0:0:0:0:
192,192,497182,1,0,0:0:0:0:
64,192,497353,1,0,0:0:0:0:
448,192,497525,1,0,0:0:0:0:
192,192,497525,1,0,0:0:0:0:
320,192,497696,1,0,0:0:0:0:
448,192,497867,1,0,0:0:0:0:
64,192,498039,1,0,0:0:0:0:
192,192,498210,1,0,0:0:0:0:
448,192,498210,1,0,0:0:0:0:
320,192,498382,1,0,0:0:0:0:
192,192,498553,1,0,0:0:0:0:
64,192,498725,1,0,0:0:0:0:
320,192,498896,1,0,0:0:0:0:
448,192,498896,1,0,0:0:0:0:
64,192,499067,1,0,0:0:0:0:
192,192,499239,1,0,0:0:0:0:
320,192,499410,1,0,0:0:0:0:
192,192,499582,1,0,0:0:0:0:
64,192,499582,1,0,0:0:0:0:
448,192,499753,1,0,0:0:0:0:
320,192,499925,1,0,0:0:0:0:
64,192,500096,1,0,0:0:0:0:
448,192,500267,1,0,0:0:0:0:
192,192,500439,1,0,0:0:0:0:
320,192,500610,1,0,0:0:0:0:
64,192,500782,1,0,0:0:0:0:
448,192,500953,1,0,0:0:0:0:
192,192,501125,1,0,0:0:0:0:
320,192,501296,1,0,0:0:0:0:
64,192,501467,1,0,0:0:0:0:
448,192,501639,1,0,0:0:0:0:
192,192,501810,1,0,0:0:0:0:
320,192,501982,1,0,0:0:0:0:
64,192,502153,1,0,0:0:0:0:
448,192,502325,1,0,0:0:0:0:
320,192,502496,1,0,0:0:0:0:
64,192,502667,1,0,0:0:0:0:
192,192,502839,1,0,0:0:0:0:
320,192,503010,1,0,0:0:0:0:
448,192,503182,1,0,0:0:0:0:
192,192,503353,1,0,0:0:0:0:
320,192,503525,1,0,0:0:0:0:
64,192,503696,1,0,0:0:0:0:
192,192,503867,1,0,0:0:0:0:
448,192,504039,1,0,0:0:0:0:
320,192,504210,1,0,0:0:0:0:
192,192,504382,1,0,0:0:0:0:
64,192,504553,1,0,0:0:0:0:
448,192,504725,1,0,0:0:0:0:
320,192,505067,1,0,0:0:0:0:
64,192,505410,1,0,0:0:0:0:
448,192,505410,1,0,0:0:0:0:
192,192,505753,1,0,0:0:0:0:
320,192,505925,1,0,0:0:0:0:
64,192,506010,1,0,0:0:0:0:
320,192,506096,1,0,0:0:0:0:
448,192,506439,1,0,0:0:0:0:
320,192,506439,1,0,0:0:0:0:
64,192,506782,1,0,0:0:0:0:
192,192,507039,1,0,0:0:0:0:
448,192,507125,1,0,0:0:0:0:
320,192,507296,1,0,0:0:0:0:
448,192,507467,1,0,0:0:0:0:
192,192,507810,1,0,0:0:0:0:
320,192,507810,1,0,0:0:0:0:
448,192,508153,1,0,0:0:0:0:
64,192,508496,1,0,0:0:0:0:
320,192,508667,1,0,0:0:0:0:
64,192,508753,1,0,0:0:0:0:
320,192,508839,1,0,0:0:0:0:
448,192,509182,1,0,0:0:0:0:
192,192,509182,1,0,0:0:0:0:
192,192,509525,1,0,0:0:0:0:
64,192,509610,1,0,0:0:0:0:
192,192,509696,1,0,0:0:0:0:
320,192,509867,1,0,0:0:0:0:
448,192,510210,1,0,0:0:0:0:
320,192,510553,1,0,0:0:0:0:
64,192,510553,1,0,0:0:0:0:
64,192,510896,1,0,0:0:0:0:
448,192,510896,1,0,0:0:0:0:
320,192,511239,1,0,0:0:0:0:
192,192,511410,1,0,0:0:0:0:
64,192,511496,1,0,0:0:0:0:
192,192,511582,1,0,0:0:0:0:
448,192,511925,1,0,0:0:0:0:
192,192,511925,1,0,0:0:0:0:
64,192,512267,1,0,0:0:0:0:
320,192,512525,1,0,0:0:0:0:
448,192,512610,1,0,0:0:0:0:
192,192,512782,1,0,0:0:0:0:
448,192,512953,1,0,0:0:0:0:
320,192,513296,1,0,0:0:0:0:
192,192,513296,1,0,0:0:0:0:
448,192,513639,1,0,0:0:0:0:
320,192,513982,1,0,0:0:0:0:
192,192,514153,1,0,0:0:0:0:
64,192,514239,1,0,0:0:0:0:
192,192,514325,1,0,0:0:0:0:
448,192,514667,1,0,0:0:0:0:
320,192,514667,1,0,0:0:0:0:
320,192,515010,1,0,0:0:0:0:
64,192,515096,1,0,0:0:0:0:
320,192,515182,1,0,0:0:0:0:
192,192,515353,5,0,0:0:0:0:
448,192,515696,1,0,0:0:0:0:
192,192,516039,1,0,0:0:0:0:
64,192,516039,1,0,0:0:0:0:
448,192,516382,1,0,0:0:0:0:
64,192,516382,1,0,0:0:0:0:
320,192,516553,1,0,0:0:0:0:
192,192,516725,1,0,0:0:0:0:
448,192,516725,1,0,0:0:0:0:
64,192,516896,1,0,0:0:0:0:
448,192,517067,1,0,0:0:0:0:
192,192,517239,1,0,0:0:0:0:
320,192,517410,1,0,0:0:0:0:
448,192,517410,1,0,0:0:0:0:
64,192,517582,1,0,0:0:0:0:
448,192,517753,1,0,0:0:0:0:
192,192,517925,1,0,0:0:0:0:
64,192,518096,1,0,0:0:0:0:
320,192,518096,1,0,0:0:0:0:
448,192,518267,1,0,0:0:0:0:
64,192,518439,1,0,0:0:0:0:
320,192,518610,1,0,0:0:0:0:
448,192,518782,1,0,0:0:0:0:
192,192,518782,1,0,0:0:0:0:
64,192,518953,1,0,0:0:0:0:
320,192,519125,1,0,0:0:0:0:
448,192,519296,1,0,0:0:0:0:
192,192,519467,1,0,0:0:0:0:
64,192,519467,1,0,0:0:0:0:
320,192,519639,1,0,0:0:0:0:
64,192,519810,1,0,0:0:0:0:
192,192,519982,1,0,0:0:0:0:
320,192,520153,1,0,0:0:0:0:
64,192,520153,1,0,0:0:0:0:
448,192,520325,1,0,0:0:0:0:
320,192,520496,1,0,0:0:0:0:
192,192,520667,1,0,0:0:0:0:
64,192,520839,5,0,0:0:0:0:
320,192,520839,1,0,0:0:0:0:
448,192,521010,1,0,0:0:0:0:
320,192,521182,1,0,0:0:0:0:
192,192,521525,1,0,0:0:0:0:
448,192,521525,1,0,0:0:0:0:
64,192,521867,5,0,0:0:0:0:
320,192,521953,1,0,0:0:0:0:
192,192,522039,1,0,0:0:0:0:
320,192,522125,1,0,0:0:0:0:
448,192,522210,1,0,0:0:0:0:
64,192,522553,1,0,0:0:0:0:
192,192,522639,1,0,0:0:0:0:
320,192,522725,1,0,0:0:0:0:
192,192,522810,1,0,0:0:0:0:
448,192,522896,1,0,0:0:0:0:
192,192,523239,1,0,0:0:0:0:
64,192,523325,1,0,0:0:0:0:
192,192,523410,1,0,0:0:0:0:
320,192,523496,1,0,0:0:0:0:
448,192,523582,1,0,0:0:0:0:
320,192,523925,1,0,0:0:0:0:
64,192,524010,1,0,0:0:0:0:
192,192,524096,1,0,0:0:0:0:
320,192,524182,1,0,0:0:0:0:
448,192,524267,1,0,0:0:0:0:
64,192,524610,5,0,0:0:0:0:
448,192,524610,1,0,0:0:0:0:
320,192,524782,1,0,0:0:0:0:
192,192,524953,1,0,0:0:0:0:
64,192,524953,1,0,0:0:0:0:
448,192,525125,1,0,0:0:0:0:
192,192,525296,1,0,0:0:0:0:
320,192,525467,1,0,0:0:0:0:
448,192,525639,1,0,0:0:0:0:
64,192,525639,1,0,0:0:0:0:
320,192,525810,1,0,0:0:0:0:
192,192,525982,1,0,0:0:0:0:
448,192,526153,1,0,0:0:0:0:
64,192,526325,1,0,0:0:0:0:
192,192,526325,1,0,0:0:0:0:
320,192,526496,1,0,0:0:0:0:
64,192,526667,1,0,0:0:0:0:
448,192,526839,1,0,0:0:0:0:
192,192,527010,1,0,0:0:0:0:
320,192,527010,1,0,0:0:0:0:
64,192,527182,1,0,0:0:0:0:
192,192,527353,1,0,0:0:0:0:
320,192,527525,1,0,0:0:0:0:
448,192,527696,1,0,0:0:0:0:
64,192,527696,1,0,0:0:0:0:
192,192,527867,1,0,0:0:0:0:
448,192,528039,1,0,0:0:0:0:
192,192,528210,1,0,0:0:0:0:
320,192,528382,1,0,0:0:0:0:
64,192,528382,1,0,0:0:0:0:
448,192,528553,1,0,0:0:0:0:
192,192,528725,1,0,0:0:0:0:
320,192,528896,1,0,0:0:0:0:
64,192,529067,1,0,0:0:0:0:
448,192,529067,1,0,0:0:0:0:
192,192,529239,1,0,0:0:0:0:
320,192,529410,1,0,0:0:0:0:
64,192,529582,1,0,0:0:0:0:
448,192,529753,1,0,0:0:0:0:
192,192,529753,1,0,0:0:0:0:
320,192,529925,1,0,0:0:0:0:
192,192,530096,1,0,0:0:0:0:
64,192,530096,1,0,0:0:0:0:
448,192,530267,1,0,0:0:0:0:
320,192,530439,1,0,0:0:0:0:
192,192,530439,1,0,0:0:0:0:
448,192,530610,1,0,0:0:0:0:
192,192,530782,1,0,0:0:0:0:
320,192,530953,1,0,0:0:0:0:
64,192,531125,1,0,0:0:0:0:
192,192,531125,1,0,0:0:0:0:
448,192,531296,1,0,0:0:0:0:
192,192,531467,1,0,0:0:0:0:
64,192,531639,1,0,0:0:0:0:
320,192,531810,1,0,0:0:0:0:
448,192,531810,1,0,0:0:0:0:
192,192,531982,1,0,0:0:0:0:
64,192,532153,1,0,0:0:0:0:
320,192,532325,1,0,0:0:0:0:
192,192,532496,1,0,0:0:0:0:
448,192,532496,1,0,0:0:0:0:
64,192,532667,1,0,0:0:0:0:
192,192,532839,1,0,0:0:0:0:
448,192,533010,1,0,0:0:0:0:
64,192,533182,1,0,0:0:0:0:
192,192,533182,1,0,0:0:0:0:
320,192,533353,1,0,0:0:0:0:
64,192,533525,1,0,0:0:0:0:
448,192,533696,1,0,0:0:0:0:
192,192,533867,1,0,0:0:0:0:
64,192,533867,1,0,0:0:0:0:
320,192,534039,1,0,0:0:0:0:
192,192,534210,1,0,0:0:0:0:
448,192,534382,1,0,0:0:0:0:
320,192,534553,5,0,0:0:0:0:
64,192,534553,1,0,0:0:0:0:
448,192,534725,1,0,0:0:0:0:
192,192,534896,1,0,0:0:0:0:
320,192,535067,1,0,0:0:0:0:
192,192,535239,1,0,0:0:0:0:
448,192,535239,1,0,0:0:0:0:
64,192,535410,1,0,0:0:0:0:
448,192,535582,5,0,0:0:0:0:
192,192,535582,1,0,0:0:0:0:
64,192,535753,1,0,0:0:0:0:
320,192,535925,1,0,0:0:0:0:
192,192,536096,1,0,0:0:0:0:
448,192,536267,1,0,0:0:0:0:
192,192,536439,1,0,0:0:0:0:
320,192,536610,1,0,0:0:0:0:
64,192,536782,1,0,0:0:0:0:
448,192,536953,1,0,0:0:0:0:
64,192,537125,1,0,0:0:0:0:
320,192,537296,1,0,0:0:0:0:
448,192,537467,1,0,0:0:0:0:
320,192,537639,1,0,0:0:0:0:
192,192,537810,1,0,0:0:0:0:
64,192,537982,1,0,0:0:0:0:
448,192,538153,1,0,0:0:0:0:
192,192,538325,1,0,0:0:0:0:
320,192,538496,1,0,0:0:0:0:
448,192,538667,1,0,0:0:0:0:
64,192,538839,1,0,0:0:0:0:
192,192,539010,1,0,0:0:0:0:
448,192,539182,1,0,0:0:0:0:
320,192,539353,1,0,0:0:0:0:
192,192,539525,1,0,0:0:0:0:
64,192,539696,1,0,0:0:0:0:
320,192,539867,1,0,0:0:0:0:
448,192,540039,1,0,0:0:0:0:
192,192,540210,1,0,0:0:0:0:
320,192,540382,1,0,0:0:0:0:
192,192,540725,1,0,0:0:0:0:
448,192,541067,1,0,0:0:0:0:
192,192,541239,1,0,0:0:0:0:
320,192,541410,1,0,0:0:0:0:
64,192,541582,1,0,0:0:0:0:
448,192,541753,1,0,0:0:0:0:
320,192,541925,1,0,0:0:0:0:
192,192,542096,1,0,0:0:0:0:
64,192,542267,1,0,0:0:0:0:
448,192,542439,1,0,0:0:0:0:
192,192,542525,1,0,0:0:0:0:
320,192,542610,1,0,0:0:0:0:
64,192,542696,1,0,0:0:0:0:
192,192,542782,1,0,0:0:0:0:
320,192,542867,1,0,0:0:0:0:
448,192,542953,1,0,0:0:0:0:
64,192,543039,1,0,0:0:0:0:
320,192,543125,1,0,0:0:0:0:
320,192,543467,1,0,0:0:0:0:
192,192,543810,1,0,0:0:0:0:
448,192,543810,1,0,0:0:0:0:
320,192,545182,1,0,0:0:0:0:
448,192,545182,1,0,0:0:0:0:
192,192,545353,5,0,0:0:0:0:
