osu file format v14

[General]
AudioFilename: song.mp3
AudioLeadIn: 0
PreviewTime: 49009
Countdown: 1
SampleSet: Soft
StackLeniency: 0.7
Mode: 0
LetterboxInBreaks: 0
WidescreenStoryboard: 1

[Editor]
Bookmarks: 1378,9337,17296,25255,29235,33225,49158,80986,88923,96934,112806,128734,160613,176672,184508
DistanceSpacing: 1.2
BeatDivisor: 4
GridSize: 4
TimelineZoom: 1

[Metadata]
Title:Sara perche ti amo
TitleUnicode:Sarà perché ti amo
Artist:Ricchi e Poveri
ArtistUnicode:Ricchi e Poveri
Creator:ezek
Version:Normale di ReFaller
Source:
Tags:Gero ReFaller love
BeatmapID:1017106
BeatmapSetID:469463

[Difficulty]
HPDrainRate:4
CircleSize:3
OverallDifficulty:5
ApproachRate:5
SliderMultiplier:1.5
SliderTickRate:1

[Events]
//Background and Video events
0,0,"Ti Odio.jpg",0,0
//Break Periods
2,17496,24055
2,80986,87723
//Storyboard Layer 0 (Background)
//Storyboard Layer 1 (Fail)
//Storyboard Layer 2 (Pass)
//Storyboard Layer 3 (Foreground)
//Storyboard Sound Samples

[TimingPoints]
1378,497.458298926507,4,2,1,80,1,0
49158,496.658298926507,4,2,1,80,1,1
49158,-100,4,2,1,80,0,1
64554,-100,4,2,1,80,0,0
65068,497.458298926507,4,2,1,80,1,1
80986,-100,4,2,1,80,0,0
88923,499.658298926508,4,2,1,80,1,0
96934,496.358298926507,4,2,1,80,1,0
112806,497.758298926507,4,2,1,80,1,0
128734,-100,4,2,1,80,0,1
144164,-100,4,2,1,80,0,0
144672,498.158298926507,4,2,1,80,1,1
160613,-100,4,2,1,80,0,0
168587,497.552683797584,4,2,1,80,1,0
177542,-100,4,2,1,60,0,0
178538,-100,4,2,1,50,0,0
179533,-100,4,2,1,40,0,0
180528,-100,4,2,1,30,0,0
181523,-100,4,2,1,20,0,0
182518,-100,4,2,1,15,0,0
183513,-100,4,2,1,10,0,0
184508,-100,4,2,1,5,0,0

[Colours]
Combo1 : 248,139,139
Combo2 : 185,60,17
Combo3 : 66,90,206
Combo4 : 248,200,7

[HitObjects]
73,168,1378,6,0,L|40:315,1,150,0|0,3:0|3:0,0:0:0:0:
130,307,2124,1,0,0:0:0:0:
130,307,2372,2,0,L|163:160,1,150,0|0,3:0|3:0,0:0:0:0:
289,32,3367,6,0,P|253:94|269:183,1,150,0|0,3:0|3:0,0:0:0:0:
308,247,4114,1,0,0:0:0:0:
308,247,4362,2,0,P|344:185|328:96,1,150,0|0,3:0|1:0,0:0:0:0:
156,131,5357,6,0,P|117:193|143:271,1,150,0|0,3:0|3:0,0:0:0:0:
205,206,6103,1,0,0:0:0:0:
205,206,6352,2,0,P|223:276|184:338,1,150,0|0,3:0|3:0,0:0:0:0:
49,218,7347,5,0,3:0:0:0:
176,90,7844,1,0,3:0:0:0:
223,264,8342,2,0,P|297:296|360:277,1,150,0|0,3:0|3:0,0:0:0:0:
360,276,9337,5,0,3:0:0:0:
406,102,9834,1,0,1:0:0:0:
233,149,10332,2,0,P|160:163|88:145,1,150,2|0,3:2|1:0,0:0:0:0:
87,144,11078,1,2,0:0:0:0:
247,62,11575,5,2,0:0:0:0:
247,62,11824,2,0,P|286:77|312:107,1,75,2|0,1:2|0:0,0:0:0:0:
382,48,12322,2,0,P|398:86|396:125,1,75,2|2,3:2|0:0,0:0:0:0:
486,133,12819,2,0,P|471:172|441:197,1,75,0|2,1:0|0:3,0:0:0:0:
357,202,13316,5,0,3:0:0:0:
310,376,13814,1,0,1:0:0:0:
183,249,14311,2,0,L|28:254,1,150,2|0,3:2|1:0,0:0:0:0:
33,253,15058,1,2,0:0:0:0:
256,192,15306,12,4,17296,1:2:0:0:
128,79,25255,6,0,L|51:74,2,75,2|2|0,0:0|0:0|0:0,0:0:0:0:
299,135,26250,1,2,0:0:0:0:
135,211,26748,1,0,0:0:0:0:
293,295,27245,6,0,L|450:286,2,150,2|0|2,0:0|0:0|0:0,0:0:0:0:
112,307,28738,1,0,0:0:0:0:
22,151,29235,5,0,3:0:0:0:
202,151,29733,1,0,3:0:0:0:
112,307,30230,1,0,3:0:0:0:
292,307,30728,1,0,3:0:0:0:
455,231,31225,5,0,3:0:0:0:
455,231,31474,2,0,P|464:158|424:96,1,150,4|4,3:0|0:3,0:0:0:0:
351,43,32220,2,0,P|341:115|381:177,1,150,4|4,3:0|3:2,0:0:0:0:
256,311,33215,5,4,3:1:0:0:
256,311,33712,1,0,1:0:0:0:
171,343,33961,1,0,0:0:0:0:
83,321,34210,2,0,L|46:175,1,150,0|0,3:0|1:0,0:0:0:0:
46,176,34956,1,2,0:0:0:0:
165,41,35453,5,0,0:0:0:0:
165,41,35702,2,0,L|201:186,2,150,0|0|0,1:0|3:0|1:0,0:0:0:0:
95,207,37194,5,0,3:0:0:0:
95,207,37692,1,0,1:0:0:0:
151,276,37941,1,0,0:0:0:0:
231,316,38189,2,0,L|381:318,1,150,0|0,3:0|1:0,0:0:0:0:
255,188,39184,5,0,3:0:0:0:
382,61,39682,1,0,1:0:0:0:
465,97,39931,1,0,0:0:0:0:
391,150,40179,2,0,P|328:132|293:56,1,150,0|0,3:0|1:0,0:0:0:0:
292,60,40925,1,2,0:0:0:0:
113,33,41423,5,0,0:0:0:0:
113,33,41672,2,0,P|144:89|115:165,2,150,0|0|0,1:0|3:0|1:0,0:0:0:0:
20,187,43164,2,0,P|-9:253|23:319,1,150,0|0,3:0|1:0,0:0:0:0:
197,364,44159,2,0,P|225:297|193:231,1,150,0|0,3:0|1:0,0:0:0:0:
193,231,44905,1,2,0:0:0:0:
335,121,45403,5,0,0:0:0:0:
335,121,45651,2,0,P|303:186|331:253,2,150,0|0|0,1:0|3:0|1:0,0:0:0:0:
181,28,47144,6,0,L|167:103,1,75,0|0,3:0|0:0,0:0:0:0:
78,119,47641,2,0,L|121:181,1,75,0|0,3:0|0:0,0:0:0:0:
69,256,48139,1,2,0:0:0:0:
245,292,48636,1,2,0:0:0:0:
327,126,49158,6,0,P|398:115|466:178,1,150,4|0,3:1|1:0,0:0:0:0:
378,202,49902,1,0,0:0:0:0:
378,202,50151,2,0,P|436:245|508:235,2,150,0|0|0,3:0|1:0|3:0,0:0:0:0:
255,69,51641,5,0,1:0:0:0:
165,58,51889,1,2,0:0:0:0:
200,140,52137,2,0,P|164:203|93:220,1,150,0|0,3:0|1:0,0:0:0:0:
111,132,52882,1,2,0:0:0:0:
111,132,53131,6,0,L|133:284,1,150,4|0,3:2|1:0,0:0:0:0:
289,369,54124,2,0,L|267:220,1,150,0|0,3:0|1:0,0:0:0:0:
143,89,55117,6,0,L|164:237,1,150,0|0,3:0|1:0,0:0:0:0:
318,331,56111,2,0,L|307:256,1,75,0|2,3:0|0:0,0:0:0:0:
380,205,56607,2,0,L|369:130,1,75,0|2,1:0|0:0,0:0:0:0:
302,69,57104,6,0,B|331:39|370:38|370:38|446:38,2,150,0|0|0,3:0|1:0|3:0,0:0:0:0:
210,69,58346,2,0,B|181:39|142:38|142:38|66:38,1,150,2|2,0:0|0:0,0:0:0:0:
68,38,59091,5,0,3:0:0:0:
199,160,59587,1,0,1:0:0:0:
42,249,60084,1,0,3:0:0:0:
198,338,60581,1,0,1:0:0:0:
198,338,60829,1,2,0:0:0:0:
198,338,61077,6,0,L|351:348,1,150,0|0,3:0|1:0,0:0:0:0:
486,232,62071,2,0,L|336:222,1,150,0|0,3:0|1:0,0:0:0:0:
198,338,63064,5,4,1:3:0:0:
26,282,63561,1,4,1:3:0:0:
26,102,64057,1,4,1:3:0:0:
198,46,64554,1,4,1:3:0:0:
303,192,65068,6,0,P|374:203|442:140,1,150,4|0,3:1|1:0,0:0:0:0:
354,116,65814,1,0,0:0:0:0:
354,116,66062,2,0,P|412:73|484:83,2,150,0|0|0,3:0|1:0|3:0,0:0:0:0:
234,250,67555,5,0,1:0:0:0:
144,261,67804,1,2,0:0:0:0:
179,179,68052,2,0,P|143:116|72:99,1,150,0|0,3:0|1:0,0:0:0:0:
90,187,68798,1,2,0:0:0:0:
90,187,69047,6,0,L|112:35,1,150,0|0,3:0|1:0,0:0:0:0:
289,15,70042,2,0,L|267:164,1,150,0|0,3:0|1:0,0:0:0:0:
143,295,71037,6,0,L|164:147,1,150,0|0,3:0|1:0,0:0:0:0:
318,53,72032,2,0,L|307:128,1,75,0|2,3:0|0:0,0:0:0:0:
380,179,72529,2,0,L|369:254,1,75,0|2,1:0|0:0,0:0:0:0:
302,315,73027,6,0,B|331:345|370:346|370:346|446:346,2,150,0|0|0,3:0|1:0|3:0,0:0:0:0:
210,315,74270,2,0,B|181:345|142:346|142:346|66:346,1,150,2|2,0:0|0:0,0:0:0:0:
68,346,75017,5,0,3:0:0:0:
199,224,75514,1,0,1:0:0:0:
42,135,76012,1,0,3:0:0:0:
198,46,76509,1,0,1:0:0:0:
198,46,76758,1,2,0:0:0:0:
198,46,77006,6,0,L|351:36,1,150,0|0,3:0|1:0,0:0:0:0:
486,152,78001,2,0,L|336:162,1,150,0|0,3:0|1:0,0:0:0:0:
256,192,78996,12,0,80489,1:0:0:0:
120,312,88923,6,0,P|256:368|392:312,2,300,4|0|0,1:0|0:0|0:0,0:0:0:0:
256,192,91421,2,0,L|256:32,2,150,2|2|2,0:0|0:0|0:0,0:0:0:0:
256,192,92920,12,4,95168,1:2:0:0:
256,73,96934,5,4,3:1:0:0:
256,73,97430,1,0,1:0:0:0:
171,41,97678,1,0,0:0:0:0:
83,63,97926,2,0,L|46:208,1,150,0|0,3:0|1:0,0:0:0:0:
46,208,98671,1,2,0:0:0:0:
165,343,99167,5,0,0:0:0:0:
165,343,99415,2,0,L|201:197,2,150,0|0|0,1:0|3:0|1:0,0:0:0:0:
95,177,100904,5,0,3:0:0:0:
95,177,101401,1,0,1:0:0:0:
151,108,101649,1,0,0:0:0:0:
231,68,101897,2,0,L|381:66,1,150,0|0,3:0|1:0,0:0:0:0:
255,196,102890,5,0,3:0:0:0:
382,323,103386,1,0,1:0:0:0:
465,287,103634,1,0,0:0:0:0:
391,234,103883,2,0,P|328:252|293:328,1,150,0|0,3:0|1:0,0:0:0:0:
292,324,104627,1,2,0:0:0:0:
113,351,105123,5,0,0:0:0:0:
113,351,105372,2,0,P|144:295|115:219,2,150,0|0|0,1:0|3:0|1:0,0:0:0:0:
20,197,106861,2,0,P|-9:131|23:65,1,150,0|0,3:0|1:0,0:0:0:0:
197,20,107853,2,0,P|225:87|193:153,1,150,0|0,3:0|1:0,0:0:0:0:
193,153,108598,1,2,0:0:0:0:
314,267,109094,5,4,1:0:0:0:
314,267,109342,2,0,P|282:202|310:135,1,150,4|0,1:2|0:0,0:0:0:0:
372,200,110087,1,4,1:2:0:0:
372,200,110335,2,0,P|400:133|368:67,1,150,4|0,1:0|3:0,0:0:0:0:
203,140,111328,5,0,3:0:0:0:
372,200,111824,1,0,3:0:0:0:
235,317,112321,1,0,3:0:0:0:
76,238,112806,6,0,L|50:80,1,150,4|0,3:2|1:0,0:0:0:0:
210,5,113801,2,0,L|234:153,1,150,0|0,3:0|1:0,0:0:0:0:
225,242,114548,2,0,P|288:224|323:148,1,150,2|2,0:0|0:0,0:0:0:0:
366,73,115294,2,0,L|390:221,2,150,0|0|0,1:0|3:0|1:0,0:0:0:0:
247,209,116788,5,0,3:0:0:0:
200,34,117285,1,0,1:0:0:0:
73,161,117783,2,0,L|60:314,1,150,0|0,3:0|1:0,0:0:0:0:
234,358,118779,6,0,L|246:208,1,150,0|0,3:0|1:0,0:0:0:0:
386,95,119774,2,0,L|379:169,1,75,0|2,3:0|0:0,0:0:0:0:
446,230,120272,2,0,L|439:304,1,75,0|2,1:0|0:0,0:0:0:0:
360,347,120770,5,0,3:0:0:0:
246,208,121267,1,0,1:0:0:0:
75,265,121765,2,0,P|43:207|72:129,1,150,0|0,3:0|1:0,0:0:0:0:
128,63,122512,2,0,P|159:120|130:198,1,150,2|2,0:0|0:0,0:0:0:0:
75,265,123258,2,0,L|224:306,2,150,0|0|0,1:0|3:0|1:0,0:0:0:0:
246,209,124752,5,0,3:0:0:0:
293,39,125249,1,0,1:0:0:0:
119,84,125747,2,0,L|80:228,1,150,0|0,3:0|1:0,0:0:0:0:
204,359,126743,6,0,L|253:301,1,75,0|4,3:0|1:2,0:0:0:0:
338,332,127240,2,0,L|331:256,1,75,0|0,3:0|0:0,0:0:0:0:
415,218,127738,1,4,0:3:0:0:
280,99,128236,1,4,0:3:0:0:
185,258,128734,6,0,P|114:269|46:206,1,150,4|0,3:1|1:0,0:0:0:0:
134,182,129480,1,0,0:0:0:0:
134,182,129729,2,0,P|76:139|4:149,2,150,0|0|0,3:0|1:0|3:0,0:0:0:0:
257,315,131223,5,0,1:0:0:0:
347,326,131471,1,2,0:0:0:0:
312,244,131720,2,0,P|348:181|419:164,1,150,0|0,3:0|1:0,0:0:0:0:
401,252,132467,1,2,0:0:0:0:
401,252,132716,6,0,L|379:100,1,150,4|0,3:2|1:0,0:0:0:0:
223,15,133711,2,0,L|245:164,1,150,0|0,3:0|1:0,0:0:0:0:
369,295,134707,6,0,L|348:147,1,150,0|0,3:0|1:0,0:0:0:0:
194,53,135702,2,0,L|205:128,1,75,0|2,3:0|0:0,0:0:0:0:
132,179,136200,2,0,L|143:254,1,75,0|2,1:0|0:0,0:0:0:0:
210,315,136698,6,0,B|181:345|142:346|142:346|66:346,2,150,0|0|0,3:0|1:0|3:0,0:0:0:0:
302,315,137942,2,0,B|331:345|370:346|370:346|446:346,1,150,2|2,0:0|0:0,0:0:0:0:
444,346,138689,5,0,3:0:0:0:
313,224,139187,1,0,1:0:0:0:
470,135,139684,1,0,3:0:0:0:
314,46,140182,1,0,1:0:0:0:
314,46,140431,1,2,0:0:0:0:
314,46,140680,6,0,L|161:36,1,150,0|0,3:0|1:0,0:0:0:0:
26,152,141675,2,0,L|176:162,1,150,0|0,3:0|1:0,0:0:0:0:
314,46,142671,5,4,1:3:0:0:
486,102,143169,1,4,1:3:0:0:
486,282,143667,1,4,1:3:0:0:
314,338,144164,1,4,1:3:0:0:
209,192,144672,6,0,P|138:181|70:244,1,150,4|0,3:1|1:0,0:0:0:0:
158,268,145419,1,0,0:0:0:0:
158,268,145668,2,0,P|100:311|28:301,2,150,0|0|0,3:0|1:0|3:0,0:0:0:0:
278,134,147162,5,0,1:0:0:0:
368,123,147411,1,2,0:0:0:0:
333,205,147660,2,0,P|369:268|440:285,1,150,0|0,3:0|1:0,0:0:0:0:
422,197,148408,1,2,0:0:0:0:
422,197,148657,6,0,L|400:349,1,150,0|0,3:0|1:0,0:0:0:0:
223,369,149653,2,0,L|245:220,1,150,0|0,3:0|1:0,0:0:0:0:
369,89,150649,6,0,L|348:237,1,150,0|0,3:0|1:0,0:0:0:0:
194,331,151646,2,0,L|205:256,1,75,0|2,3:0|0:0,0:0:0:0:
132,205,152144,2,0,L|143:130,1,75,0|2,1:0|0:0,0:0:0:0:
210,69,152642,6,0,B|181:39|142:38|142:38|66:38,2,150,0|0|0,3:0|1:0|3:0,0:0:0:0:
302,69,153887,2,0,B|331:39|370:38|370:38|446:38,1,150,2|2,0:0|0:0,0:0:0:0:
444,38,154635,5,0,3:0:0:0:
313,160,155133,1,0,1:0:0:0:
470,249,155631,1,0,3:0:0:0:
314,338,156129,1,0,1:0:0:0:
314,338,156378,1,2,0:0:0:0:
314,338,156627,6,0,L|161:348,1,150,0|0,3:0|1:0,0:0:0:0:
26,232,157624,2,0,L|176:222,1,150,0|0,3:0|1:0,0:0:0:0:
353,248,158620,6,0,P|391:232|417:203,1,75,0|0,3:0|0:0,0:0:0:0:
339,157,159118,2,0,P|354:118|353:80,1,75,0|0,3:0|0:0,0:0:0:0:
266,103,159616,2,0,P|210:58|131:55,1,150,2|2,0:0|0:0,0:0:0:0:
13,188,160613,6,0,L|39:346,1,150,4|0,3:2|1:0,0:0:0:0:
215,363,161609,2,0,L|190:215,1,150,0|0,3:0|1:0,0:0:0:0:
138,141,162356,2,0,P|201:125|269:173,1,150,2|2,0:0|0:0,0:0:0:0:
322,241,163103,2,0,P|391:269|460:246,2,150,0|0|0,1:0|3:0|1:0,0:0:0:0:
177,133,164598,5,0,3:0:0:0:
327,33,165096,1,0,1:0:0:0:
439,173,165594,2,0,L|452:326,1,150,0|0,3:0|1:0,0:0:0:0:
276,364,166590,6,0,L|263:214,1,150,0|0,3:0|1:0,0:0:0:0:
115,111,167587,2,0,L|121:185,1,75,0|2,3:0|0:0,0:0:0:0:
55,246,168085,2,0,L|61:320,1,75,0|2,1:0|0:0,0:0:0:0:
139,368,168587,5,0,3:0:0:0:
267,242,169084,1,0,1:0:0:0:
440,290,169582,2,0,P|471:232|442:154,1,150,0|0,3:0|1:0,0:0:0:0:
387,88,170328,2,0,P|355:145|384:223,1,150,2|2,0:0|0:0,0:0:0:0:
440,290,171074,2,0,L|291:331,2,150,0|0|0,1:0|3:0|1:0,0:0:0:0:
269,234,172567,5,0,3:0:0:0:
222,64,173064,1,0,1:0:0:0:
396,109,173562,2,0,L|434:253,1,150,0|0,3:0|1:0,0:0:0:0:
311,384,174557,6,0,L|261:326,1,75,0|4,3:0|1:2,0:0:0:0:
177,357,175055,2,0,L|183:281,1,75,0|0,3:0|0:0,0:0:0:0:
100,243,175552,1,4,3:0:0:0:
235,124,176050,1,4,3:0:0:0:
270,300,176547,5,4,0:1:0:0:
256,192,177045,12,0,184508,3:0:0:0:
