osu file format v14

[General]
AudioFilename: audio.mp3
AudioLeadIn: 0
PreviewTime: 5438
Countdown: 0
SampleSet: Soft
StackLeniency: 0.7
Mode: 0
LetterboxInBreaks: 0
WidescreenStoryboard: 0

[Editor]
DistanceSpacing: 1.4
BeatDivisor: 4
GridSize: 4
TimelineZoom: 1.6

[Metadata]
Title:Sorriso Resplandecente
TitleUnicode:Sorriso Resplandecente
Artist:Ricardo Junior
ArtistUnicode:Ricardo Junior
Creator:Eduuu
Version:What in the hell i put here
Source:
Tags:
BeatmapID:2200194
BeatmapSetID:1052833

[Difficulty]
HPDrainRate:5.2
CircleSize:3.8
OverallDifficulty:9
ApproachRate:9
SliderMultiplier:1.4
SliderTickRate:1

[Events]
//Background and Video events
0,0,"782039.png",0,0
//Break Periods
//Storyboard Layer 0 (Background)
//Storyboard Layer 1 (Fail)
//Storyboard Layer 2 (Pass)
//Storyboard Layer 3 (Foreground)
//Storyboard Layer 4 (Overlay)
//Storyboard Sound Samples

[TimingPoints]
1737,451.127819548872,4,2,0,60,1,0
5551,-76.9230769230769,4,2,0,60,0,0
23596,-100,4,2,0,60,0,0
27217,-105.263157894737,4,2,0,60,0,0
30713,-105.263157894737,4,2,0,5,0,0
30826,-105.263157894737,4,2,0,60,0,0
34322,-105.263157894737,4,2,0,5,0,0
34435,-105.263157894737,4,2,0,60,0,0
41653,-95.2380952380952,4,2,0,60,0,0
45149,-95.2380952380952,4,2,0,5,0,0
45262,-95.2380952380952,4,2,0,60,0,0
70516,451.127819548872,4,2,0,60,1,0
70516,-76.9230769230769,4,2,0,60,0,0
102104,461.538461538462,4,2,0,60,1,0
103027,468.75,4,2,0,60,1,0
104642,-185.185185185185,4,2,0,60,0,0
104642,-185.185185185185,4,2,0,20,0,0
111334,-185.185185185185,4,2,0,5,0,0

[Colours]
Combo1 : 108,141,255
Combo2 : 255,0,128
Combo3 : 0,255,0
Combo4 : 255,0,0

[HitObjects]
242,99,1737,5,0,0:0:0:0:
242,99,1849,1,0,0:0:0:0:
242,99,1962,6,0,L|324:76,1,70
267,230,2413,2,0,B|215:247|215:247|119:247,1,140
202,154,3090,1,0,0:0:0:0:
286,306,3315,2,0,L|384:306,1,70
308,159,3767,5,0,0:0:0:0:
389,234,3992,1,0,0:0:0:0:
419,98,4218,1,0,0:0:0:0:
473,191,4443,1,0,0:0:0:0:
505,42,4669,1,0,0:0:0:0:
478,19,4782,1,0,0:0:0:0:
446,5,4894,1,0,0:0:0:0:
412,1,5007,1,0,0:0:0:0:
378,8,5120,5,0,0:0:0:0:
347,25,5233,1,0,0:0:0:0:
321,48,5346,1,0,0:0:0:0:
288,58,5458,1,0,0:0:0:0:
254,54,5571,6,0,P|203:41|151:60,1,90.9999958343508
88,239,6022,2,0,L|185:235,1,90.9999958343508
341,137,6473,1,0,0:0:0:0:
174,137,6699,1,0,0:0:0:0:
336,290,6924,1,0,0:0:0:0:
160,286,7150,1,0,0:0:0:0:
295,68,7376,6,0,P|340:57|384:66,1,90.9999958343508
336,290,7827,2,0,P|308:254|301:208,1,90.9999958343508
503,150,8278,2,0,P|467:178|421:186,1,90.9999958343508
231,117,8729,2,0,P|262:105|324:116,1,90.9999958343508
451,255,9180,6,0,L|361:273,1,90.9999958343508
224,384,9631,2,0,L|313:365,1,90.9999958343508
179,240,10082,1,0,0:0:0:0:
376,306,10308,1,4,0:0:0:0:
145,336,10533,1,0,0:0:0:0:
337,227,10759,1,0,0:0:0:0:
132,176,10985,6,0,P|193:163|237:181,1,90.9999958343508
217,359,11436,2,0,P|183:327|182:258,1,90.9999958343508
337,227,11887,2,0,P|298:270|261:275,1,90.9999958343508
171,115,12338,2,0,P|158:54|175:9,1,90.9999958343508
148,231,12789,5,0,0:0:0:0:
148,231,13240,2,0,P|206:243|264:216,1,90.9999958343508
409,154,13691,2,0,L|293:142,1,90.9999958343508
378,374,14143,2,0,L|494:386,1,90.9999958343508
409,154,14594,6,0,B|366:142|317:169|333:180|262:211|195:162,1,181.999991668702
269,100,15270,1,0,0:0:0:0:
359,260,15496,2,0,P|406:265|470:231,1,90.9999958343508
332,47,15947,1,0,0:0:0:0:
409,154,16173,1,0,0:0:0:0:
500,18,16398,6,0,L|394:-4,1,90.9999958343508
216,144,16849,2,0,L|322:166,1,90.9999958343508
216,32,17300,2,0,P|160:16|96:45,1,90.9999958343508
140,204,17752,2,0,P|169:158|165:117,1,90.9999958343508
0,87,18203,6,0,P|26:123|72:135,1,90.9999958343508
242,102,18654,2,0,L|342:100,1,90.9999958343508
400,240,19105,1,0,0:0:0:0:
453,70,19330,1,0,0:0:0:0:
453,70,19443,1,0,0:0:0:0:
453,70,19556,2,0,L|372:71,1,45.4999979171754
268,208,19782,2,0,L|349:207,1,45.4999979171754
264,87,20007,5,0,0:0:0:0:
180,245,20233,1,0,0:0:0:0:
108,73,20458,1,0,0:0:0:0:
282,198,20684,1,0,0:0:0:0:
85,186,20909,1,0,0:0:0:0:
264,87,21135,1,0,0:0:0:0:
180,245,21361,1,0,0:0:0:0:
108,73,21586,1,0,0:0:0:0:
313,214,21812,5,0,0:0:0:0:
47,197,22037,1,0,0:0:0:0:
288,64,22263,1,0,0:0:0:0:
176,283,22488,1,0,0:0:0:0:
78,45,22714,1,0,0:0:0:0:
311,216,22940,1,4,0:0:0:0:
47,197,23165,1,0,0:0:0:0:
288,64,23391,1,0,0:0:0:0:
275,342,23616,5,0,0:0:0:0:
66,105,24067,2,0,P|9:87|-22:90,1,70
177,183,24518,2,0,P|120:201|89:198,1,70
258,96,24970,2,0,P|201:78|170:81,1,70
364,184,25421,6,0,P|307:202|276:199,1,70
455,88,25872,2,0,P|398:70|367:73,1,70
455,253,26323,1,0,0:0:0:0:
277,122,26549,1,0,0:0:0:0:
277,122,26661,1,0,0:0:0:0:
277,122,26774,1,0,0:0:0:0:
281,321,27000,1,0,0:0:0:0:
123,131,27225,6,0,P|141:66|148:60,1,66.4999982242585
277,122,27676,2,4,P|320:128|368:112,1,66.4999982242585
341,15,28127,1,0,0:0:0:0:
343,124,28353,1,0,0:0:0:0:
453,15,28579,1,0,0:0:0:0:
451,124,28804,1,0,0:0:0:0:
341,15,29030,6,0,P|293:12|249:22,1,66.4999982242585
214,156,29481,1,0,0:0:0:0:
167,84,29706,2,0,P|128:137|141:204,1,132.999996448517
277,208,30383,2,0,P|327:222|378:196,1,99.7499973363877
390,181,30834,6,0,P|436:166|515:200,1,132.999996448517,0|8,0:0|0:0,0:0:0:0:
309,347,31736,1,0,0:0:0:0:
346,258,31962,1,0,0:0:0:0:
401,384,32188,1,0,0:0:0:0:
451,288,32413,1,0,0:0:0:0:
309,347,32639,6,0,L|222:349,1,66.4999982242585
150,290,33090,1,0,0:0:0:0:
279,200,33315,2,0,B|348:185|348:185|430:201,1,132.999996448517
475,91,33992,2,0,P|409:103|362:79,1,99.7499973363877
363,76,34443,6,0,P|319:65|275:77,1,66.4999982242585
214,164,34894,2,0,P|258:153|302:165,1,66.4999982242585
208,253,35346,1,0,0:0:0:0:
214,164,35571,1,0,0:0:0:0:
94,220,35797,1,0,0:0:0:0:
115,316,36022,1,0,0:0:0:0:
208,253,36248,6,0,P|276:248|332:295,1,132.999996448517
335,314,36924,1,0,0:0:0:0:
379,170,37150,2,0,L|379:37,1,132.999996448517
295,71,37827,1,0,0:0:0:0:
458,0,38052,6,0,L|458:74,1,66.4999982242585
459,177,38503,1,0,0:0:0:0:
315,159,38729,2,0,P|284:155|241:161,1,66.4999982242585
145,291,39180,2,0,L|231:287,1,66.4999982242585
283,232,39631,5,0,0:0:0:0:
90,174,39857,6,0,B|91:114|91:114|101:95|101:95|102:37,2,132.999996448517
128,316,40985,1,0,0:0:0:0:
220,166,41210,1,0,0:0:0:0:
245,368,41436,1,0,0:0:0:0:
95,230,41661,6,4,B|144:218|185:237|173:248|218:263|268:240,1,146.999995513916
360,162,42564,1,0,0:0:0:0:
257,223,42789,1,4,0:0:0:0:
350,356,43015,1,0,0:0:0:0:
348,260,43240,1,0,0:0:0:0:
224,333,43466,6,0,L|129:333,1,73.4999977569581
25,225,43917,1,0,0:0:0:0:
142,176,44143,2,0,L|229:177,1,73.4999977569581
179,261,44594,1,0,0:0:0:0:
145,93,44819,6,4,P|149:45|202:5,1,110.249996635437
215,14,45270,6,0,P|252:24|290:16,1,73.4999977569581
390,112,45721,2,0,P|353:102|315:110,1,73.4999977569581,4|0,0:0|0:0,0:0:0:0:
319,196,46173,1,0,0:0:0:0:
239,122,46398,1,0,0:0:0:0:
226,297,46624,1,0,0:0:0:0:
338,296,46849,1,0,0:0:0:0:
229,203,47075,6,0,P|170:197|127:212,1,73.4999977569581
122,359,47526,1,0,0:0:0:0:
0,250,47752,2,0,P|35:242|72:246,1,73.4999977569581
40,330,48203,1,0,0:0:0:0:
133,188,48428,1,0,0:0:0:0:
226,297,48654,1,0,0:0:0:0:
285,161,48879,6,0,B|329:150|369:173|357:184|389:200|444:189,1,146.999995513916
234,68,49782,2,0,L|155:64,1,73.4999977569581
133,70,50120,1,0,0:0:0:0:
133,70,50233,1,0,0:0:0:0:
241,198,50458,1,0,0:0:0:0:
290,18,50684,6,0,B|350:17|350:17|369:27|369:27|446:27,1,146.999995513916
286,95,51586,2,0,L|199:94,1,73.4999977569581
195,268,52037,1,0,0:0:0:0:
92,166,52263,1,0,0:0:0:0:
276,172,52488,6,0,L|349:171,1,73.4999977569581
488,75,52940,2,0,L|415:74,1,73.4999977569581
371,263,53391,2,0,L|457:264,1,73.4999977569581
467,270,53729,1,0,0:0:0:0:
467,270,53842,1,0,0:0:0:0:
264,155,54067,1,0,0:0:0:0:
371,61,54293,6,0,B|415:50|455:73|443:84|475:100|530:89,1,146.999995513916
272,263,55195,1,0,0:0:0:0:
215,130,55421,1,0,0:0:0:0:
90,344,55646,2,0,P|72:296|100:228,1,110.249996635437
104,221,56097,6,0,P|118:187|119:151,1,73.4999977569581
111,117,56436,1,0,0:0:0:0:
111,117,56549,1,0,0:0:0:0:
25,171,56774,1,0,0:0:0:0:
30,35,57000,2,0,P|69:11|119:2,1,73.4999977569581
270,103,57451,2,0,P|231:79|181:70,1,73.4999977569581
236,225,57902,6,0,B|281:212|320:242|304:253|349:283|402:252,1,146.999995513916
361,160,58579,1,0,0:0:0:0:
371,263,58804,1,0,0:0:0:0:
456,203,59030,1,0,0:0:0:0:
277,221,59255,1,0,0:0:0:0:
465,306,59481,1,0,0:0:0:0:
446,100,59706,6,0,P|410:75|366:74,1,73.4999977569581
355,74,60045,1,0,0:0:0:0:
355,74,60158,1,0,0:0:0:0:
447,4,60383,1,0,0:0:0:0:
269,3,60609,2,0,L|175:2,1,73.4999977569581
176,6,60947,1,0,0:0:0:0:
176,6,61060,1,0,0:0:0:0:
241,152,61285,1,0,0:0:0:0:
352,1,61511,5,0,0:0:0:0:
352,1,61736,1,0,0:0:0:0:
415,186,61962,2,0,L|414:270,1,73.4999977569581
297,288,62413,1,0,0:0:0:0:
320,171,62639,1,0,0:0:0:0:
320,171,62752,1,0,0:0:0:0:
320,171,62864,5,0,0:0:0:0:
412,260,63090,1,0,0:0:0:0:
213,220,63315,6,0,B|169:217|169:217|112:234|53:211,1,146.999995513916
124,137,63992,1,0,0:0:0:0:
213,220,64218,1,0,0:0:0:0:
213,220,64443,1,0,0:0:0:0:
249,42,64669,2,0,P|286:34|324:43,1,73.4999977569581
124,137,65120,6,0,P|87:129|49:138,1,73.4999977569581
28,150,65458,1,0,0:0:0:0:
28,150,65571,1,0,0:0:0:0:
87,239,65797,1,0,0:0:0:0:
121,138,66022,1,0,0:0:0:0:
121,138,66248,1,0,0:0:0:0:
207,231,66473,2,0,P|246:249|324:228,1,110.249996635437
326,216,66924,6,0,P|371:206|414:221,1,73.4999977569581
327,86,67376,1,0,0:0:0:0:
326,216,67601,1,0,0:0:0:0:
445,132,67827,1,0,0:0:0:0:
218,136,68052,1,0,0:0:0:0:
429,275,68278,1,0,0:0:0:0:
422,27,68503,1,0,0:0:0:0:
218,136,68729,6,0,L|128:138,1,73.4999977569581
258,250,69180,2,0,L|348:248,1,73.4999977569581
311,115,69631,1,0,0:0:0:0:
175,221,69857,1,0,0:0:0:0:
175,221,69970,1,0,0:0:0:0:
175,221,70082,1,0,0:0:0:0:
110,61,70308,1,0,0:0:0:0:
71,265,70516,6,0,L|68:362,1,90.9999958343508
205,146,70967,2,0,L|208:49,1,90.9999958343508
76,150,71418,1,0,0:0:0:0:
268,234,71643,1,0,0:0:0:0:
209,56,71869,1,0,0:0:0:0:
153,267,72094,1,0,0:0:0:0:
323,56,72320,6,0,P|381:39|431:50,1,90.9999958343508
249,151,72771,2,0,P|191:134|141:145,1,90.9999958343508
321,260,73222,2,0,P|379:243|429:254,1,90.9999958343508
266,384,73673,2,0,P|208:367|158:378,1,90.9999958343508
253,159,74125,6,0,P|303:144|371:170,1,90.9999958343508
464,268,74576,2,0,P|414:283|346:257,1,90.9999958343508
431,137,75027,1,0,0:0:0:0:
410,316,75252,1,0,0:0:0:0:
307,112,75478,1,0,0:0:0:0:
269,261,75703,1,0,0:0:0:0:
181,53,75929,6,0,B|124:42|124:42|69:46,1,90.9999958343508
119,210,76380,2,0,B|130:153|130:153|126:98,1,90.9999958343508
22,210,76831,2,0,B|11:267|11:267|15:322,1,90.9999958343508
167,348,77282,2,0,P|214:336|278:361,1,90.9999958343508
373,383,77734,5,0,0:0:0:0:
373,383,78185,2,0,L|400:280,1,90.9999958343508
239,213,78636,2,0,L|212:110,1,90.9999958343508
421,92,79087,2,0,L|448:-11,1,90.9999958343508
215,124,79538,2,0,B|137:124|137:124|109:136|109:136|29:135,1,181.999991668702
87,45,80215,1,0,0:0:0:0:
189,221,80440,6,0,L|286:218,1,90.9999958343508
207,40,80891,1,0,0:0:0:0:
128,128,81117,1,0,0:0:0:0:
333,139,81343,6,0,L|445:139,1,90.9999958343508
512,294,81794,2,0,L|421:294,1,90.9999958343508
497,94,82245,2,0,P|512:152|482:203,1,90.9999958343508
338,206,82696,2,0,P|265:196|224:222,1,90.9999958343508
301,306,83147,5,0,0:0:0:0:
385,83,83373,1,0,0:0:0:0:
204,215,83598,5,0,0:0:0:0:
116,34,83824,1,0,0:0:0:0:
91,277,84049,5,0,0:0:0:0:
249,77,84275,1,0,0:0:0:0:
327,349,84500,1,0,0:0:0:0:
107,152,84726,5,0,0:0:0:0:
107,152,84839,1,0,0:0:0:0:
107,152,84952,6,0,B|160:141|160:141|210:146,1,90.9999958343508
339,235,85403,2,0,B|287:241|287:241|236:229,1,90.9999958343508
356,60,85854,1,0,0:0:0:0:
339,235,86079,1,0,0:0:0:0:
197,146,86305,1,0,0:0:0:0:
179,334,86531,1,0,0:0:0:0:
287,149,86756,6,0,L|185:145,1,90.9999958343508
0,248,87207,2,0,P|44:257|88:249,1,90.9999958343508
264,68,87658,2,0,P|219:58|175:66,1,90.9999958343508
329,253,88109,2,0,P|373:262|417:254,1,90.9999958343508
255,192,88561,6,0,L|155:192,1,90.9999958343508
13,314,89012,2,0,L|119:314,1,90.9999958343508
4,190,89463,1,0,0:0:0:0:
104,314,89688,1,0,0:0:0:0:
142,94,89914,1,0,0:0:0:0:
255,192,90140,1,0,0:0:0:0:
306,70,90365,6,0,B|361:60|361:60|401:75,1,90.9999958343508
500,218,90816,2,0,B|445:208|445:208|405:223,1,90.9999958343508
255,349,91267,2,0,B|310:339|310:339|350:354,1,90.9999958343508
256,149,91719,1,0,0:0:0:0:
191,265,91944,1,0,0:0:0:0:
141,121,92170,5,0,0:0:0:0:
141,121,92621,2,0,L|169:22,1,90.9999958343508
25,256,93072,2,0,L|-3:157,1,90.9999958343508
135,350,93523,2,0,L|163:251,1,90.9999958343508
290,310,93974,6,0,B|335:290|400:322|367:332|421:352|500:324,1,181.999991668702
428,257,94651,1,0,0:0:0:0:
324,378,94876,2,0,P|276:394|216:359,1,90.9999958343508
155,213,95328,1,0,0:0:0:0:
80,318,95553,1,0,0:0:0:0:
42,175,95779,6,0,L|43:75,1,90.9999958343508
198,0,96230,2,0,L|197:100,1,90.9999958343508
42,84,96681,1,0,0:0:0:0:
219,167,96906,1,0,0:0:0:0:
35,215,97132,1,0,0:0:0:0:
210,299,97358,1,0,0:0:0:0:
139,117,97583,1,0,0:0:0:0:
139,117,99388,5,0,0:0:0:0:
196,252,99613,1,0,0:0:0:0:
279,108,99839,1,0,0:0:0:0:
78,200,100064,1,0,0:0:0:0:
310,239,100290,1,0,0:0:0:0:
154,54,100515,1,0,0:0:0:0:
197,308,100741,1,0,0:0:0:0:
328,102,100967,1,0,0:0:0:0:
57,145,101192,5,0,0:0:0:0:
300,288,101418,1,0,0:0:0:0:
229,18,101643,1,0,0:0:0:0:
87,300,101869,1,0,0:0:0:0:
396,168,102094,1,0,0:0:0:0:
79,56,102334,1,0,0:0:0:0:
162,379,102565,1,0,0:0:0:0:
386,56,102796,1,0,0:0:0:0:
96,175,103027,5,0,0:0:0:0:
429,273,103261,1,0,0:0:0:0:
44,261,103495,5,0,0:0:0:0:
390,158,103730,1,0,0:0:0:0:
1,79,103964,5,0,0:0:0:0:
250,347,104198,1,0,0:0:0:0:
251,0,104433,5,0,0:0:0:0:
250,347,104667,2,0,B|154:192|18:257|5:112|125:-33|216:87|216:87|231:103|250:118|268:104|285:89|285:89|394:-33|506:112|485:257|334:192|250:347,1,1096.2000267627
