osu file format v14

[General]
AudioFilename: audio.mp3
AudioLeadIn: 0
PreviewTime: 42363
Countdown: 0
SampleSet: Soft
StackLeniency: 0.6
Mode: 0
LetterboxInBreaks: 0
WidescreenStoryboard: 0

[Editor]
Bookmarks: 7863,11863
DistanceSpacing: 1.7
BeatDivisor: 16
GridSize: 4
TimelineZoom: 2.5

[Metadata]
Title:Mezase Pokemon Master -20th Anniversary-
TitleUnicode:めざせポケモンマスター -20th Anniversary-
Artist:Rica Matsumoto
ArtistUnicode:松本梨香
Creator:leo16834
Version:Xinchii's Pikachu
Source:ポケットモンスター サン&ムーン
Tags:pocket monster Sun Moon satoshi Ash pikachu pokémon Xinchii CookieBite
BeatmapID:1386426
BeatmapSetID:649647

[Difficulty]
HPDrainRate:6
CircleSize:4
OverallDifficulty:7
ApproachRate:9
SliderMultiplier:2.4
SliderTickRate:1

[Events]
//Background and Video events
0,0,"Kommo-o.jpg",0,0
Video,0,"SunMoon.avi"
//Break Periods
//Storyboard Layer 0 (Background)
//Storyboard Layer 1 (Fail)
//Storyboard Layer 2 (Pass)
//Storyboard Layer 3 (Foreground)
//Storyboard Sound Samples

[TimingPoints]
2863,500,4,2,0,50,1,0
6363,-100,4,2,0,10,0,0
6488,-100,4,2,0,30,0,0
6863,-100,4,2,0,40,0,0
8050,-100,4,2,0,10,0,0
8113,-100,4,2,0,40,0,0
13050,-100,4,2,0,10,0,0
13113,-100,4,2,0,40,0,0
19050,-100,4,2,0,10,0,0
19113,-100,4,2,0,40,0,0
20050,-100,4,2,0,10,0,0
20113,-100,4,2,0,40,0,0
22863,-142.857142857143,4,2,0,40,0,0
24863,-100,4,2,0,40,0,0
33488,-83.3333333333333,4,2,0,40,0,0
33800,-100,4,2,0,10,0,0
33863,-100,4,2,0,40,0,0
42863,250,4,2,0,50,1,1
42863,-133.333333333333,4,2,0,50,0,1
49113,-100,4,2,0,50,0,1
49363,-66.6666666666667,4,2,0,50,0,1
49613,-58.8235294117647,4,2,0,50,0,1
49863,-100,4,2,0,50,0,1
50363,-133.333333333333,4,2,0,50,0,1
50863,-100,4,2,0,50,0,1
51113,-133.333333333333,4,2,0,50,0,1
60863,500,4,2,0,40,1,0
77488,-66.6666666666667,4,2,0,40,0,0
77863,-58.8235294117647,4,2,0,40,0,0
78238,-50,4,2,0,40,0,0
78863,-100,4,2,0,40,0,0
81863,500,4,2,0,50,1,0
82363,-100,4,2,0,50,0,0
83363,-100,4,2,0,50,0,0
86863,-100,4,2,0,5,0,0

[Colours]
Combo1 : 255,128,192
Combo2 : 255,255,128
Combo3 : 128,255,128
Combo4 : 255,128,64
Combo5 : 0,255,255
Combo6 : 255,128,255
Combo7 : 128,128,128
Combo8 : 128,128,192

[HitObjects]
184,248,2863,6,0,L|144:304,1,60,4|0,0:0|0:0,0:0:0:0:
152,176,3113,1,0,0:0:0:0:
212,120,3238,1,0,0:0:0:0:
280,160,3363,2,0,P|300:180|320:208,1,60,8|0,0:0|0:0,0:0:0:0:
84,224,3613,2,0,P|72:192|68:160,1,60
280,76,3863,6,0,P|344:100|360:164,1,120,2|0,0:0|0:0,0:0:0:0:
208,336,4363,2,0,L|144:340,2,60,8|0|0,0:0|0:0|0:0,0:0:0:0:
236,264,4738,1,0,0:0:0:0:
344,352,4863,1,2,0:0:0:0:
336,344,5113,6,0,L|404:332,1,60
306,119,5363,2,0,L|248:108,1,60,8|0,0:0|0:0,0:0:0:0:
272,248,5738,6,0,B|368:200|328:80|328:80|340:144|296:176,1,300,2|0,0:0|0:0,0:0:0:0:
162,193,6488,2,0,P|125:193|94:209,2,60
316,286,6863,6,0,P|291:270|271:247,1,60,2|0,0:0|0:0,0:0:0:0:
248,108,7113,1,0,0:0:0:0:
248,108,7238,1,0,0:0:0:0:
424,200,7363,2,0,P|423:229|412:257,1,60,8|0,0:0|0:0,0:0:0:0:
228,80,7613,2,0,P|257:62|292:56,1,60,0|2,0:0|0:0,0:0:0:0:
162,193,7863,6,0,P|120:172|76:144,1,90
56,116,8113,2,0,L|72:180,1,60
108,316,8363,1,8,0:0:0:0:
108,316,8488,2,0,L|40:348,2,60
216,168,8863,6,0,L|161:192,1,60,2|0,0:0|0:0,0:0:0:0:
400,224,9113,2,0,L|412:164,1,60
320,76,9363,1,8,0:0:0:0:
288,276,9488,2,0,L|308:344,1,60
436,160,9738,1,2,0:0:0:0:
436,160,9988,5,0,0:0:0:0:
296,52,10113,2,0,L|320:124,1,60
168,248,10363,2,0,L|184:180,1,60,8|0,0:0|0:0,0:0:0:0:
372,284,10613,1,0,0:0:0:0:
304,333,10738,1,0,0:0:0:0:
224,316,10863,6,0,P|196:328|168:336,1,60,2|0,0:0|0:0,0:0:0:0:
181,189,11113,1,0,0:0:0:0:
181,189,11238,1,0,0:0:0:0:
320,212,11363,2,0,L|356:264,1,60,8|0,0:0|0:0,0:0:0:0:
168,164,11613,2,0,L|188:108,2,60,0|2|0,0:0|0:0|0:0,0:0:0:0:
167,336,11988,1,0,0:0:0:0:
167,336,12113,2,0,P|207:344|247:360,1,60
352,344,12363,1,8,0:0:0:0:
352,344,12488,2,0,P|380:352|410:358,2,60
272,80,12863,6,0,L|288:172,1,90,2|0,0:0|0:0,0:0:0:0:
312,204,13113,2,0,P|284:192|244:184,1,60
80,208,13363,1,8,0:0:0:0:
80,208,13488,2,0,L|140:248,1,60
264,60,13738,6,0,L|196:80,1,60,2|0,0:0|0:0,0:0:0:0:
172,328,13988,1,0,0:0:0:0:
212,204,14113,2,0,L|144:160,1,60
332,328,14363,2,0,L|408:304,1,60,8|0,0:0|0:0,0:0:0:0:
392,84,14613,1,0,0:0:0:0:
348,160,14738,1,0,0:0:0:0:
404,224,14863,6,0,L|344:244,1,60,2|0,0:0|0:0,0:0:0:0:
108,160,15113,2,0,L|168:139,1,60
400,248,15363,6,0,L|336:248,1,60,8|0,0:0|0:0,0:0:0:0:
112,136,15613,2,0,L|176:136,1,60
388,276,15863,6,0,L|312:248,1,60,2|0,0:0|0:0,0:0:0:0:
124,108,16113,2,0,L|200:136,1,60
376,296,16363,6,0,L|320:264,1,60,8|0,0:0|0:0,0:0:0:0:
136,88,16613,2,0,L|192:120,1,60
352,312,16863,5,2,0:0:0:0:
280,272,16988,1,0,0:0:0:0:
160,344,17113,2,0,L|236:332,1,60
280,180,17363,1,8,0:0:0:0:
116,228,17488,2,0,P|100:252|92:284,1,60
244,352,17738,1,2,0:0:0:0:
244,352,17988,5,0,0:0:0:0:
136,164,18113,2,0,L|152:244,1,60
344,172,18363,2,0,L|360:108,1,60,8|0,0:0|0:0,0:0:0:0:
272,272,18613,1,0,0:0:0:0:
356,256,18738,1,0,0:0:0:0:
416,316,18863,6,0,L|476:244,1,90,2|0,0:0|0:0,0:0:0:0:
484,208,19113,2,0,P|496:240|500:284,1,60
336,100,19363,1,8,0:0:0:0:
320,88,19613,5,0,0:0:0:0:
240,112,19738,1,0,0:0:0:0:
180,56,19863,2,0,P|116:88|96:104,1,90
60,112,20113,2,0,L|132:128,1,60
164,304,20363,2,0,L|116:256,1,60,8|0,0:0|0:0,0:0:0:0:
240,112,20613,1,0,0:0:0:0:
280,188,20738,1,0,0:0:0:0:
240,264,20863,6,0,L|288:308,1,60,2|0,0:0|0:0,0:0:0:0:
396,100,21113,2,0,L|324:116,1,60
192,184,21363,2,0,L|132:200,1,60,8|0,0:0|0:0,0:0:0:0:
276,324,21613,2,0,P|292:284|300:252,1,60
252,112,21863,6,0,P|264:72|276:48,1,60,2|0,0:0|0:0,0:0:0:0:
372,224,22113,1,0,0:0:0:0:
296,268,22238,1,0,0:0:0:0:
224,224,22363,2,0,L|152:244,1,60,8|0,0:0|0:0,0:0:0:0:
88,208,22613,1,0,0:0:0:0:
88,208,22863,6,0,P|112:248|144:284,1,83.9999974365235,4|0,0:0|0:0,0:0:0:0:
76,188,23363,2,0,P|84:240|100:280,1,83.9999974365235
212,336,23863,6,0,L|292:284,1,83.9999974365235
280,112,24363,2,0,L|243:187,1,83.9999974365235,2|0,0:0|0:0,0:0:0:0:
392,252,24738,1,0,0:0:0:0:
392,252,24863,6,0,L|356:200,1,60,2|0,0:0|0:0,0:0:0:0:
180,116,25113,2,0,L|168:176,1,60,2|0,0:0|0:0,0:0:0:0:
176,360,25363,2,0,L|240:340,1,60,2|0,0:0|0:0,0:0:0:0:
148,72,25613,2,0,L|132:148,1,60,2|0,0:0|0:0,0:0:0:0:
191,250,25863,6,0,P|195:198|100:256,1,240,2|0,0:0|0:0,0:0:0:0:
260,315,26613,2,0,L|300:299,1,30,2|0,0:0|0:0,0:0:0:0:
323,163,26738,2,0,L|311:203,1,30,2|0,0:0|0:0,0:0:0:0:
448,284,26863,6,0,L|380:268,1,60,4|0,0:0|0:0,0:0:0:0:
272,60,27113,2,0,L|308:116,1,60
220,280,27363,1,8,0:0:0:0:
360,240,27488,2,0,L|296:220,1,60
132,248,27738,6,0,P|172:305|220:352,1,120,2|0,0:0|0:0,0:0:0:0:
384,200,28113,2,0,P|384:168|380:136,1,60
172,64,28363,1,8,0:0:0:0:
236,176,28488,1,0,0:0:0:0:
96,256,28613,2,0,L|112:196,1,60
292,284,28863,6,0,L|248:340,1,60,2|0,0:0|0:0,0:0:0:0:
244,144,29113,2,0,P|288:112|320:160,1,120,0|8,0:0|0:0,0:0:0:0:
256,332,29613,1,0,0:0:0:0:
200,252,29738,1,0,0:0:0:0:
104,272,29863,6,0,L|52:240,1,60,2|0,0:0|0:0,0:0:0:0:
36,86,30113,2,0,L|52:144,1,60
186,310,30363,2,0,L|200:252,2,60,8|0|0,0:0|0:0|0:0,0:0:0:0:
112,368,30738,1,0,0:0:0:0:
284,316,30863,6,0,L|300:248,1,60,2|0,0:0|0:0,0:0:0:0:
188,84,31113,2,0,L|204:152,1,60
384,204,31363,1,8,0:0:0:0:
204,240,31488,2,0,P|172:236|140:216,1,60
324,84,31738,6,0,L|292:204,1,120,2|0,0:0|0:0,0:0:0:0:
416,285,32113,2,0,P|411:255|400:228,1,60
273,214,32363,1,8,0:0:0:0:
215,279,32488,1,0,0:0:0:0:
130,261,32613,2,0,P|122:229|126:189,1,60
336,316,32863,6,0,L|220:366,1,120,2|0,0:0|0:0,0:0:0:0:
400,88,33363,1,8,0:0:0:0:
308,108,33488,6,0,B|275:161|275:161|318:178|318:178|279:243,1,179.999994506836
253,252,33863,6,0,P|309:240|365:200,1,120,2|0,0:0|0:0,0:0:0:0:
400,88,34238,1,0,0:0:0:0:
248,44,34363,2,0,P|212:57|184:80,1,60,8|0,0:0|0:0,0:0:0:0:
184,320,34613,1,0,0:0:0:0:
253,252,34738,1,0,0:0:0:0:
180,188,34863,6,0,P|152:184|120:172,1,60,2|0,0:0|0:0,0:0:0:0:
184,320,35113,2,0,P|156:340|108:356,1,60
318,196,35363,2,0,P|338:264|318:316,1,120,8|0,0:0|0:0,0:0:0:0:
253,252,35738,1,0,0:0:0:0:
332,104,35863,6,0,P|357:80|403:59,1,60,2|0,0:0|0:0,0:0:0:0:
352,234,36113,2,0,P|380:234|413:242,1,60
184,320,36363,2,0,L|64:308,1,120,8|0,0:0|0:0,0:0:0:0:
16,232,36738,1,0,0:0:0:0:
132,348,36863,6,0,P|112:368|80:384,1,60,2|0,0:0|0:0,0:0:0:0:
56,152,37113,2,0,L|116:168,1,60
260,220,37363,2,0,L|196:240,1,60,8|0,0:0|0:0,0:0:0:0:
176,72,37613,1,0,0:0:0:0:
264,68,37738,1,0,0:0:0:0:
308,144,37863,6,0,L|432:176,1,120,2|0,0:0|0:0,0:0:0:0:
472,244,38238,1,0,0:0:0:0:
384,100,38363,2,0,P|416:88|456:96,1,60,8|0,0:0|0:0,0:0:0:0:
322,292,38613,2,0,L|305:235,1,60
308,144,38863,5,4,0:0:0:0:
300,120,39863,5,4,0:0:0:0:
296,96,40363,1,2,0:0:0:0:
292,72,40863,6,0,L|356:48,1,60,2|0,0:0|0:0,0:0:0:0:
180,340,41113,2,0,L|128:304,1,60,2|0,0:0|0:0,0:0:0:0:
436,160,41363,2,0,L|464:224,1,60,2|0,0:0|0:0,0:0:0:0:
136,176,41613,2,0,L|152:108,1,60,2|0,0:0|0:0,0:0:0:0:
364,344,41863,2,0,L|316:380,1,60,2|0,0:0|0:0,0:0:0:0:
316,380,42363,5,0,0:0:0:0:
364,304,42488,1,0,0:0:0:0:
304,236,42613,1,0,0:0:0:0:
224,276,42738,1,0,0:0:0:0:
232,360,42863,6,0,P|248:320|296:292,1,90.0000034332277,4|0,0:0|0:0,0:0:0:0:
444,336,43113,2,0,L|348:348,1,90.0000034332277,8|0,0:0|0:0,0:0:0:0:
239,189,43363,2,0,L|328:208,2,90.0000034332277,0|0|8,0:0|0:0|0:0,0:0:0:0:
412,156,43738,1,0,0:0:0:0:
160,192,43863,6,2,P|180:244|212:264,1,90.0000034332277,2|0,0:0|0:0,0:0:0:0:
292,88,44113,2,0,L|196:68,1,90.0000034332277,8|0,0:0|0:0,0:0:0:0:
64,168,44363,2,0,P|28:200|0:244,2,90.0000034332277,0|0|8,0:0|0:0|0:0,0:0:0:0:
239,189,44738,1,0,0:0:0:0:
120,356,44863,6,0,L|100:256,1,90.0000034332277,2|0,0:0|0:0,0:0:0:0:
260,112,45113,2,0,L|248:212,1,90.0000034332277,8|0,0:0|0:0,0:0:0:0:
48,128,45363,2,0,L|144:160,1,90.0000034332277
316,344,45613,2,0,L|231:313,1,90.0000034332277,8|0,0:0|0:0,0:0:0:0:
348,120,45863,6,0,P|424:124|416:212,1,180.000006866455,2|8,0:0|0:0,0:0:0:0:
60,260,46363,2,0,L|156:240,1,90.0000034332277
384,168,46613,2,0,L|288:148,1,90.0000034332277,8|0,0:0|0:0,0:0:0:0:
248,340,46863,6,0,P|280:312|288:264,1,90.0000034332277,2|0,0:0|0:0,0:0:0:0:
216,76,47113,1,8,0:0:0:0:
216,76,47238,1,0,0:0:0:0:
55,125,47363,2,0,L|144:144,1,90.0000034332277
377,252,47613,2,0,L|288:266,1,90.0000034332277,8|0,0:0|0:0,0:0:0:0:
384,84,47863,6,0,P|424:124|424:172,1,90.0000034332277,2|0,0:0|0:0,0:0:0:0:
276,256,48113,1,8,0:0:0:0:
276,256,48238,1,0,0:0:0:0:
126,343,48363,2,0,L|216:336,1,90.0000034332277
296,152,48613,2,0,L|244:68,1,90.0000034332277,8|0,0:0|0:0,0:0:0:0:
136,188,48863,6,0,P|152:236|192:228,1,90.0000034332277,2|0,0:0|0:0,0:0:0:0:
136,168,49113,6,0,P|120:228|180:260,1,120,2|0,0:0|0:0,0:0:0:0:
164,152,49363,6,0,P|98:214|150:274,1,180.000006866455,2|0,0:0|0:0,0:0:0:0:
192,160,49613,6,0,P|84:196|104:272,1,204.000003890991,2|0,0:0|0:0,0:0:0:0:
204,180,49863,6,0,P|224:160|244:136,3,60,2|0|0|0,0:0|0:0|0:0|0:0,0:0:0:0:
232,72,50113,2,0,P|250:47|280:24,3,60
368,200,50363,6,0,P|332:208|312:204,1,45.0000017166138,2|0,0:0|0:0,0:0:0:0:
372,196,50488,2,0,P|335:197|312:188,1,45.0000017166138,2|0,0:0|0:0,0:0:0:0:
376,192,50613,2,0,P|339:187|320:176,1,45.0000017166138,2|0,0:0|0:0,0:0:0:0:
380,188,50738,2,0,P|344:176|328:156,1,45.0000017166138,2|0,0:0|0:0,0:0:0:0:
384,184,50863,6,0,P|408:248|364:272,1,120,4|0,0:0|0:0,0:0:0:0:
193,117,51113,6,0,P|220:84|268:36,1,90.0000034332277,8|0,0:0|0:0,0:0:0:0:
374,271,51363,2,0,L|273:289,2,90.0000034332277,0|0|8,0:0|0:0|0:0,0:0:0:0:
428,192,51738,1,0,0:0:0:0:
240,368,51863,6,0,P|200:328|192:280,1,90.0000034332277,2|0,0:0|0:0,0:0:0:0:
398,106,52113,2,0,L|428:192,1,90.0000034332277,8|0,0:0|0:0,0:0:0:0:
108,144,52363,2,0,L|144:44,2,90.0000034332277,0|0|8,0:0|0:0|0:0,0:0:0:0:
254,287,52738,1,0,0:0:0:0:
403,174,52863,6,0,P|365:150|324:132,1,90.0000034332277,2|0,0:0|0:0,0:0:0:0:
131,162,53113,2,0,P|170:185|211:203,1,90.0000034332277,8|0,0:0|0:0,0:0:0:0:
384,108,53363,2,0,L|332:196,1,90.0000034332277
152,228,53613,2,0,L|212:136,1,90.0000034332277,8|0,0:0|0:0,0:0:0:0:
380,280,53863,6,0,P|372:352|300:312,1,180.000006866455,2|8,0:0|0:0,0:0:0:0:
210,63,54363,2,0,L|198:179,1,90.0000034332277
344,316,54613,2,0,L|328:216,1,90.0000034332277,8|0,0:0|0:0,0:0:0:0:
90,245,54863,6,0,P|126:272|166:293,1,90.0000034332277,2|0,0:0|0:0,0:0:0:0:
352,280,55113,2,0,L|368:232,2,45.0000017166138,8|0|0,0:0|0:0|0:0,0:0:0:0:
232,112,55363,2,0,L|328:48,1,90.0000034332277
108,60,55613,2,0,L|60:92,2,45.0000017166138,8|0|0,0:0|0:0|0:0,0:0:0:0:
272,200,55863,6,0,P|212:204|176:188,1,90.0000034332277,2|0,0:0|0:0,0:0:0:0:
304,48,56113,2,0,L|328:112,2,45.0000017166138,8|0|0,0:0|0:0|0:0,0:0:0:0:
452,144,56363,2,0,L|440:248,1,90.0000034332277
247,275,56613,2,0,L|236:224,2,45.0000017166138,8|0|0,0:0|0:0|0:0,0:0:0:0:
256,192,56863,12,0,57863,0:0:0:0:
256,192,58363,5,0,0:0:0:0:
284,188,58863,5,0,0:0:0:0:
240,168,59113,1,0,0:0:0:0:
248,216,59363,6,0,L|264:272,1,45.0000017166138,2|0,0:0|0:0,0:0:0:0:
312,160,59488,2,0,P|336:156|368:144,1,45.0000017166138,2|0,0:0|0:0,0:0:0:0:
252,92,59613,2,0,L|236:44,1,45.0000017166138,2|0,0:0|0:0,0:0:0:0:
184,152,59738,2,0,P|161:155|140:162,1,45.0000017166138,2|0,0:0|0:0,0:0:0:0:
342,294,59863,6,0,P|386:303|431:300,1,90.0000034332277,2|0,0:0|0:0,0:0:0:0:
257,110,60238,2,0,P|241:68|215:31,1,90.0000034332277,2|0,0:0|0:0,0:0:0:0:
138,268,60613,2,0,P|108:302|91:344,1,90.0000034332277,2|0,0:0|0:0,0:0:0:0:
335,338,60863,6,0,P|368:293|336:248,1,120,4|0,0:0|0:0,0:0:0:0:
120,144,61363,2,0,L|176:104,1,60,8|0,0:0|0:0,0:0:0:0:
208,36,61613,1,0,0:0:0:0:
284,72,61738,1,0,0:0:0:0:
360,36,61863,6,0,L|436:44,1,60
280,192,62113,2,0,L|245:142,1,60
408,60,62363,1,8,0:0:0:0:
444,136,62488,1,0,0:0:0:0:
368,176,62613,2,0,L|404:232,1,60
200,228,62863,6,0,P|203:161|256:142,1,120,2|0,0:0|0:0,0:0:0:0:
376,336,63363,2,0,L|312:360,1,60,8|0,0:0|0:0,0:0:0:0:
220,332,63613,2,0,L|180:348,1,30,2|0,0:0|0:0,0:0:0:0:
268,244,63738,2,0,L|300:232,1,30
144,168,63863,6,0,P|124:200|120:228,1,60,2|0,0:0|0:0,0:0:0:0:
220,332,64113,1,0,0:0:0:0:
280,219,64238,2,0,L|308:208,1,30
396,120,64363,2,0,L|368:128,1,30,8|0,0:0|0:0,0:0:0:0:
404,288,64488,2,0,L|424:228,2,60,2|0|0,0:0|0:0|0:0,0:0:0:0:
234,168,64863,6,0,L|223:107,1,60,2|0,0:0|0:0,0:0:0:0:
149,69,65113,1,0,0:0:0:0:
149,69,65238,1,0,0:0:0:0:
193,245,65363,2,0,L|258:263,1,60,8|0,0:0|0:0,0:0:0:0:
378,208,65613,2,0,L|320:196,1,60
109,221,65863,5,0,0:0:0:0:
132,301,65988,1,0,0:0:0:0:
59,342,66113,2,0,L|0:316,1,60
185,180,66363,2,0,L|251:203,1,60,8|0,0:0|0:0,0:0:0:0:
312,352,66613,2,0,L|247:333,1,60
110,130,66863,6,0,P|162:87|224:97,1,120,2|0,0:0|0:0,0:0:0:0:
358,327,67363,2,0,L|276:301,1,60,8|0,0:0|0:0,0:0:0:0:
453,222,67613,2,0,L|476:264,2,30
350,89,67863,6,0,L|334:154,1,60
485,279,68113,2,0,L|475:220,1,60
299,155,68363,1,8,0:0:0:0:
331,232,68488,1,0,0:0:0:0:
267,287,68613,2,0,L|207:304,1,60
40,197,68863,6,0,L|112:181,1,60,2|0,0:0|0:0,0:0:0:0:
160,240,69113,1,0,0:0:0:0:
160,240,69238,1,0,0:0:0:0:
299,124,69363,2,0,L|228:93,1,60,8|0,0:0|0:0,0:0:0:0:
289,309,69613,6,0,L|416:287,1,120
398,85,69988,2,0,L|335:61,2,60
449,251,70363,2,0,L|377:263,1,60,8|0,0:0|0:0,0:0:0:0:
209,178,70613,2,0,L|267:150,1,60
205,344,70863,6,0,P|145:342|113:295,1,120,2|0,0:0|0:0,0:0:0:0:
292,115,71363,2,0,L|283:175,1,60,8|0,0:0|0:0,0:0:0:0:
420,332,71613,2,0,L|407:263,1,60
424,79,71863,6,0,L|473:141,2,60
344,51,72238,1,0,0:0:0:0:
292,115,72363,2,0,P|258:111|207:115,1,60,8|0,0:0|0:0,0:0:0:0:
114,254,72613,2,0,L|178:228,1,60
170,36,72863,6,0,P|126:97|136:151,1,120,2|0,0:0|0:0,0:0:0:0:
380,95,73363,2,0,P|348:90|315:92,1,60,8|0,0:0|0:0,0:0:0:0:
262,275,73613,2,0,P|290:261|313:245,1,60
204,110,73863,6,0,L|138:109,2,60
255,176,74238,1,0,0:0:0:0:
233,257,74363,2,0,L|190:315,1,60,8|0,0:0|0:0,0:0:0:0:
389,235,74613,6,0,P|374:87|255:176,1,360,2|8,0:0|0:0,0:0:0:0:
375,315,75613,2,0,L|415:333,2,30
340,166,75863,6,0,P|178:128|330:215,1,480,2|0,0:0|0:0,0:0:0:0:
255,176,77113,6,0,L|147:247,1,120,2|0,0:0|0:0,0:0:0:0:
400,222,77488,6,0,B|393:92|393:92|339:124,1,180.000006866455,2|0,0:0|0:0,0:0:0:0:
284,317,77863,6,0,B|407:361|407:361|403:272,1,204.000003890991,2|0,0:0|0:0,0:0:0:0:
252,130,78238,6,0,B|93:239|93:239|151:267,1,240,2|0,0:0|0:0,0:0:0:0:
434,366,78613,2,0,L|427:236,1,120,2|0,0:0|0:0,0:0:0:0:
411,18,78863,6,0,L|357:57,1,60,4|0,0:0|0:0,0:0:0:0:
279,72,79113,1,0,0:0:0:0:
278,155,79238,1,0,0:0:0:0:
357,182,79363,2,0,L|396:246,1,60,8|0,0:0|0:0,0:0:0:0:
464,136,79613,2,0,L|407:118,1,60
201,111,79863,6,0,P|187:176|222:227,1,120,2|0,0:0|0:0,0:0:0:0:
469,207,80363,2,0,L|482:149,2,60,8|0|0,0:0|0:0|0:0,0:0:0:0:
494,287,80738,1,0,0:0:0:0:
362,343,80863,1,2,0:0:0:0:
376,350,81113,6,0,L|358:285,1,60
170,107,81363,2,0,L|156:179,1,60,8|0,0:0|0:0,0:0:0:0:
412,156,81738,6,0,P|443:86|367:84,1,180,2|0,0:0|0:0,0:0:0:0:
172,320,82488,5,0,0:0:0:0:
208,256,82581,2,0,L|324:196,1,120,2|0,0:0|0:0,0:0:0:0:
120,176,83071,6,0,L|76:200,2,40
339,305,83363,6,0,P|420:312|424:232,1,180,4|4,0:0|0:0,0:0:0:0:
256,192,83863,12,2,86863,0:0:0:0:
