osu file format v14

[General]
AudioFilename: audio.mp3
AudioLeadIn: 0
PreviewTime: 42363
Countdown: 0
SampleSet: Soft
StackLeniency: 0.6
Mode: 0
LetterboxInBreaks: 0
WidescreenStoryboard: 0

[Editor]
DistanceSpacing: 1.3
BeatDivisor: 4
GridSize: 4
TimelineZoom: 2.999999

[Metadata]
Title:Mezase Pokemon Master -20th Anniversary-
TitleUnicode:めざせポケモンマスター -20th Anniversary-
Artist:Rica Matsumoto
ArtistUnicode:松本梨香
Creator:leo16834
Version:Insane
Source:ポケットモンスター サン&ムーン
Tags:pocket monster Sun Moon satoshi Ash pikachu pokémon Xinchii CookieBite
BeatmapID:1376854
BeatmapSetID:649647

[Difficulty]
HPDrainRate:6
CircleSize:4.2
OverallDifficulty:7
ApproachRate:9
SliderMultiplier:2.4
SliderTickRate:1

[Events]
//Background and Video events
0,0,"Kommo-o.jpg",0,0
Video,0,"SunMoon.avi"
//Break Periods
//Storyboard Layer 0 (Background)
//Storyboard Layer 1 (Fail)
//Storyboard Layer 2 (Pass)
//Storyboard Layer 3 (Foreground)
//Storyboard Sound Samples

[TimingPoints]
2863,500,4,2,1,80,1,0
2863,-100,4,2,1,80,0,0
6863,-100,4,2,1,63,0,0
24363,-100,4,2,0,63,0,0
24488,-100,4,2,1,63,0,0
42863,250,4,2,2,70,1,1
42863,-142.857142857143,4,2,2,70,0,1
50363,-142.857142857143,4,2,2,70,0,0
50863,-142.857142857143,4,2,2,70,0,1
56863,-142.857142857143,4,2,2,70,0,0
60863,500,4,2,1,63,1,0
60863,-100,4,2,1,63,0,0
74613,-142.857142857143,4,2,1,63,0,0
76863,-100,4,2,1,63,0,0
81863,500,4,2,1,63,1,0
81863,-100,4,2,1,63,0,0
83363,-83.3333333333333,4,2,1,63,0,0
86863,-100,4,2,0,5,0,0

[Colours]
Combo1 : 255,128,192
Combo2 : 255,255,128
Combo3 : 128,255,128
Combo4 : 255,128,64
Combo5 : 0,255,255
Combo6 : 255,128,255
Combo7 : 128,128,128
Combo8 : 128,128,192

[HitObjects]
25,23,2863,6,0,P|52:102|32:173,1,120,2|0,0:0|0:0,0:0:0:0:
19,222,3238,1,0,0:0:0:0:
72,291,3363,2,0,L|160:287,1,60,8|0,0:0|0:0,0:0:0:0:
225,202,3613,2,0,L|137:198,1,60
126,71,3863,6,0,P|196:84|266:43,1,120,4|0,0:0|0:0,0:0:0:0:
318,17,4238,1,0,0:0:0:0:
408,54,4363,2,0,P|457:52|488:40,1,60,2|0,0:0|0:0,0:0:0:0:
448,159,4613,2,0,P|418:153|388:154,1,60
292,198,4863,6,0,L|318:348,1,120,2|0,0:0|0:0,0:0:0:0:
405,361,5238,1,0,0:0:0:0:
475,302,5363,2,0,L|485:225,1,60,8|0,0:0|0:0,0:0:0:0:
504,34,5738,1,4,0:0:0:0:
152,136,6488,6,0,L|77:144,2,60
269,77,6863,2,0,P|313:124|309:198,1,120,2|0,0:0|0:0,0:0:0:0:
266,244,7238,1,0,0:0:0:0:
316,318,7363,6,0,L|391:312,1,60,8|0,0:0|0:0,0:0:0:0:
201,348,7613,2,0,L|126:342,1,60
41,353,7863,2,0,P|48:298|42:264,1,60,8|0,0:0|0:0,0:0:0:0:
34,193,8113,2,0,P|27:138|33:104,1,60
137,191,8363,1,8,0:0:0:0:
137,191,8488,2,0,B|181:173|218:180|218:180|277:217,1,120
366,309,8863,6,0,L|374:235,1,60,2|0,0:0|0:0,0:0:0:0:
366,75,9113,2,0,L|374:149,1,60
249,199,9363,1,8,0:0:0:0:
249,199,9488,2,0,L|243:111,1,60
234,24,9738,2,0,P|180:37|109:22,1,120,8|0,0:0|0:0,0:0:0:0:
46,129,10113,2,0,L|129:118,1,60,8|0,0:0|0:0,0:0:0:0:
203,227,10363,2,0,P|119:208|52:225,1,120,8|0,0:0|0:0,0:0:0:0:
46,297,10738,1,0,0:0:0:0:
133,352,10863,6,0,P|167:343|217:346,1,60,2|0,0:0|0:0,0:0:0:0:
282,356,11113,2,0,P|316:365|366:362,1,60
461,277,11363,2,0,L|363:286,1,60,8|0,0:0|0:0,0:0:0:0:
322,229,11613,2,0,L|224:238,1,60
120,180,11863,5,8,0:0:0:0:
120,180,11988,2,0,P|197:186|261:143,1,120
337,92,12363,1,8,0:0:0:0:
337,92,12488,2,0,L|326:219,1,120
385,297,12863,5,4,0:0:0:0:
166,233,13113,1,0,0:0:0:0:
311,82,13363,2,0,L|304:19,1,60,8|0,0:0|0:0,0:0:0:0:
422,58,13613,1,0,0:0:0:0:
422,58,13738,2,0,P|397:175|412:212,1,120,8|0,0:0|0:0,0:0:0:0:
452,246,14113,1,0,0:0:0:0:
452,246,14363,2,0,P|353:238|352:238,1,60,8|0,0:0|0:0,0:0:0:0:
346,340,14613,2,0,L|271:348,1,60
95,330,14863,6,0,L|80:242,1,60,2|0,0:0|0:0,0:0:0:0:
221,330,15113,2,0,L|236:242,1,60,8|0,0:0|0:0,0:0:0:0:
66,204,15363,6,0,L|51:116,1,60,2|0,0:0|0:0,0:0:0:0:
247,205,15613,2,0,L|262:117,1,60,8|0,0:0|0:0,0:0:0:0:
145,25,15863,6,0,P|214:42|226:39,1,60,2|0,0:0|0:0,0:0:0:0:
358,26,16113,2,0,P|289:43|277:40,1,60,8|0,0:0|0:0,0:0:0:0:
110,142,16363,6,0,P|145:158|205:163,1,60,2|0,0:0|0:0,0:0:0:0:
402,142,16613,2,0,P|367:158|307:163,1,60,8|0,0:0|0:0,0:0:0:0:
165,93,16863,5,4,0:0:0:0:
337,225,17113,1,8,0:0:0:0:
140,277,17363,6,0,L|146:336,1,60,8|0,0:0|0:0,0:0:0:0:
61,176,17613,1,0,0:0:0:0:
195,157,17738,2,0,P|268:144|294:90,1,120,8|0,0:0|0:0,0:0:0:0:
374,66,18113,1,0,0:0:0:0:
374,66,18363,2,0,L|441:74,1,60,2|0,0:0|0:0,0:0:0:0:
480,185,18613,2,0,L|413:193,1,60
300,348,18863,6,0,L|316:185,1,120,4|0,0:0|0:0,0:0:0:0:
448,324,19238,1,0,0:0:0:0:
448,324,19363,2,0,L|355:331,1,60,8|0,0:0|0:0,0:0:0:0:
282,351,19613,2,0,L|203:355,1,60
55,298,19863,1,8,0:0:0:0:
55,298,19988,2,0,L|193:291,1,120
243,225,20363,2,0,L|234:120,1,60,8|0,0:0|0:0,0:0:0:0:
339,38,20613,2,0,L|330:143,1,60
166,189,20863,6,0,L|160:107,1,60,2|0,0:0|0:0,0:0:0:0:
241,44,21113,1,8,0:0:0:0:
346,129,21238,2,0,P|415:133|497:99,1,120,8|8,0:0|0:0,0:0:0:0:
491,238,21613,2,0,P|417:254|395:249,1,60,8|0,0:0|0:0,0:0:0:0:
251,362,21863,6,0,B|241:301|286:309|257:222,1,120,4|0,0:0|0:0,0:0:0:0:
179,180,22238,1,0,0:0:0:0:
269,120,22363,2,0,B|330:110|322:155|409:126,1,120,2|0,0:0|0:0,0:0:0:0:
455,60,22738,1,0,0:0:0:0:
455,60,22863,5,4,0:0:0:0:
300,262,23113,1,0,0:0:0:0:
183,40,23363,1,0,0:0:0:0:
434,176,23613,5,0,0:0:0:0:
202,267,23863,1,4,0:0:0:0:
216,19,24113,1,0,0:0:0:0:
316,279,24363,5,2,0:0:0:0:
371,28,24613,1,0,0:0:0:0:
130,103,24863,1,4,0:0:0:0:
380,248,25113,6,0,L|343:158,1,60
279,13,25363,2,0,L|228:92,1,60
139,225,25613,2,0,L|232:211,1,60
464,161,25863,6,0,P|386:177|373:44,1,240,4|0,0:0|0:0,0:0:0:0:
364,49,26863,6,0,L|274:53,1,60,2|0,0:0|0:0,0:0:0:0:
205,145,27113,2,0,L|295:149,1,60
395,13,27363,2,0,L|241:22,1,120,2|0,0:0|0:0,0:0:0:0:
168,57,27738,1,0,0:0:0:0:
66,20,27863,6,0,P|62:49|68:79,1,60,2|0,0:0|0:0,0:0:0:0:
223,160,28113,2,0,P|228:192|213:240,1,60
73,309,28363,2,0,L|175:299,1,60,2|0,0:0|0:0,0:0:0:0:
253,215,28613,2,0,L|355:225,1,60,8|0,0:0|0:0,0:0:0:0:
411,79,28863,5,4,0:0:0:0:
179,48,29113,1,0,0:0:0:0:
209,272,29363,5,8,0:0:0:0:
353,28,29613,1,0,0:0:0:0:
183,227,29863,6,0,L|81:217,1,60,8|0,0:0|0:0,0:0:0:0:
329,227,30113,2,0,L|431:217,1,60,8|0,0:0|0:0,0:0:0:0:
339,105,30363,1,0,0:0:0:0:
339,105,30488,2,0,P|271:100|216:60,1,120,8|0,0:0|0:0,0:0:0:0:
145,4,30863,6,0,L|73:15,1,60,2|0,0:0|0:0,0:0:0:0:
17,95,31113,1,8,0:0:0:0:
17,95,31363,2,0,L|89:106,1,60,2|0,0:0|0:0,0:0:0:0:
151,167,31613,1,0,0:0:0:0:
151,167,31738,1,0,0:0:0:0:
134,303,31863,6,0,L|142:234,1,60,2|0,0:0|0:0,0:0:0:0:
244,209,32113,2,0,L|236:140,1,60
49,54,32363,2,0,L|41:123,1,60,2|0,0:0|0:0,0:0:0:0:
89,201,32613,1,8,0:0:0:0:
15,266,32738,1,0,0:0:0:0:
61,350,32863,6,0,L|198:345,1,120,4|0,0:0|0:0,0:0:0:0:
290,329,33238,1,0,0:0:0:0:
392,365,33363,2,0,P|440:361|483:344,1,60,2|0,0:0|0:0,0:0:0:0:
386,233,33613,2,0,P|338:237|295:254,1,60
492,324,33863,22,0,B|505:296|505:296|479:245|479:245|497:185,1,120,2|0,0:0|0:0,0:0:0:0:
501,117,34238,1,0,0:0:0:0:
474,28,34363,2,0,L|402:21,1,60,2|0,0:0|0:0,0:0:0:0:
402,115,34613,2,0,L|304:122,1,60
170,44,34863,5,2,0:0:0:0:
365,151,35113,1,0,0:0:0:0:
161,249,35363,1,8,0:0:0:0:
231,29,35613,1,0,0:0:0:0:
411,182,35863,1,8,0:0:0:0:
411,182,36113,1,0,0:0:0:0:
149,213,36363,1,8,0:0:0:0:
154,220,36863,6,0,L|254:207,1,60,4|0,0:0|0:0,0:0:0:0:
358,220,37113,2,0,L|298:212,1,60
171,70,37363,2,0,P|208:110|210:151,1,60,2|0,0:0|0:0,0:0:0:0:
341,70,37613,2,0,P|304:110|302:151,1,60
255,323,37863,2,0,L|255:180,1,120,2|0,0:0|0:0,0:0:0:0:
255,98,38238,1,0,0:0:0:0:
192,13,38363,2,0,L|113:22,1,60,10|0,0:0|0:0,0:0:0:0:
320,13,38613,2,0,L|399:22,1,60,8|0,0:0|0:0,0:0:0:0:
501,11,38863,5,4,0:0:0:0:
493,47,39863,1,4,0:0:0:0:
484,77,40363,1,8,0:0:0:0:
474,126,40863,5,8,0:0:0:0:
503,198,40988,1,8,0:0:0:0:
443,248,41113,1,8,0:0:0:0:
376,206,41238,1,8,0:0:0:0:
396,131,41363,2,0,L|324:120,1,60,8|8,0:0|0:0,0:0:0:0:
312,40,41613,2,0,L|240:51,1,60,8|8,0:0|0:0,0:0:0:0:
156,31,41863,1,2,0:0:0:0:
77,173,42363,6,0,L|22:113,1,60,2|2,0:0|0:0,0:0:0:0:
77,173,42613,2,0,L|132:113,1,60,2|2,0:0|0:0,0:0:0:0:
77,173,42863,6,0,B|127:246|28:273|91:348,1,167.999994873047,2|8,0:0|0:0,0:0:0:0:
186,359,43238,1,0,0:0:0:0:
280,298,43363,2,0,P|266:258|272:208,1,83.9999974365235,2|0,0:0|0:0,0:0:0:0:
381,115,43613,2,0,P|395:155|389:205,1,83.9999974365235,8|0,0:0|0:0,0:0:0:0:
469,262,43863,6,0,P|415:321|386:328,1,83.9999974365235,2|0,0:0|0:0,0:0:0:0:
327,192,44113,2,0,P|249:175|228:154,1,83.9999974365235,8|0,0:0|0:0,0:0:0:0:
163,67,44363,1,2,0:0:0:0:
145,167,44488,1,0,0:0:0:0:
254,72,44613,2,0,P|308:68|345:55,1,83.9999974365235,8|0,0:0|0:0,0:0:0:0:
469,11,44863,6,0,P|454:61|456:116,1,83.9999974365235,2|0,0:0|0:0,0:0:0:0:
471,261,45113,2,0,P|456:211|458:156,1,83.9999974365235,8|0,0:0|0:0,0:0:0:0:
321,46,45363,2,0,P|333:102|371:132,1,83.9999974365235,2|0,0:0|0:0,0:0:0:0:
319,262,45613,2,0,P|331:206|369:176,1,83.9999974365235,8|0,0:0|0:0,0:0:0:0:
225,155,45863,6,0,B|157:152|122:112|122:112|109:44,1,167.999994873047,2|8,0:0|0:0,0:0:0:0:
31,171,46238,1,0,0:0:0:0:
88,266,46363,2,0,L|183:258,1,83.9999974365235,2|0,0:0|0:0,0:0:0:0:
330,357,46613,2,0,L|235:349,1,83.9999974365235,8|0,0:0|0:0,0:0:0:0:
167,222,46863,6,0,B|147:152|147:152|187:132|197:67,1,167.999994873047,4|8,0:0|0:0,0:0:0:0:
285,29,47238,1,0,0:0:0:0:
167,51,47363,2,0,P|78:48|55:32,1,83.9999974365235,2|0,0:0|0:0,0:0:0:0:
25,173,47613,2,0,P|114:170|137:154,1,83.9999974365235,8|0,0:0|0:0,0:0:0:0:
255,153,47863,6,0,L|313:138,2,41.9999987182618,2|0|0,0:0|0:0|0:0,0:0:0:0:
176,286,48113,2,0,P|92:282|70:263,1,83.9999974365235,8|0,0:0|0:0,0:0:0:0:
263,105,48363,2,0,L|325:91,2,41.9999987182618,2|0|0,0:0|0:0|0:0,0:0:0:0:
142,238,48613,2,0,P|58:234|36:215,1,83.9999974365235,8|0,0:0|0:0,0:0:0:0:
26,68,48863,5,12,0:0:0:0:
142,238,49113,69,12,0:0:0:0:
223,26,49363,5,12,0:0:0:0:
322,280,49613,5,12,0:0:0:0:
483,13,49863,6,0,L|471:107,1,83.9999974365235,12|0,0:0|0:0,0:0:0:0:
510,193,50113,2,0,P|481:239|421:262,1,83.9999974365235,8|0,0:0|0:0,0:0:0:0:
321,194,50363,6,0,L|279:202,3,41.9999987182618,2|0|0|0,0:0|0:0|0:0|0:0,0:0:0:0:
365,126,50613,2,0,L|406:117,3,41.9999987182618,10|0|0|0,0:0|0:0|0:0|0:0,0:0:0:0:
485,34,50863,6,0,P|396:40|302:6,1,167.999994873047,2|8,0:0|0:0,0:0:0:0:
232,53,51238,1,0,0:0:0:0:
146,14,51363,2,0,P|44:37|35:45,1,83.9999974365235,2|0,0:0|0:0,0:0:0:0:
12,182,51613,2,0,P|114:159|123:151,1,83.9999974365235,8|0,0:0|0:0,0:0:0:0:
226,90,51863,6,0,L|216:192,1,83.9999974365235,2|0,0:0|0:0,0:0:0:0:
324,322,52113,2,0,L|314:220,1,83.9999974365235,8|0,0:0|0:0,0:0:0:0:
179,191,52363,2,0,L|80:201,1,83.9999974365235,2|0,0:0|0:0,0:0:0:0:
332,182,52613,2,0,L|415:173,1,83.9999974365235,8|0,0:0|0:0,0:0:0:0:
455,71,52863,6,0,L|443:18,2,41.9999987182618,4|0|0,0:0|0:0|0:0,0:0:0:0:
410,201,53113,2,0,P|431:247|428:298,1,83.9999974365235,8|0,0:0|0:0,0:0:0:0:
337,362,53363,2,0,L|263:354,2,41.9999987182618,4|0|0,0:0|0:0|0:0,0:0:0:0:
483,372,53613,2,0,L|473:272,1,83.9999974365235,8|0,0:0|0:0,0:0:0:0:
351,218,53863,2,0,L|341:118,1,83.9999974365235,2|0,0:0|0:0,0:0:0:0:
194,100,54113,2,0,L|204:200,1,83.9999974365235,8|0,0:0|0:0,0:0:0:0:
162,328,54363,6,0,L|146:371,3,41.9999987182618,2|0|0|0,0:0|0:0|0:0|0:0,0:0:0:0:
59,296,54613,2,0,L|75:253,3,41.9999987182618,8|0|0|0,0:0|0:0|0:0|0:0,0:0:0:0:
22,169,54863,6,0,B|57:115|123:135|123:135|180:98,1,167.999994873047,4|8,0:0|0:0,0:0:0:0:
234,184,55238,1,0,0:0:0:0:
314,127,55363,2,0,P|307:67|272:31,1,83.9999974365235,2|0,0:0|0:0,0:0:0:0:
136,12,55613,2,0,P|143:72|178:108,1,83.9999974365235,8|0,0:0|0:0,0:0:0:0:
277,224,55863,6,0,B|329:196|380:231|380:231|464:210,1,167.999994873047,2|8,0:0|0:0,0:0:0:0:
386,135,56238,1,0,0:0:0:0:
323,303,56363,2,0,P|250:317|221:312,1,83.9999974365235,2|0,0:0|0:0,0:0:0:0:
59,269,56613,2,0,P|132:255|161:260,1,83.9999974365235,8|0,0:0|0:0,0:0:0:0:
256,193,56863,5,4,0:0:0:0:
256,192,56925,12,0,58863,0:0:0:0:
306,179,59363,6,0,L|317:287,1,83.9999974365235
187,187,59613,2,0,L|176:79,1,83.9999974365235
402,48,59863,5,4,0:0:0:0:
248,100,60238,1,4,0:0:0:0:
96,46,60613,1,4,0:0:0:0:
248,100,60863,6,0,P|264:182|242:259,1,120,2|0,0:0|0:0,0:0:0:0:
147,351,61363,1,8,0:0:0:0:
147,351,61863,6,0,L|135:264,1,60,2|0,0:0|0:0,0:0:0:0:
60,165,62113,2,0,L|48:252,1,60
42,326,62363,1,8,0:0:0:0:
42,326,62488,2,0,L|175:311,1,120
307,351,62863,6,0,P|312:263|286:228,1,120,2|0,0:0|0:0,0:0:0:0:
223,152,63238,1,0,0:0:0:0:
223,152,63363,2,0,L|289:155,1,60,8|0,0:0|0:0,0:0:0:0:
379,65,63613,2,0,L|313:68,1,60
161,18,63863,6,0,L|144:102,1,60,2|0,0:0|0:0,0:0:0:0:
78,192,64113,1,8,0:0:0:0:
78,192,64238,2,0,L|61:276,1,60,0|8,0:0|0:0,0:0:0:0:
167,325,64488,2,0,P|234:309|291:320,1,120,8|0,0:0|0:0,0:0:0:0:
396,295,64863,6,0,L|399:213,1,60,2|0,0:0|0:0,0:0:0:0:
282,163,65113,2,0,L|279:245,1,60
428,318,65363,2,0,L|405:242,1,60,2|0,0:0|0:0,0:0:0:0:
247,139,65613,2,0,L|270:215,1,60
156,308,65863,2,0,P|148:216|175:169,1,120,2|0,0:0|0:0,0:0:0:0:
247,139,66238,1,0,0:0:0:0:
201,50,66363,2,0,L|125:61,1,60,2|0,0:0|0:0,0:0:0:0:
42,32,66613,2,0,P|34:67|57:112,1,60
92,172,66863,6,0,P|94:252|62:307,1,120,2|0,0:0|0:0,0:0:0:0:
28,357,67238,1,0,0:0:0:0:
28,357,67363,2,0,L|110:368,1,60,2|0,0:0|0:0,0:0:0:0:
176,324,67613,2,0,L|258:335,1,60
330,347,67863,2,0,B|403:354|403:354|453:306,1,120,2|0,0:0|0:0,0:0:0:0:
400,236,68238,1,0,0:0:0:0:
497,210,68363,2,0,L|486:139,1,60,2|0,0:0|0:0,0:0:0:0:
393,93,68613,2,0,L|382:22,1,60
512,77,68863,6,0,L|370:97,1,120,2|0,0:0|0:0,0:0:0:0:
285,126,69238,1,0,0:0:0:0:
400,177,69363,2,0,P|405:217|380:263,1,60,8|0,0:0|0:0,0:0:0:0:
327,313,69613,2,0,P|266:335|215:330,1,60
132,199,69863,2,0,P|231:207|269:234,1,120,2|0,0:0|0:0,0:0:0:0:
330,268,70238,1,0,0:0:0:0:
330,268,70363,2,0,L|335:191,1,60,8|0,0:0|0:0,0:0:0:0:
285,126,70613,2,0,L|289:50,1,60
182,57,70863,6,0,P|92:68|23:44,1,120,4|0,0:0|0:0,0:0:0:0:
15,153,71238,1,0,0:0:0:0:
15,153,71363,2,0,P|86:169|109:164,1,60,8|0,0:0|0:0,0:0:0:0:
168,170,71613,2,0,P|197:165|224:153,1,60
322,108,71863,2,0,P|397:107|446:169,1,120,2|0,0:0|0:0,0:0:0:0:
460,219,72238,1,0,0:0:0:0:
426,302,72363,2,0,L|343:287,1,60,8|0,0:0|0:0,0:0:0:0:
292,353,72613,2,0,L|201:337,1,60,8|0,0:0|0:0,0:0:0:0:
91,262,72863,6,0,L|238:252,1,120,2|0,0:0|0:0,0:0:0:0:
302,251,73238,1,0,0:0:0:0:
394,244,73363,2,0,B|408:214|408:214|399:178,1,60,8|0,0:0|0:0,0:0:0:0:
309,73,73613,2,0,B|295:103|295:103|304:139,1,60
321,213,73863,1,8,0:0:0:0:
309,241,74363,6,0,L|240:238,1,60,8|0,0:0|0:0,0:0:0:0:
147,164,74613,1,4,0:0:0:0:
256,192,74738,12,10,76863,0:0:0:0:
126,186,77113,5,4,0:0:0:0:
305,281,77488,1,4,0:0:0:0:
306,86,77863,1,4,0:0:0:0:
165,275,78238,1,4,0:0:0:0:
240,52,78613,1,4,0:0:0:0:
310,209,78863,6,0,P|391:213|450:168,1,120,2|0,0:0|0:0,0:0:0:0:
474,111,79238,1,0,0:0:0:0:
421,32,79363,2,0,L|332:39,1,60,8|0,0:0|0:0,0:0:0:0:
264,124,79613,2,0,L|353:131,1,60,8|0,0:0|0:0,0:0:0:0:
226,29,79863,2,0,L|74:39,1,120,4|0,0:0|0:0,0:0:0:0:
48,123,80238,1,0,0:0:0:0:
113,202,80363,2,0,L|106:275,1,60,8|0,0:0|0:0,0:0:0:0:
215,347,80613,2,0,L|208:274,1,60
313,198,80863,6,0,L|304:324,1,120,2|0,0:0|0:0,0:0:0:0:
429,348,81238,1,8,0:0:0:0:
429,348,81363,2,0,L|419:266,1,60,8|0,0:0|0:0,0:0:0:0:
461,85,81738,1,4,0:0:0:0:
310,56,82488,5,8,0:0:0:0:
310,56,82581,2,0,P|242:65|186:53,1,120,8|8,0:0|0:0,0:0:0:0:
150,150,83071,2,0,L|95:146,2,40,8|8|8,0:0|0:0|0:0,0:0:0:0:
218,190,83363,54,0,B|260:189|296:205|296:205|276:221|256:241|256:241|288:258|288:258|279:287|255:310,1,215.999993408203,4|4,0:0|0:0,0:0:0:0:
256,192,83863,12,2,86863,0:0:0:0:
