osu file format v14

[General]
AudioFilename: audio.mp3
AudioLeadIn: 0
PreviewTime: 42363
Countdown: 0
SampleSet: Soft
StackLeniency: 0.6
Mode: 0
LetterboxInBreaks: 0
WidescreenStoryboard: 0

[Editor]
DistanceSpacing: 1.4
BeatDivisor: 4
GridSize: 4
TimelineZoom: 1.7

[Metadata]
Title:Mezase Pokemon Master -20th Anniversary-
TitleUnicode:めざせポケモンマスター -20th Anniversary-
Artist:Rica Matsumoto
ArtistUnicode:松本梨香
Creator:leo16834
Version:CookieBite's Normal
Source:ポケットモンスター サン&ムーン
Tags:pocket monster Sun Moon satoshi Ash pikachu pokémon Xinchii CookieBite
BeatmapID:1393885
BeatmapSetID:649647

[Difficulty]
HPDrainRate:4
CircleSize:3
OverallDifficulty:4
ApproachRate:5.5
SliderMultiplier:1.2
SliderTickRate:1

[Events]
//Background and Video events
0,0,"Kommo-o.jpg",0,0
Video,0,"SunMoon.avi"
//Break Periods
//Storyboard Layer 0 (Background)
//Storyboard Layer 1 (Fail)
//Storyboard Layer 2 (Pass)
//Storyboard Layer 3 (Foreground)
//Storyboard Sound Samples

[TimingPoints]
2863,500,4,2,1,80,1,0
2863,-100,4,2,1,80,0,0
6863,-100,4,2,1,63,0,0
24363,-100,4,2,0,63,0,0
24488,-100,4,2,1,63,0,0
42863,250,4,2,2,70,1,1
42863,-200,4,2,2,70,0,1
50363,-200,4,2,2,70,0,0
50863,-200,4,2,2,70,0,1
56863,-200,4,2,2,70,0,0
60863,500,4,2,1,63,1,0
60863,-100,4,2,1,63,0,0
81863,500,4,2,0,63,1,0
86863,-100,4,2,0,5,0,0

[Colours]
Combo1 : 255,128,192
Combo2 : 255,255,128
Combo3 : 128,255,128
Combo4 : 255,128,64
Combo5 : 0,255,255
Combo6 : 255,128,255
Combo7 : 128,128,128
Combo8 : 128,128,192

[HitObjects]
93,82,2863,6,0,P|152:70|210:104,1,120,2|8,0:0|0:0,0:0:0:0:
251,165,3613,1,0,0:0:0:0:
180,209,3863,2,0,P|172:276|170:333,1,120,4|8,0:0|0:0,0:0:0:0:
333,367,4863,2,0,L|394:358,1,60,2|0,0:0|0:0,0:0:0:0:
427,281,5363,2,0,L|338:267,1,90,8|4,0:0|0:0,0:0:0:0:
143,47,6613,5,0,0:0:0:0:
198,109,6863,2,0,P|197:146|190:185,1,60,2|0,0:0|0:0,0:0:0:0:
119,208,7363,2,0,P|120:245|127:284,1,60,8|0,0:0|0:0,0:0:0:0:
184,325,7863,2,0,P|249:317|303:349,1,120,8|8,0:0|0:0,0:0:0:0:
405,213,8863,6,0,L|399:144,1,60,2|0,0:0|0:0,0:0:0:0:
321,123,9363,2,0,P|315:170|311:212,2,90,8|0|0,0:0|0:0|0:0,0:0:0:0:
249,78,10363,2,0,L|182:84,1,60,8|0,0:0|0:0,0:0:0:0:
121,132,10863,6,0,P|117:161|115:191,1,60,2|0,0:0|0:0,0:0:0:0:
186,236,11363,2,0,P|190:268|192:303,1,60,8|0,0:0|0:0,0:0:0:0:
141,362,11863,2,0,P|204:352|266:348,1,120,8|0,0:0|0:0,0:0:0:0:
343,202,12863,2,0,L|283:196,1,60,4|0,0:0|0:0,0:0:0:0:
259,115,13363,2,0,L|349:106,2,90,8|0|0,0:0|0:0|0:0,0:0:0:0:
175,126,14363,2,0,L|179:197,1,60,8|0,0:0|0:0,0:0:0:0:
115,242,14863,6,0,L|44:238,1,60,2|0,0:0|0:0,0:0:0:0:
6,307,15363,2,0,L|9:367,1,60,8|0,0:0|0:0,0:0:0:0:
92,364,15863,2,0,L|212:357,1,120,8|8,0:0|0:0,0:0:0:0:
311,221,16863,2,0,L|229:217,1,60,4|0,0:0|0:0,0:0:0:0:
188,161,17363,2,0,P|188:119|192:71,2,90,8|8|0,0:0|0:0|0:0,0:0:0:0:
251,218,18363,2,0,P|249:247|245:277,1,60,8|0,0:0|0:0,0:0:0:0:
185,335,18863,6,0,P|125:330|67:313,1,120,4|8,0:0|0:0,0:0:0:0:
27,239,19613,1,0,0:0:0:0:
84,177,19863,2,0,L|78:108,1,60,8|0,0:0|0:0,0:0:0:0:
140,60,20363,2,0,L|199:65,1,60,8|0,0:0|0:0,0:0:0:0:
272,23,20863,2,0,B|257:58|259:94|259:94|275:111|282:133|282:133|291:164|275:204,1,180,8|0,0:0|0:0,0:0:0:0:
238,267,21863,6,0,P|288:236|347:240,1,120,4|0,0:0|0:0,0:0:0:0:
417,287,22613,1,0,0:0:0:0:
473,224,22863,2,0,L|470:164,1,60,4|0,0:0|0:0,0:0:0:0:
406,110,23363,2,0,L|346:112,1,60
290,174,23863,2,0,L|292:233,1,60,4|0,0:0|0:0,0:0:0:0:
357,289,24363,2,0,L|416:286,1,60,2|0,0:0|0:0,0:0:0:0:
473,224,24863,2,0,P|480:166|469:102,2,120,4|0|4,0:0|0:0|0:0,0:0:0:0:
168,82,26863,6,0,P|200:91|237:91,1,60,2|0,0:0|0:0,0:0:0:0:
292,39,27363,1,8,0:0:0:0:
287,206,27863,2,0,L|283:267,1,60,2|0,0:0|0:0,0:0:0:0:
201,284,28363,2,0,L|198:224,1,60,8|0,0:0|0:0,0:0:0:0:
124,184,28863,2,0,P|105:250|103:307,1,120,4|8,0:0|0:0,0:0:0:0:
256,368,29863,1,8,0:0:0:0:
404,289,30363,2,0,P|411:261|415:230,1,60,8|0,0:0|0:0,0:0:0:0:
362,164,30863,6,0,L|299:170,1,60,2|0,0:0|0:0,0:0:0:0:
232,124,31363,1,8,0:0:0:0:
113,243,31863,2,0,P|120:285|124:311,1,60,2|0,0:0|0:0,0:0:0:0:
202,327,32363,2,0,P|207:297|212:267,1,60,8|0,0:0|0:0,0:0:0:0:
283,223,32863,2,0,P|302:283|310:341,1,120,4|8,0:0|0:0,0:0:0:0:
388,367,33613,1,0,0:0:0:0:
456,317,33863,2,0,B|453:296|446:277|446:277|460:247|460:247|454:226|452:203,1,120,2|8,0:0|0:0,0:0:0:0:
406,130,34613,5,0,0:0:0:0:
336,176,34863,2,0,P|300:170|270:166,1,60,2|0,0:0|0:0,0:0:0:0:
221,103,35363,2,0,P|191:108|161:112,1,60,8|0,0:0|0:0,0:0:0:0:
86,149,35863,1,8,0:0:0:0:
31,213,36113,2,0,P|31:272|48:329,1,120
126,362,36863,6,0,P|160:358|189:355,1,60,4|0,0:0|0:0,0:0:0:0:
243,294,37363,2,0,P|277:298|306:301,1,60,8|0,0:0|0:0,0:0:0:0:
377,261,37863,2,0,P|390:200|396:139,1,120,2|8,0:0|0:0,0:0:0:0:
364,64,38613,1,0,0:0:0:0:
298,116,38863,6,0,P|219:133|144:68,1,180,4|0,0:0|0:0,0:0:0:0:
77,26,39863,2,0,B|59:55|59:85|59:85|77:107|78:145,1,120,4|8,0:0|0:0,0:0:0:0:
47,303,40863,6,0,L|116:295,1,60,8|8,0:0|0:0,0:0:0:0:
164,234,41363,2,0,L|223:240,1,60,8|8,0:0|0:0,0:0:0:0:
307,247,41863,1,8,0:0:0:0:
434,137,42363,2,0,L|428:78,1,60,8|8,0:0|0:0,0:0:0:0:
352,40,42863,6,0,P|298:74|237:65,1,120,2|2,0:0|0:0,0:0:0:0:
174,20,43613,1,8,0:0:0:0:
99,59,43863,2,0,P|91:102|89:127,1,60,2|8,0:0|0:0,0:0:0:0:
135,188,44363,1,2,0:0:0:0:
84,255,44613,1,8,0:0:0:0:
140,317,44863,6,0,L|135:378,1,60,2|8,0:0|0:0,0:0:0:0:
219,372,45363,2,0,L|280:367,1,60,2|8,0:0|0:0,0:0:0:0:
350,322,45863,2,0,P|365:267|361:201,1,120,2|2,0:0|0:0,0:0:0:0:
301,145,46613,1,8,0:0:0:0:
242,205,46863,6,0,L|179:198,1,60,4|8,0:0|0:0,0:0:0:0:
120,141,47363,2,0,L|60:147,1,60,2|8,0:0|0:0,0:0:0:0:
25,70,47863,2,0,L|144:58,1,120,2|2,0:0|0:0,0:0:0:0:
215,102,48613,1,8,0:0:0:0:
284,53,48863,6,0,P|316:55|347:60,1,60,12|12,0:0|0:0,0:0:0:0:
406,117,49363,2,0,P|438:114|469:110,1,60,12|12,0:0|0:0,0:0:0:0:
498,189,49863,2,0,P|442:200|375:199,1,120,12|2,0:0|0:0,0:0:0:0:
308,154,50613,1,8,0:0:0:0:
261,224,50863,6,0,L|268:283,1,60,2|8,0:0|0:0,0:0:0:0:
216,349,51363,2,0,L|157:342,1,60,2|8,0:0|0:0,0:0:0:0:
91,288,51863,2,0,P|75:232|74:166,1,120,2|2,0:0|0:0,0:0:0:0:
118,99,52613,1,8,0:0:0:0:
187,145,52863,6,0,P|225:149|253:149,1,60,4|8,0:0|0:0,0:0:0:0:
296,80,53363,2,0,P|334:76|362:76,1,60,4|8,0:0|0:0,0:0:0:0:
429,117,53863,1,2,0:0:0:0:
386,189,54113,2,0,L|390:256,1,60,8|2,0:0|0:0,0:0:0:0:
341,318,54613,1,8,0:0:0:0:
273,268,54863,6,0,P|214:262|162:302,1,120,4|2,0:0|0:0,0:0:0:0:
115,362,55613,1,8,0:0:0:0:
54,303,55863,2,0,L|47:241,1,60,2|8,0:0|0:0,0:0:0:0:
104,181,56363,2,0,L|111:119,1,60,2|8,0:0|0:0,0:0:0:0:
256,192,56863,12,0,58863,0:0:0:0:
172,86,59863,6,0,L|77:91,2,90,4|4|4,0:0|0:0|0:0,0:0:0:0:
235,30,60863,6,0,P|291:55|370:45,1,120,2|8,0:0|0:0,0:0:0:0:
475,163,61863,2,0,L|468:233,1,60,2|0,0:0|0:0,0:0:0:0:
386,239,62363,2,0,L|380:179,1,60,8|0,0:0|0:0,0:0:0:0:
302,146,62863,2,0,P|287:205|281:268,1,120,2|8,0:0|0:0,0:0:0:0:
333,329,63613,1,0,0:0:0:0:
260,371,63863,2,0,L|138:359,1,120,2|8,0:0|0:0,0:0:0:0:
86,295,64613,1,0,0:0:0:0:
134,226,64863,6,0,L|127:164,1,60,2|0,0:0|0:0,0:0:0:0:
186,106,65363,2,0,L|248:113,1,60,8|0,0:0|0:0,0:0:0:0:
302,174,65863,2,0,P|355:149|431:159,1,120,2|8,0:0|0:0,0:0:0:0:
483,200,66613,1,0,0:0:0:0:
421,257,66863,2,0,L|429:377,1,120,2|8,0:0|0:0,0:0:0:0:
288,285,67863,2,0,L|290:225,1,60,2|0,0:0|0:0,0:0:0:0:
293,140,68363,1,8,0:0:0:0:
126,162,68863,6,0,L|124:102,1,60,2|0,0:0|0:0,0:0:0:0:
143,19,69363,1,8,0:0:0:0:
205,75,69613,2,0,P|268:80|323:49,1,120
386,7,70363,1,8,0:0:0:0:
444,66,70613,2,0,P|455:121|452:192,1,120
390,240,71363,1,8,0:0:0:0:
324,187,71613,2,0,P|265:177|207:215,1,120
180,282,72363,1,8,0:0:0:0:
321,372,72863,6,0,L|380:364,1,60,2|0,0:0|0:0,0:0:0:0:
462,345,73363,1,8,0:0:0:0:
507,274,73613,2,0,P|516:217|506:141,1,120
433,119,74363,1,8,0:0:0:0:
379,183,74613,2,0,P|315:197|261:156,1,120,4|0,0:0|0:0,0:0:0:0:
257,87,75363,6,0,L|259:23,1,60,8|0,0:0|0:0,0:0:0:0:
177,8,75863,2,0,L|175:67,1,60,8|0,0:0|0:0,0:0:0:0:
93,88,76363,2,0,L|94:28,1,60,8|0,0:0|0:0,0:0:0:0:
15,54,76863,1,10,0:0:0:0:
23,137,77113,6,0,L|27:245,2,90,4|4|4,0:0|0:0|0:0,0:0:0:0:
93,32,78238,2,0,P|136:23|180:35,1,90,4|4,0:0|0:0,0:0:0:0:
226,104,78863,6,0,L|222:168,1,60,2|0,0:0|0:0,0:0:0:0:
138,176,79363,2,0,L|134:116,1,60,8|0,0:0|0:0,0:0:0:0:
59,78,79863,2,0,P|41:122|31:202,1,120,4|8,0:0|0:0,0:0:0:0:
124,333,80863,5,2,0:0:0:0:
182,273,81113,1,0,0:0:0:0:
249,322,81363,2,0,L|352:315,1,90,8|4,0:0|0:0,0:0:0:0:
338,315,83363,6,0,L|248:308,1,90,4|4,0:0|0:0,0:0:0:0:
256,192,83863,12,2,86863,0:0:0:0:
