osu file format v14

[General]
AudioFilename: audio.mp3
AudioLeadIn: 0
PreviewTime: 42363
Countdown: 0
SampleSet: Soft
StackLeniency: 0.7
Mode: 0
LetterboxInBreaks: 0
WidescreenStoryboard: 0

[Editor]
DistanceSpacing: 1.4
BeatDivisor: 4
GridSize: 4
TimelineZoom: 1.6

[Metadata]
Title:Mezase Pokemon Master -20th Anniversary-
TitleUnicode:めざせポケモンマスター -20th Anniversary-
Artist:Rica Matsumoto
ArtistUnicode:松本梨香
Creator:leo16834
Version:Hard
Source:ポケットモンスター サン&ムーン
Tags:pocket monster Sun Moon satoshi Ash pikachu pokémon Xinchii CookieBite
BeatmapID:1407565
BeatmapSetID:649647

[Difficulty]
HPDrainRate:6
CircleSize:4
OverallDifficulty:6
ApproachRate:7.5
SliderMultiplier:1.4
SliderTickRate:1

[Events]
//Background and Video events
0,0,"Kommo-o.jpg",0,0
Video,0,"SunMoon.avi"
//Break Periods
//Storyboard Layer 0 (Background)
//Storyboard Layer 1 (Fail)
//Storyboard Layer 2 (Pass)
//Storyboard Layer 3 (Foreground)
//Storyboard Sound Samples

[TimingPoints]
2863,500,4,2,1,80,1,0
2863,-100,4,2,1,80,0,0
6863,-100,4,2,1,63,0,0
24363,-100,4,2,0,63,0,0
24488,-100,4,2,1,63,0,0
42863,250,4,2,2,70,1,1
42863,-142.857142857143,4,2,2,70,0,1
50363,-142.857142857143,4,2,2,70,0,0
50863,-142.857142857143,4,2,2,70,0,1
56863,-142.857142857143,4,2,2,70,0,0
60863,500,4,2,1,63,1,0
60863,-100,4,2,1,63,0,0
81863,500,4,2,0,63,1,0
86863,-100,4,2,0,5,0,0

[Colours]
Combo1 : 255,128,192
Combo2 : 255,255,128
Combo3 : 128,255,128
Combo4 : 255,128,64
Combo5 : 0,255,255
Combo6 : 255,128,255
Combo7 : 128,128,128
Combo8 : 128,128,192

[HitObjects]
59,304,2863,6,0,P|130:291|191:346,1,140,2|8,0:0|0:0,0:0:0:0:
254,261,3613,2,0,L|318:257,1,35
321,295,3863,2,0,L|409:301,1,70,4|0,0:0|0:0,0:0:0:0:
472,245,4363,1,8,0:0:0:0:
385,198,4613,2,0,L|390:144,1,35
364,119,4863,6,0,L|282:127,1,70,2|0,0:0|0:0,0:0:0:0:
260,33,5363,2,0,L|209:38,1,35,8|0,0:0|0:0,0:0:0:0:
125,42,5738,1,4,0:0:0:0:
125,42,6613,1,0,0:0:0:0:
37,85,6863,6,0,L|34:133,1,35,2|0,0:0|0:0,0:0:0:0:
77,143,7113,2,0,L|80:191,1,35
42,211,7363,2,0,L|38:307,1,70,8|0,0:0|0:0,0:0:0:0:
112,346,7863,2,0,L|165:341,1,35,8|0,0:0|0:0,0:0:0:0:
184,310,8113,2,0,L|237:305,1,35
258,335,8363,1,8,0:0:0:0:
258,335,8488,1,0,0:0:0:0:
399,293,8863,6,0,P|410:257|399:207,2,70,2|0|8,0:0|0:0|0:0,0:0:0:0:
378,337,9488,2,0,L|304:342,1,70,0|8,0:0|0:0,0:0:0:0:
176,278,10113,1,0,0:0:0:0:
176,278,10363,2,0,L|166:188,1,70,8|0,0:0|0:0,0:0:0:0:
70,212,10863,6,0,L|78:149,1,35,2|0,0:0|0:0,0:0:0:0:
35,147,11113,2,0,L|43:84,1,35
69,72,11363,2,0,P|106:75|149:56,1,70,8|0,0:0|0:0,0:0:0:0:
229,97,11863,2,0,L|294:104,1,35,8|0,0:0|0:0,0:0:0:0:
297,64,12113,2,0,L|362:57,1,35
352,104,12363,2,0,L|446:112,1,70,8|0,0:0|0:0,0:0:0:0:
453,202,12863,6,0,L|359:194,1,70,4|0,0:0|0:0,0:0:0:0:
319,271,13363,1,8,0:0:0:0:
319,271,13488,2,0,L|249:276,1,70,0|8,0:0|0:0,0:0:0:0:
118,209,14113,1,0,0:0:0:0:
182,134,14363,2,0,L|270:140,1,70,8|0,0:0|0:0,0:0:0:0:
316,64,14863,6,0,L|260:59,1,35,2|0,0:0|0:0,0:0:0:0:
239,34,15113,2,0,L|183:29,1,35
165,60,15363,2,0,P|125:59|79:27,1,70,8|0,0:0|0:0,0:0:0:0:
81,142,15863,2,0,L|88:184,1,35,8|0,0:0|0:0,0:0:0:0:
47,206,16113,2,0,L|41:240,1,35
61,285,16363,2,0,L|155:278,1,70,8|0,0:0|0:0,0:0:0:0:
192,356,16863,6,0,L|286:363,1,70,4|0,0:0|0:0,0:0:0:0:
352,320,17363,1,8,0:0:0:0:
352,320,17488,2,0,L|349:223,1,70,0|8,0:0|0:0,0:0:0:0:
478,179,18113,2,0,L|476:91,1,70,0|8,0:0|0:0,0:0:0:0:
491,16,18613,1,0,0:0:0:0:
491,16,18738,1,0,0:0:0:0:
491,16,18863,6,0,P|447:33|394:22,1,70,4|0,0:0|0:0,0:0:0:0:
328,15,19363,1,8,0:0:0:0:
367,106,19613,1,0,0:0:0:0:
270,88,19863,1,8,0:0:0:0:
270,88,19988,2,0,L|145:100,1,105
122,186,20613,1,0,0:0:0:0:
122,186,20738,1,0,0:0:0:0:
122,186,20863,6,0,L|199:190,1,70,2|8,0:0|0:0,0:0:0:0:
224,282,21363,2,0,L|301:286,1,70,8|0,0:0|0:0,0:0:0:0:
332,194,21863,2,0,P|401:210|465:171,1,140,4|8,0:0|0:0,0:0:0:0:
508,263,22613,1,0,0:0:0:0:
488,358,22863,6,0,L|414:367,1,70,4|0,0:0|0:0,0:0:0:0:
327,330,23363,2,0,L|253:339,1,70
217,249,23863,2,0,L|291:240,1,70,4|0,0:0|0:0,0:0:0:0:
347,164,24363,2,0,L|337:72,1,70,2|0,0:0|0:0,0:0:0:0:
249,56,24863,6,0,P|191:84|103:47,1,140,4|0,0:0|0:0,0:0:0:0:
42,124,25613,1,0,0:0:0:0:
109,195,25863,2,0,L|101:342,1,140,4|0,0:0|0:0,0:0:0:0:
101,334,26863,6,0,L|159:329,1,35,2|0,0:0|0:0,0:0:0:0:
184,327,27113,1,8,0:0:0:0:
250,255,27363,2,0,P|305:257|350:312,1,105,8|0,0:0|0:0,0:0:0:0:
379,320,27863,2,0,L|390:255,1,35,8|0,0:0|0:0,0:0:0:0:
433,279,28113,2,0,L|444:214,1,35,8|0,0:0|0:0,0:0:0:0:
447,196,28363,1,2,0:0:0:0:
394,113,28613,1,8,0:0:0:0:
434,23,28863,6,0,P|393:28|346:11,1,70,4|0,0:0|0:0,0:0:0:0:
267,11,29363,2,0,P|232:4|198:9,1,70,8|0,0:0|0:0,0:0:0:0:
115,62,29863,2,0,L|123:119,1,35,2|0,0:0|0:0,0:0:0:0:
84,130,30113,1,8,0:0:0:0:
84,130,30238,2,0,L|77:190,1,35,0|8,0:0|0:0,0:0:0:0:
91,212,30488,2,0,P|97:261|82:298,1,70
63,320,30863,6,0,L|125:324,1,35,2|0,0:0|0:0,0:0:0:0:
146,326,31113,1,8,0:0:0:0:
227,380,31363,2,0,B|279:364|279:364|335:382,1,105,2|0,0:0|0:0,0:0:0:0:
376,380,31863,2,0,L|423:377,1,35,8|0,0:0|0:0,0:0:0:0:
451,350,32113,2,0,L|511:347,1,35,8|0,0:0|0:0,0:0:0:0:
505,302,32363,1,2,0:0:0:0:
418,256,32613,1,8,0:0:0:0:
459,168,32863,22,0,P|399:159|348:192,1,105,4|0,0:0|0:0,0:0:0:0:
324,211,33363,2,0,L|332:141,1,70,8|0,0:0|0:0,0:0:0:0:
238,171,33863,2,0,B|217:140|217:140|248:81|248:81|221:42,1,140,2|8,0:0|0:0,0:0:0:0:
143,0,34613,1,0,0:0:0:0:
133,98,34863,6,0,P|37:90|-13:51,2,140,2|8|8,0:0|0:0|0:0,0:0:0:0:
218,145,36113,1,0,0:0:0:0:
138,202,36363,1,8,0:0:0:0:
138,202,36863,6,0,L|132:278,1,70,4|0,0:0|0:0,0:0:0:0:
205,337,37363,2,0,B|248:364|248:364|346:344,2,140,8|8|8,0:0|0:0|0:0,0:0:0:0:
110,362,38613,1,0,0:0:0:0:
110,362,38863,5,4,0:0:0:0:
490,247,39863,1,4,0:0:0:0:
304,310,40363,1,8,0:0:0:0:
111,271,40863,1,8,0:0:0:0:
142,177,41113,1,8,0:0:0:0:
240,177,41363,1,8,0:0:0:0:
270,271,41613,1,8,0:0:0:0:
191,328,41863,1,8,0:0:0:0:
152,303,42363,6,0,L|235:300,1,70,8|8,0:0|0:0,0:0:0:0:
333,341,42863,5,2,0:0:0:0:
341,203,43113,1,8,0:0:0:0:
298,318,43363,2,0,P|252:323|195:309,1,97.9999970092774,2|8,0:0|0:0,0:0:0:0:
93,187,43863,2,0,P|139:182|196:196,1,97.9999970092774,2|8,0:0|0:0,0:0:0:0:
260,232,44238,1,0,0:0:0:0:
260,232,44363,2,0,P|307:242|356:237,1,97.9999970092774,2|8,0:0|0:0,0:0:0:0:
480,178,44863,6,0,L|494:68,1,97.9999970092774,2|8,0:0|0:0,0:0:0:0:
357,1,45363,2,0,L|343:111,1,97.9999970092774,2|8,0:0|0:0,0:0:0:0:
229,216,45863,1,2,0:0:0:0:
117,102,46113,1,8,0:0:0:0:
3,257,46363,2,0,L|120:251,1,97.9999970092774,2|8,0:0|0:0,0:0:0:0:
61,367,46863,5,4,0:0:0:0:
126,187,47113,1,8,0:0:0:0:
3,257,47363,1,2,0:0:0:0:
188,327,47613,1,8,0:0:0:0:
123,165,47863,2,0,L|115:65,1,97.9999970092774,2|8,0:0|0:0,0:0:0:0:
276,10,48363,2,0,L|284:110,1,97.9999970092774,2|8,0:0|0:0,0:0:0:0:
291,156,48738,1,0,0:0:0:0:
291,156,48863,5,12,0:0:0:0:
448,184,49113,1,12,0:0:0:0:
290,241,49363,1,12,0:0:0:0:
445,308,49613,1,12,0:0:0:0:
314,351,49863,2,0,P|219:360|127:305,1,195.999994018555,12|2,0:0|0:0,0:0:0:0:
57,188,50613,1,8,0:0:0:0:
174,57,50863,6,0,L|285:62,1,97.9999970092774,2|8,0:0|0:0,0:0:0:0:
432,147,51363,2,0,L|322:155,1,97.9999970092774,2|8,0:0|0:0,0:0:0:0:
181,248,51863,2,0,L|292:253,1,97.9999970092774,2|8,0:0|0:0,0:0:0:0:
327,257,52238,1,0,0:0:0:0:
327,257,52363,1,2,0:0:0:0:
214,368,52613,1,8,0:0:0:0:
214,368,52863,6,0,L|102:358,1,97.9999970092774,4|8,0:0|0:0,0:0:0:0:
7,214,53363,2,0,L|117:229,1,97.9999970092774,4|8,0:0|0:0,0:0:0:0:
239,148,53863,2,0,P|243:81|224:44,1,97.9999970092774,2|8,0:0|0:0,0:0:0:0:
188,20,54238,1,0,0:0:0:0:
188,20,54363,1,2,0:0:0:0:
59,64,54613,1,8,0:0:0:0:
231,53,54863,6,0,L|332:46,1,97.9999970092774,4|8,0:0|0:0,0:0:0:0:
464,162,55363,2,0,L|366:155,1,97.9999970092774,2|8,0:0|0:0,0:0:0:0:
213,233,55863,2,0,P|205:320|221:341,1,97.9999970092774,2|8,0:0|0:0,0:0:0:0:
282,347,56238,1,0,0:0:0:0:
282,347,56363,2,0,L|391:345,1,97.9999970092774,2|8,0:0|0:0,0:0:0:0:
489,166,56863,5,4,0:0:0:0:
256,192,56925,12,0,58863,0:0:0:0:
268,229,59863,5,4,0:0:0:0:
167,120,60238,1,4,0:0:0:0:
310,81,60613,1,4,0:0:0:0:
146,115,60863,6,0,L|54:95,1,70,2|0,0:0|0:0,0:0:0:0:
13,22,61363,1,8,0:0:0:0:
146,115,61863,2,0,P|141:194|133:208,1,70,2|0,0:0|0:0,0:0:0:0:
49,211,62363,1,8,0:0:0:0:
49,211,62488,2,0,L|58:299,1,70
35,351,62863,6,0,L|115:367,1,70,2|0,0:0|0:0,0:0:0:0:
203,295,63363,2,0,L|286:309,1,70,8|0,0:0|0:0,0:0:0:0:
389,271,63863,2,0,L|391:228,1,35,2|0,0:0|0:0,0:0:0:0:
455,204,64113,1,0,0:0:0:0:
455,204,64238,2,0,L|458:145,1,35,0|8,0:0|0:0,0:0:0:0:
430,102,64488,2,0,P|378:102|339:82,1,70
301,61,64863,6,0,L|307:143,1,70,2|0,0:0|0:0,0:0:0:0:
246,213,65363,1,8,0:0:0:0:
160,146,65613,1,0,0:0:0:0:
160,146,65738,1,0,0:0:0:0:
160,146,65863,2,0,L|154:64,1,70,2|0,0:0|0:0,0:0:0:0:
42,29,66363,2,0,L|48:111,1,70,8|0,0:0|0:0,0:0:0:0:
53,211,66863,5,2,0:0:0:0:
160,146,67113,1,0,0:0:0:0:
139,280,67363,1,8,0:0:0:0:
258,227,67613,1,0,0:0:0:0:
160,146,67863,2,0,L|157:105,2,35,2|0|0,0:0|0:0|0:0,0:0:0:0:
139,280,68363,1,8,0:0:0:0:
139,280,68488,2,0,L|50:291,1,70
36,220,68863,6,0,P|64:129|36:81,1,140,2|8,0:0|0:0,0:0:0:0:
139,30,69613,1,0,0:0:0:0:
226,98,69863,2,0,P|272:99|317:80,1,70,2|0,0:0|0:0,0:0:0:0:
375,190,70363,1,8,0:0:0:0:
298,295,70613,1,0,0:0:0:0:
298,295,70738,1,0,0:0:0:0:
298,295,70863,6,0,L|207:287,1,70,4|0,0:0|0:0,0:0:0:0:
148,210,71363,1,8,0:0:0:0:
244,150,71613,1,0,0:0:0:0:
205,296,71863,2,0,L|115:312,1,70,2|0,0:0|0:0,0:0:0:0:
36,250,72363,2,0,P|55:186|51:161,1,70,8|0,0:0|0:0,0:0:0:0:
44,88,72863,5,2,0:0:0:0:
174,151,73113,1,0,0:0:0:0:
284,58,73363,1,8,0:0:0:0:
412,142,73613,2,0,L|420:88,2,35,0|0|8,0:0|0:0|0:0,0:0:0:0:
418,249,74363,6,0,L|425:298,1,35,8|0,0:0|0:0,0:0:0:0:
435,356,74613,2,0,P|350:355|325:309,1,140,4|0,0:0|0:0,0:0:0:0:
258,229,75363,2,0,P|251:263|252:310,1,70,8|0,0:0|0:0,0:0:0:0:
155,329,75863,2,0,P|162:295|161:248,1,70,8|0,0:0|0:0,0:0:0:0:
129,169,76363,2,0,P|164:174|198:167,1,70,8|0,0:0|0:0,0:0:0:0:
286,112,76863,1,10,0:0:0:0:
190,71,77113,6,0,P|115:78|81:60,2,105,4|4|4,0:0|0:0|0:0,0:0:0:0:
332,35,78238,1,4,0:0:0:0:
205,110,78613,1,4,0:0:0:0:
272,171,78863,6,0,P|330:175|391:123,1,140,2|8,0:0|0:0,0:0:0:0:
428,34,79613,2,0,L|470:40,1,35
481,85,79863,2,0,L|488:188,1,70,4|0,0:0|0:0,0:0:0:0:
441,242,80363,1,8,0:0:0:0:
347,271,80613,2,0,L|343:222,1,35
303,210,80863,6,0,L|211:217,1,70,2|0,0:0|0:0,0:0:0:0:
286,132,81363,2,0,L|335:129,1,35,8|0,0:0|0:0,0:0:0:0:
419,122,81738,1,4,0:0:0:0:
419,122,83363,6,0,L|303:111,1,105,4|4,0:0|0:0,0:0:0:0:
256,192,83863,12,2,86863,0:0:0:0:
