osu file format v14

[General]
AudioFilename: audio.mp3
AudioLeadIn: 0
PreviewTime: 42363
Countdown: 0
SampleSet: Soft
StackLeniency: 0.6
Mode: 0
LetterboxInBreaks: 0
WidescreenStoryboard: 0

[Editor]
DistanceSpacing: 1
BeatDivisor: 6
GridSize: 4
TimelineZoom: 1.6

[Metadata]
Title:Mezase Pokemon Master -20th Anniversary-
TitleUnicode:めざせポケモンマスター -20th Anniversary-
Artist:Rica Matsumoto
ArtistUnicode:松本梨香
Creator:leo16834
Version:Easy
Source:ポケットモンスター サン&ムーン
Tags:pocket monster Sun Moon satoshi Ash pikachu pokémon Xinchii CookieBite
BeatmapID:1378908
BeatmapSetID:649647

[Difficulty]
HPDrainRate:2
CircleSize:2
OverallDifficulty:2
ApproachRate:3
SliderMultiplier:1
SliderTickRate:1

[Events]
//Background and Video events
0,0,"Kommo-o.jpg",0,0
Video,0,"SunMoon.avi"
//Break Periods
//Storyboard Layer 0 (Background)
//Storyboard Layer 1 (Fail)
//Storyboard Layer 2 (Pass)
//Storyboard Layer 3 (Foreground)
//Storyboard Sound Samples

[TimingPoints]
2863,500,4,2,1,80,1,0
2863,-100,4,2,1,80,0,0
6863,-100,4,2,1,63,0,0
24363,-100,4,2,0,63,0,0
24488,-100,4,2,1,63,0,0
42863,250,4,2,2,70,1,1
42863,-200,4,2,2,70,0,1
50363,-200,4,2,2,70,0,0
50863,-200,4,2,2,70,0,1
56863,-200,4,2,2,70,0,0
60863,500,4,2,1,63,1,0
60863,-100,4,2,1,63,0,0
81863,500,4,2,0,63,1,0
86863,-100,4,2,0,5,0,0

[Colours]
Combo1 : 255,128,192
Combo2 : 255,255,128
Combo3 : 128,255,128
Combo4 : 255,128,64
Combo5 : 0,255,255
Combo6 : 255,128,255
Combo7 : 128,128,128
Combo8 : 128,128,192

[HitObjects]
461,118,2863,6,0,P|365:125|285:40,1,200,2|4,0:0|0:0,0:0:0:0:
199,20,4363,1,8,0:0:0:0:
104,56,4863,2,0,P|130:151|93:227,1,175,2|4,0:0|0:0,0:0:0:0:
101,218,6863,6,0,L|216:231,1,100,2|8,0:0|0:0,0:0:0:0:
300,229,7863,2,0,L|400:218,1,100,8|8,0:0|0:0,0:0:0:0:
461,296,8863,2,0,L|472:77,1,200,2|0,0:0|0:0,0:0:0:0:
398,29,10363,1,8,0:0:0:0:
375,126,10863,6,0,L|253:135,2,100,2|8|8,0:0|0:0|0:0,0:0:0:0:
471,96,12363,1,8,0:0:0:0:
398,29,12863,2,0,B|298:37|298:37|197:14,1,200,4|0,0:0|0:0,0:0:0:0:
121,76,14363,1,8,0:0:0:0:
22,60,14863,6,0,B|45:117|28:159|28:159|82:178|83:234|83:234|43:289|72:344,1,300,2|8,0:0|0:0,0:0:0:0:
163,300,16863,2,0,B|220:277|262:294|262:294|281:240|337:239|337:239|382:283|459:244,1,300,4|8,0:0|0:0,0:0:0:0:
472,166,18863,6,0,P|479:119|471:66,1,100,4|8,0:0|0:0,0:0:0:0:
379,27,19862,1,8,0:0:0:0:
324,110,20362,1,8,0:0:0:0:
245,48,20863,2,0,L|153:40,2,50,2|8|8,0:0|0:0|0:0,0:0:0:0:
324,110,21863,2,0,P|395:104|445:59,1,100,4|8,0:0|0:0,0:0:0:0:
500,32,22863,6,0,B|457:74|470:127|470:127|503:165|499:217|499:217|465:249|475:324,1,300,4|2,0:0|0:0,0:0:0:0:
383,265,24863,2,0,P|291:238|190:324,1,200,4|4,0:0|0:0,0:0:0:0:
206,288,26863,6,0,L|198:185,1,100,2|8,0:0|0:0,0:0:0:0:
140,106,27863,2,0,P|196:88|248:103,1,100,2|8,0:0|0:0,0:0:0:0:
293,177,28863,2,0,P|246:195|197:187,1,100,4|8,0:0|0:0,0:0:0:0:
140,106,29863,1,8,0:0:0:0:
89,192,30363,1,8,0:0:0:0:
148,274,30863,22,0,P|263:263|296:182,1,200,2|8,0:0|0:0,0:0:0:0:
198,188,32363,1,8,0:0:0:0:
160,95,32863,2,0,B|184:82|215:74|215:74|295:111|295:111|326:108|356:93,1,200,4|8,0:0|0:0,0:0:0:0:
384,190,34363,1,8,0:0:0:0:
453,117,34863,6,0,L|461:12,2,100,2|8|8,0:0|0:0|0:0,0:0:0:0:
384,190,36363,1,8,0:0:0:0:
427,279,36863,2,0,P|364:304|327:304,1,100,4|8,0:0|0:0,0:0:0:0:
289,215,37863,2,0,P|352:190|389:190,1,100,2|8,0:0|0:0,0:0:0:0:
427,279,38863,5,4,0:0:0:0:
257,172,39863,1,4,0:0:0:0:
85,272,40863,2,0,L|70:156,2,100,8|8|8,0:0|0:0|0:0,0:0:0:0:
167,328,42363,1,8,0:0:0:0:
248,269,42863,6,0,P|299:260|360:278,1,100,2|2,0:0|0:0,0:0:0:0:
438,308,43863,2,0,L|432:204,1,100,2|2,0:0|0:0,0:0:0:0:
362,136,44863,2,0,B|265:162|265:162|161:130,1,200,2|2,0:0|0:0,0:0:0:0:
77,94,46363,1,2,0:0:0:0:
17,174,46863,6,0,L|12:286,1,100,4|2,0:0|0:0,0:0:0:0:
63,359,47863,1,2,0:0:0:0:
136,290,48363,1,2,0:0:0:0:
236,290,48863,2,0,P|244:196|168:132,1,200,12|12,0:0|0:0,0:0:0:0:
80,85,50363,1,2,0:0:0:0:
167,37,50863,6,0,P|181:86|160:144,1,100,2|2,0:0|0:0,0:0:0:0:
76,171,51863,2,0,P|63:218|77:266,1,100,2|2,0:0|0:0,0:0:0:0:
147,338,52863,1,4,0:0:0:0:
236,290,53363,1,4,0:0:0:0:
323,338,53863,2,0,L|336:275,2,50,2|8|2,0:0|0:0|0:0,0:0:0:0:
420,362,54863,6,0,L|443:251,1,100,4|2,0:0|0:0,0:0:0:0:
357,207,55863,2,0,L|380:96,1,100,2|2,0:0|0:0,0:0:0:0:
472,78,56863,1,4,0:0:0:0:
256,192,56988,12,0,58863,0:0:0:0:
256,192,60863,6,0,L|382:186,1,100,2|8,0:0|0:0,0:0:0:0:
399,281,61863,1,2,0:0:0:0:
299,282,62363,1,8,0:0:0:0:
256,193,62863,2,0,P|209:178|147:193,1,100,2|8,0:0|0:0,0:0:0:0:
202,275,63863,2,0,P|249:290|311:275,1,100,2|8,0:0|0:0,0:0:0:0:
399,281,64863,6,0,L|408:175,1,100,2|8,0:0|0:0,0:0:0:0:
326,124,65863,1,2,0:0:0:0:
256,193,66363,1,8,0:0:0:0:
221,98,66863,2,0,L|114:126,1,100,2|8,0:0|0:0,0:0:0:0:
159,218,67863,2,0,L|266:190,1,100,2|8,0:0|0:0,0:0:0:0:
326,124,68863,6,0,P|321:227|379:323,1,200,2|2,0:0|0:0,0:0:0:0:
292,375,70363,1,8,0:0:0:0:
204,327,70863,2,0,B|152:304|107:329|107:329|108:269|46:225,1,200,4|2,0:0|0:0,0:0:0:0:
8,160,72363,1,8,0:0:0:0:
107,150,72863,6,0,L|226:157,1,100,2|8,0:0|0:0,0:0:0:0:
305,155,73863,2,0,L|405:150,1,100,2|8,0:0|0:0,0:0:0:0:
256,192,74613,12,10,76863,0:0:0:0:
51,266,78863,6,0,P|147:259|227:344,1,200,2|4,0:0|0:0,0:0:0:0:
313,364,80363,1,8,0:0:0:0:
408,328,80863,2,0,P|382:233|419:157,1,175,2|4,0:0|0:0,0:0:0:0:
257,193,83363,5,4,0:0:0:0:
256,192,83863,12,2,86863,0:0:0:0:
