osu file format v14

[General]
AudioFilename: audio.mp3
AudioLeadIn: 0
PreviewTime: 0
Countdown: 0
SampleSet: None
StackLeniency: 0.7
Mode: 0
LetterboxInBreaks: 0
WidescreenStoryboard: 1

[Editor]
Bookmarks: 9472,31222,142222
DistanceSpacing: 0.2
BeatDivisor: 4
GridSize: 8
TimelineZoom: 1.8

[Metadata]
Title:-ERROR
TitleUnicode:-ERROR
Artist:Ribonnu
ArtistUnicode:Ribonnu
Creator:DISWhat
Version:Last Dream
Source:
Tags:
BeatmapID:4165001
BeatmapSetID:2002820

[Difficulty]
HPDrainRate:3.8
CircleSize:3.7
OverallDifficulty:8
ApproachRate:9.5
SliderMultiplier:1.8
SliderTickRate:1

[Events]
//Background and Video events
0,0,"qorud.jpg",0,0
//Break Periods
//Storyboard Layer 0 (Background)
//Storyboard Layer 1 (Fail)
//Storyboard Layer 2 (Pass)
//Storyboard Layer 3 (Foreground)
//Storyboard Layer 4 (Overlay)
//Storyboard Sound Samples

[TimingPoints]
0,303.030303030303,3,2,0,75,1,0
2422,300,3,2,0,75,1,0
2422,-125,3,2,0,75,0,0
4222,-100,3,1,3,75,0,0
18622,-125,3,1,3,75,0,0
25822,-83.3333333333333,3,1,3,75,0,0
26122,-125,3,1,3,75,0,0
26722,-142.857142857143,3,1,3,75,0,0
27172,-125,3,1,3,75,0,0
27622,-83.3333333333333,3,1,3,75,0,0
27922,-125,3,1,3,75,0,0
29122,-142.857142857143,3,1,3,75,0,0
29422,-83.3333333333333,3,1,3,75,0,0
29722,-125,3,1,3,75,0,0
32722,-250,3,1,3,75,0,0
33172,-125,3,1,3,75,0,0
39322,-125,3,1,3,75,0,0
47422,-250,3,1,3,75,0,0
47722,-100,3,1,3,75,0,0
48322,-500,3,1,3,75,0,0
48922,-166.666666666667,3,1,3,75,0,0
49822,-100,3,1,3,75,0,0
50122,-52.6315789473684,3,2,15,75,0,0
51022,-250.000000000001,3,1,3,75,0,1
51472,-76.9230769230769,3,1,3,75,0,1
51922,-76.9230769230769,3,2,13,75,0,1
52372,-76.9230769230769,3,1,3,75,0,1
52747,-250,3,1,3,75,0,1
53347,-285.714285714284,3,1,3,75,0,1
53722,-76.9230769230769,3,1,3,75,0,1
54172,-500,3,1,3,75,0,1
54622,-200,3,1,3,75,0,1
55072,-71.4285714285714,3,2,13,75,0,1
55522,-133.333333333333,3,1,3,75,0,1
55972,-250,3,1,3,75,0,1
56422,-142.857142857143,3,1,3,75,0,1
56872,-333.333333333332,3,1,3,75,0,1
57322,-83.3333333333333,3,2,13,75,0,1
57922,-200,3,1,3,75,0,1
58222,-250,3,1,3,75,0,1
58722,-83.3333333333333,3,1,3,75,0,1
59122,-100,3,1,3,75,0,1
60022,-250,3,1,3,75,0,1
60322,-125,3,1,3,75,0,1
60922,-166.666666666667,3,1,3,75,0,1
61822,-66.6666666666667,3,1,3,75,0,1
62422,-76.9230769230769,3,1,3,75,0,1
64372,-100,3,1,3,75,0,1
65122,-100,3,1,3,75,0,1
65422,-333.333333333333,3,1,3,75,0,1
65922,-111.111111111111,3,1,3,75,0,1
67822,-166.666666666666,3,1,3,75,0,1
69622,-83.3333333333333,3,1,3,75,0,1
70972,-83.3333333333333,3,2,13,75,0,1
71122,-83.3333333333333,3,2,4,75,0,1
71872,-166.666666666667,3,1,3,75,0,1
74122,-166.666666666667,3,2,5,75,0,1
74272,-166.666666666667,3,2,13,75,0,1
74422,-166.666666666667,3,2,3,70,0,1
75172,-166.666666666667,3,1,3,70,0,1
75922,-80,3,1,3,75,0,1
76522,-166.666666666667,3,2,4,70,0,1
76672,-83.3333333333333,3,2,4,75,0,1
77122,-166.666666666667,3,2,4,75,0,1
77572,-76.9230769230769,3,2,4,75,0,1
77872,-166.666666666667,3,2,4,75,0,1
78472,-100,3,2,4,75,0,1
79222,-500,3,2,15,75,0,1
79672,-100,3,1,3,75,0,0
80872,-142.857142857143,3,1,3,75,0,0
81622,-100,3,1,3,75,0,0
89572,-100,3,1,3,75,0,0
93322,-125,3,1,3,75,0,0
93622,-250,3,1,3,75,0,0
93922,-100,3,1,3,75,0,0
104572,-100,3,1,3,75,0,0
108622,-1000,3,1,2,75,0,0
108922,-125,3,1,2,75,0,0
109522,-500,3,1,2,75,0,0
109972,-125,3,1,2,75,0,0
110422,-100,3,1,2,75,0,0
111622,-66.6666666666667,3,1,2,75,0,0
112222,-333.333333333333,3,1,3,75,0,1
112822,-133.333333333333,3,1,3,75,0,1
113047,-83.3333333333333,3,1,3,75,0,1
114022,-333.333333333333,3,1,3,75,0,1
114922,-66.6666666666667,3,1,3,75,0,1
115822,-285.714285714286,3,1,3,75,0,1
116422,-100,3,1,3,75,0,1
117622,-500,3,1,3,75,0,1
118522,-66.6666666666667,3,1,3,75,0,1
119422,-500,3,1,3,75,0,1
120472,-100,3,1,3,75,0,1
121222,-500,3,1,3,75,0,1
122722,-250,3,1,3,75,0,1
123022,-66.6666666666667,3,1,3,75,0,1
123922,-100,3,1,3,75,0,1
124372,-200,3,1,3,75,0,1
126022,-200,3,2,5,75,0,1
126622,-50,3,1,3,75,0,1
127072,-250,3,1,3,75,0,1
130222,-57.1428571428571,3,1,3,75,0,1
130672,-200,3,1,3,75,0,1
132472,-100,3,1,3,75,0,1
133072,-500,3,1,3,75,0,1
133522,-100,3,1,3,75,0,1
135097,-500,3,1,3,75,0,1
135622,-66.6666666666667,3,1,3,75,0,1
136072,-100,3,1,3,75,0,1
136822,-200,3,1,3,75,0,1
137122,-333.333333333333,3,1,3,75,0,1
139222,-100,3,1,3,75,0,1
139522,-166.666666666667,3,1,3,75,0,1
141022,-100,3,1,3,75,0,0
142222,-142.857142857143,3,1,3,75,0,0
143122,-100,3,1,3,75,0,0
144022,-166.666666666667,3,1,3,75,0,0
144622,-100,3,1,3,75,0,0
145522,-166.666666666667,3,1,3,75,0,0
147322,-166.666666666667,3,1,3,75,0,0
150022,-125,3,1,3,60,0,0
151822,-142.857142857143,3,1,3,40,0,0
153622,-125,3,1,3,20,0,0
155422,-100,3,1,3,75,0,0
160822,-500,3,1,2,75,0,0
161722,-100,3,1,3,75,0,0
162022,-76.9230769230769,3,1,3,75,0,0
162322,-62.5,3,1,3,75,0,0
162622,-200,3,1,3,75,0,0
163522,-100,3,1,3,75,0,0
163822,-200,3,1,3,75,0,0
164422,-83.3333333333333,3,1,3,75,0,0
164722,-200,3,1,3,75,0,0
165022,-200,3,1,3,75,0,0
165922,-83.3333333333333,3,1,3,75,0,0
166222,-142.857142857143,3,1,3,75,0,0
166672,-111.111111111111,3,1,3,75,0,0
167722,-83.3333333333333,3,1,3,75,0,0
168472,-1000,3,2,15,75,0,0
168922,-55.5555555555556,3,2,16,75,0,1
169822,-100,3,1,3,75,0,1
170272,-250,3,1,3,75,0,1
170722,-58.8235294117647,3,1,3,75,0,1
171622,-200,3,1,3,75,0,1
172222,-100,3,1,3,75,0,1
173422,-333.333333333333,3,1,3,75,0,1
173872,-66.6666666666667,3,1,3,75,0,1
174322,-100,3,1,3,75,0,1
174622,-100,3,1,3,75,0,1
175222,-1000,3,1,3,75,0,1
175672,-200,3,1,3,75,0,1
177022,-200,3,1,3,75,0,1
178822,-62.5,3,1,3,75,0,1
179272,-83.3333333333333,3,1,3,75,0,1
182122,-500,3,1,3,75,0,1
182422,-83.3333333333333,3,1,3,75,0,1
184222,-500,3,1,2,75,0,1
184522,-333.333333333333,3,1,3,75,0,1
185122,-76.9230769230769,3,1,3,75,0,1
185572,-100,3,1,3,75,0,1
187822,-666.666666666667,3,1,3,75,0,1
188272,-100,3,1,3,75,0,1
189172,-83.3333333333333,3,1,3,75,0,1
189472,-71.4285714285714,3,1,3,75,0,1
190522,-333.333333333333,3,1,3,75,0,1
191422,-100,3,1,3,75,0,1
195022,-100,3,2,14,75,0,1
196522,-200,3,2,13,75,0,1
196822,-71.4285714285714,3,2,12,100,0,1
197947,-166.666666666667,3,1,3,90,0,1
198172,-66.6666666666667,3,1,3,90,0,1
199522,-200,3,1,3,90,0,1
200422,-142.857142857143,3,1,3,90,0,1
201022,-76.9230769230769,3,1,3,90,0,1
201322,-50,3,1,3,90,0,1
201622,-40,3,1,3,90,0,1
201922,-33.3333333333333,3,1,3,90,0,1
202222,-57.1428571428571,3,1,3,90,0,1
202822,-66.6666666666667,3,1,3,90,0,1
203122,-100,3,1,3,90,0,1
203572,-66.6666666666667,3,1,3,90,0,1
204322,-333.333333333333,3,1,3,90,0,1
204472,-66.6666666666667,3,1,3,90,0,1
204922,-50,3,1,3,90,0,1
205222,-40,3,1,3,90,0,1
205522,-32.258064516129,3,1,3,90,0,1
205672,-333.333333333333,3,1,3,90,0,1
206272,-76.9230769230769,3,1,3,90,0,1
206722,-66.6666666666667,3,1,3,90,0,1
207622,-270.27027027027,3,1,3,90,0,1
208072,-133.333333333333,3,1,3,90,0,1
208522,-333.333333333333,3,1,3,90,0,1
208972,-100,3,1,3,90,0,1
210022,-399.999999999997,3,1,3,90,0,1
210922,-500,3,1,3,90,0,1
211522,-66.6666666666667,3,1,3,90,0,1
213022,-40,3,1,3,90,0,1
213472,-57.1428571428571,3,1,3,90,0,1
216022,-333.333333333333,3,1,3,90,0,1
216622,-66.6666666666667,3,1,3,90,0,1
217072,-333.333333333333,3,1,3,90,0,1
217672,-66.6666666666667,3,1,3,90,0,1
219322,-333.333333333333,3,1,3,90,0,1
219622,-100,3,1,3,90,0,1
219922,-100,3,1,3,90,0,1
220222,-40,3,1,3,90,0,1
221122,-31.25,3,2,12,90,0,1
222022,-30.3030303030303,3,2,12,90,0,1
222622,-100,3,2,2,90,0,1
223522,-142.857142857143,3,1,2,90,0,0
223822,-400,3,1,2,90,0,0

[HitObjects]
187,292,4222,5,2,0:2:0:0:
59,184,4522,2,0,B|61:121|130:85,1,90
278,126,4822,2,0,P|252:162|212:182,1,90
365,53,5122,1,2,0:2:0:0:
441,162,5422,2,0,B|366:209|346:188|346:188,1,90
197,164,5722,2,0,B|266:120|286:141|274:137,1,90
47,167,6022,5,2,0:2:0:0:
222,65,6322,2,0,P|228:168|216:185,1,90
145,243,6622,2,0,P|139:140|151:123,1,90
430,166,6922,5,0,0:0:0:0:
203,192,7072,2,0,P|245:205|286:187,1,90
358,291,7372,1,0,0:0:0:0:
342,57,7522,2,0,P|298:56|264:85,1,90
38,122,7822,5,2,0:2:0:0:
105,222,7972,1,0,0:0:0:0:
173,64,8122,1,2,0:2:0:0:
105,222,8272,1,0,0:0:0:0:
271,107,8422,2,0,B|336:72|336:72|371:46|336:29|276:70,1,180,2|0,0:2|0:0,0:0:0:0:
430,194,8872,1,0,0:0:0:0:
361,270,9022,2,0,P|330:307|260:302,1,90
282,173,9322,1,0,0:0:0:0:
107,68,9622,5,2,0:2:0:0:
212,269,9772,1,0,0:0:0:0:
243,104,9922,1,2,0:2:0:0:
88,228,10072,1,0,0:2:0:0:
357,199,10222,2,0,P|393:170|449:182,1,90,2|0,0:2|0:0,0:0:0:0:
411,305,10522,5,0,0:0:0:0:
299,82,10672,1,8,0:0:0:0:
299,82,10747,1,8,0:0:0:0:
299,82,10822,2,0,B|276:65|275:37|275:37|324:31|384:109,1,180,8|0,0:0|0:0,0:0:0:0:
193,75,11272,1,0,0:0:0:0:
423,301,11422,5,2,0:2:0:0:
314,183,11572,2,0,B|265:215|255:261|255:261|319:222,1,90
428,195,11872,1,0,0:0:0:0:
121,293,12022,2,0,P|80:272|55:235,1,90
206,211,12322,5,2,0:2:0:0:
84,148,12472,1,0,0:0:0:0:
327,151,12622,2,0,P|317:202|281:240,1,90
220,299,12922,1,0,0:0:0:0:
167,96,13072,1,0,0:0:0:0:
276,50,13222,5,2,0:2:0:0:
447,146,13372,2,0,P|447:101|430:60,1,90
265,209,13672,1,0,0:0:0:0:
413,282,13822,2,0,B|462:240|460:159|411:124,2,180
192,192,14572,1,0,0:0:0:0:
328,261,14722,2,0,B|277:267|228:334,1,90
138,288,15022,5,8,0:0:0:0:
83,174,15172,2,0,B|157:179|198:151|198:151|162:122|111:145,1,180
328,240,15622,5,0,0:0:0:0:
356,116,15772,1,0,0:0:0:0:
440,237,15922,2,0,P|436:281|415:321,1,90,8|0,0:0|0:0,0:0:0:0:
219,146,16222,2,0,P|187:185|205:244,1,90
323,347,16522,2,0,P|332:303|317:262,1,90
426,265,16822,1,8,0:0:0:0:
163,85,17122,6,0,P|130:107|108:151,1,90
244,170,17422,1,0,0:0:0:0:
358,65,17572,1,0,0:0:0:0:
361,254,17722,6,0,B|290:306|240:318|172:294,1,180,0|0,0:0|0:0,3:0:0:0:
305,196,18322,5,0,0:0:0:0:
374,106,18472,1,0,0:0:0:0:
284,45,18622,2,0,P|265:90|276:107,2,72,2|0|0,0:2|0:0|0:0,0:0:0:0:
279,246,19072,1,0,0:0:0:0:
141,253,19222,2,0,P|95:236|77:209,1,72
201,144,19522,2,0,P|277:142|295:134,1,72
373,219,19822,2,0,P|404:192|414:160,2,72
272,250,20272,1,0,0:0:0:0:
172,183,20422,6,0,P|102:185|61:242,1,144,2|0,0:2|0:0,0:0:0:0:
153,281,20872,1,0,0:0:0:0:
383,287,21022,2,0,P|422:290|473:311,2,72
259,184,21472,2,0,P|304:175|337:147,1,72
398,48,21772,1,0,0:0:0:0:
189,58,21922,2,0,P|154:63|130:89,1,72
310,310,22222,5,2,0:2:0:0:
245,145,22372,1,0,0:0:0:0:
95,184,22522,2,0,P|72:210|70:245,1,72
154,97,22822,1,0,0:0:0:0:
201,297,22972,2,0,P|219:246|256:221,1,72
320,306,23272,1,0,0:0:0:0:
383,209,23422,1,0,0:0:0:0:
429,308,23572,2,0,P|470:285|492:251,1,72
461,157,23872,1,0,0:0:0:0:
304,141,24022,6,0,P|233:189|222:188,1,72
125,194,24322,2,0,P|147:121|230:77,1,144
319,65,24772,1,0,0:0:0:0:
322,194,24922,2,0,P|386:193|415:125,1,144
226,165,25372,1,0,0:0:0:0:
412,232,25522,2,0,P|398:301|383:315,1,72
87,74,25822,5,2,0:2:0:0:
87,74,25897,1,2,0:2:0:0:
87,74,25972,2,0,P|163:42|201:74,1,107.999996704102,2|0,0:2|0:0,0:0:0:0:
320,160,26272,5,0,0:0:0:0:
320,200,26422,2,0,L|320:272,1,72
176,288,26722,2,0,B|165:242|165:242|197:181|176:148,1,125.999996154785
299,86,27172,2,0,P|337:67|393:77,1,72
355,155,27472,1,0,0:0:0:0:
344,318,27622,5,2,0:2:0:0:
344,318,27697,1,2,0:2:0:0:
344,318,27772,2,0,P|261:316|218:276,1,107.999996704102,2|0,0:2|0:0,0:0:0:0:
171,208,28072,1,0,0:0:0:0:
311,220,28222,1,0,0:0:0:0:
252,95,28372,1,0,0:0:0:0:
357,86,28522,6,0,B|397:29|408:44,1,72
440,131,28822,2,0,B|402:186|390:178,1,72
197,173,29122,2,0,B|164:184|146:157|146:157|116:174,1,62.9999980773926
164,312,29422,1,2,0:2:0:0:
164,312,29497,1,2,0:2:0:0:
164,312,29572,2,0,P|217:324|278:294,1,107.999996704102
216,190,29872,5,0,0:0:0:0:
108,118,30022,1,0,0:0:0:0:
248,66,30172,2,0,P|297:77|310:119,1,72
331,188,30472,2,0,P|365:183|387:156,1,72
424,273,30771,1,0,0:0:0:0:
313,161,30922,1,0,0:0:0:0:
268,301,31072,1,0,0:0:0:0:
398,70,31222,5,2,0:2:0:0:
372,70,31297,1,2,0:2:0:0:
344,70,31372,2,0,B|327:58|327:58|290:72|272:70,1,72,2|0,0:2|0:0,0:0:0:0:
373,163,31672,5,0,0:0:0:0:
454,267,31822,1,0,0:0:0:0:
329,299,31972,1,0,0:0:0:0:
232,220,32122,2,0,P|201:263|203:305,1,72
226,119,32422,2,0,P|182:122|149:162,1,72
324,152,32722,2,0,P|360:144|405:161,1,72,4|0,0:0|1:0,0:0:0:0:
359,239,33172,1,0,0:0:0:0:
416,334,33322,5,2,0:2:0:0:
384,334,33397,1,2,0:2:0:0:
352,334,33472,2,0,P|297:336|258:317,1,72,2|0,0:2|0:0,0:0:0:0:
293,238,33772,1,0,0:0:0:0:
356,141,33922,5,0,0:0:0:0:
434,97,34072,2,0,P|455:132|455:177,1,72
426,272,34372,1,0,0:0:0:0:
346,281,34522,2,0,B|367:273|352:328|380:343,1,72
187,219,34822,5,2,0:2:0:0:
161,213,34897,1,2,0:2:0:0:
144,200,34972,2,0,B|96:170|159:97,1,72,2|0,0:2|0:0,0:0:0:0:
50,75,35272,1,0,0:0:0:0:
219,61,35422,2,0,P|259:53|299:61,1,72
396,98,35722,1,0,0:0:0:0:
317,226,35872,1,0,0:0:0:0:
139,127,36022,1,0,0:0:0:0:
195,262,36172,1,0,0:0:0:0:
114,330,36322,6,0,P|75:300|79:255,1,72
323,264,36622,1,2,0:2:0:0:
323,264,36697,1,2,0:2:0:0:
323,264,36772,2,0,P|288:201|261:194,1,72,2|0,0:2|0:0,0:0:0:0:
188,208,37072,1,0,0:0:0:0:
58,178,37222,2,0,B|56:134|80:113|90:113,1,72
191,176,37522,1,0,0:0:0:0:
314,162,37672,1,0,0:0:0:0:
226,49,37822,1,0,0:0:0:0:
415,164,37972,5,0,0:0:0:0:
411,279,38122,2,0,P|396:311|365:328,1,72
104,240,38422,1,0,0:0:0:0:
266,220,38572,1,0,0:0:0:0:
341,80,38722,2,0,B|383:102|430:92|430:92|433:66|415:57|394:71|394:71|417:117|391:214,1,288
375,336,39472,6,0,P|337:326|307:296,1,72
269,227,39772,1,0,0:0:0:0:
384,161,39922,2,0,P|431:173|464:156,1,72
379,53,40222,5,2,0:2:0:0:
347,53,40297,1,2,0:2:0:0:
314,53,40372,2,0,P|259:67|255:110,1,72,2|0,0:2|0:0,0:0:0:0:
424,144,40672,6,0,B|437:184|437:184|437:224,1,72
366,297,40972,1,0,0:0:0:0:
297,172,41122,2,0,P|276:214|237:226,1,72
137,286,41422,2,0,P|143:321|171:344,2,72
180,169,41872,1,0,0:0:0:0:
365,275,42022,5,2,0:2:0:0:
365,275,42097,1,2,0:2:0:0:
365,275,42172,2,0,B|446:231|446:231|427:211|398:221,1,144,2|0,0:2|0:0,0:0:0:0:
168,65,42622,5,0,0:0:0:0:
282,310,42772,1,0,0:0:0:0:
388,94,42922,1,0,0:0:0:0:
287,271,43072,1,0,0:0:0:0:
229,113,43222,1,0,0:0:0:0:
382,240,43372,2,0,P|413:257|448:260,1,72
218,163,43672,5,0,0:0:0:0:
144,291,43822,1,2,0:2:0:0:
144,291,43897,1,2,0:2:0:0:
144,291,43972,2,0,B|90:310|90:310|105:323,1,72,2|0,0:2|0:2,0:2:0:0:
106,168,44272,5,0,0:0:0:0:
283,217,44422,2,0,P|299:161|291:127,1,72
173,28,44721,2,0,B|91:44|63:125,1,144
159,232,45172,6,0,P|181:283|222:282,1,72
287,190,45472,1,0,0:0:0:0:
247,66,45622,2,0,B|224:21|190:32,1,72
66,115,45922,2,0,B|50:162|82:178,1,72
209,227,46222,2,0,B|229:191|282:186,1,72
427,231,46522,6,0,B|403:296|365:331|324:346,2,144
114,80,47272,1,0,0:0:0:0:
129,228,47422,2,0,B|173:225|200:197,1,72,6|0,0:1|0:0,0:0:0:0:
263,161,47872,2,0,P|346:116|434:181,1,180
172,93,48322,6,2,P|155:96|141:115,1,36,6|2,0:0|0:0,0:0:0:0:
396,283,48772,2,0,P|418:274|427:261,1,36,2|0,0:0|0:0,0:0:0:0:
278,206,49222,2,0,B|236:214|230:301|155:303,1,161.999995056153,4|0,0:0|0:0,0:0:0:0:
442,292,49822,5,2,0:0:0:0:
131,56,49972,1,0,0:0:0:0:
173,152,50122,2,0,B|221:128|221:128|211:130|211:130|218:126|218:126|226:124|226:124|216:127|216:127|233:117|233:117|226:121|226:121|246:106|246:106|213:113|213:113|249:108|249:108|227:114|227:114|266:103|266:103|255:104|255:104|310:86|310:86|357:98|357:98|429:210|375:277|333:346|204:323|93:185|93:185,1,854.999977169037,2|0,1:2|0:0,0:0:0:0:
67,126,51022,6,0,P|117:96|126:77,1,72
191,251,51472,2,4,B|108:224|108:224|287:87|161:93|161:93,1,233.999989288331
409,145,51922,6,2,P|393:122|365:114,1,58.4999973220826
269,146,52072,2,2,P|251:169|257:196,1,58.4999973220826
382,266,52222,1,2,0:0:0:0:
280,61,52372,6,0,B|327:76|283:136|395:278,1,233.999989288331,8|0,0:2|0:0,0:0:0:0:
97,117,52822,1,0,0:0:0:0:
300,221,52972,1,0,0:0:0:0:
120,200,53122,1,0,0:0:0:0:
179,278,53272,2,0,P|214:245|224:210,1,72
296,131,53722,2,0,P|342:83|397:92,1,116.999994644165
482,184,54022,1,0,0:0:0:0:
372,190,54172,2,2,P|363:208|349:222,1,36,2|0,1:2|0:0,0:0:0:0:
77,138,54622,6,0,B|108:114|160:106,1,90,12|0,0:2|0:0,0:0:0:0:
416,160,55072,2,0,L|344:144,1,62.9999980773926,2|0,0:0|0:0,0:0:0:0:
136,224,55222,2,0,L|208:240,1,62.9999980773926,2|0,0:0|0:0,0:0:0:0:
284,315,55372,1,0,0:0:0:0:
253,93,55522,2,0,B|300:113|301:225,1,135.000005149842,2|0,0:0|0:0,0:0:0:0:
103,115,55972,2,0,B|92:100|95:79,1,36
228,266,56272,1,0,0:0:0:0:
444,268,56422,2,0,P|473:221|449:142,1,125.999996154785
323,257,56872,2,0,P|285:254|269:242,1,53.9999983520508
400,146,57322,6,2,L|441:100,1,53.9999983520508
190,236,57472,2,2,L|149:282,1,53.9999983520508
260,98,57622,2,0,P|256:60|110:50,1,215.999993408203,2|0,0:0|0:0,0:0:0:0:
138,132,58072,1,0,0:0:0:0:
82,234,58222,6,0,B|103:302|113:295,1,72,12|0,0:2|0:0,0:0:0:0:
214,289,58672,1,0,0:0:0:0:
215,172,58822,2,0,P|275:175|330:208,1,107.999996704102
468,172,59122,2,0,P|422:118|379:99,1,90
167,52,59422,2,0,P|117:43|78:69,2,90
151,149,59872,1,0,0:0:0:0:
45,188,60022,6,0,P|68:215|101:226,1,72,4|0,0:2|0:0,0:0:0:0:
200,277,60472,2,0,B|237:264|257:291|257:291|229:314|185:326,1,144
360,194,60922,2,0,P|323:158|271:162,1,107.999996704102
218,206,61372,2,0,P|200:220|149:244,1,53.9999983520508
93,265,61672,1,0,0:0:0:0:
70,176,61822,6,12,B|37:129|80:89|155:101,1,135.000005149842,12|0,0:2|0:0,0:2:0:0:
387,90,62122,1,0,0:0:0:0:
220,316,62272,1,0,0:0:0:0:
410,285,62422,6,0,B|384:228|384:228|390:219|390:219|379:227|379:227|384:210|384:210|370:232|370:232|377:210|377:210|369:223|369:223|367:213|367:213|357:230|357:230|351:214|351:214|274:215|313:243|185:189|155:69,1,467.999978576661
295,49,63172,1,0,0:0:0:0:
439,196,63322,6,0,B|442:139|427:113|392:100,1,116.999994644165
162,110,63622,2,0,B|216:120|271:184|278:211|278:211|269:193|269:193|276:216|276:216|266:200|266:200|276:229|276:229|265:211|265:211|276:237|276:237|264:222|264:222|251:279|174:344,1,467.999978576661,12|0,0:2|0:0,0:0:0:0:
80,96,64372,1,0,0:0:0:0:
432,92,64522,2,0,P|434:136|423:180,1,90
160,288,64822,2,0,P|148:245|150:201,1,90
422,108,65122,6,0,B|448:167|443:238|443:238|382:211,1,180
354,116,65572,1,0,0:0:0:0:
360,208,65722,6,0,L|325:191,1,26.9999991760254
256,211,66022,2,0,P|224:235|157:219,1,80.9999975280763
120,111,66322,5,0,0:0:0:0:
410,110,66472,1,0,0:0:0:0:
200,312,66622,2,0,P|185:236|197:203,1,80.9999975280763
249,116,66922,2,0,P|313:150|320:187,1,80.9999975280763
361,313,67222,6,0,P|466:220|465:177,1,161.999995056153,12|0,0:2|0:0,0:0:0:0:
463,91,67672,1,0,0:0:0:0:
222,58,67822,2,0,P|174:80|161:131,2,107.999996704102
337,84,68572,5,0,0:0:0:0:
376,151,68722,2,0,P|378:186|358:218,1,53.9999983520508
212,291,69022,2,0,B|158:316|158:316|125:303|149:281,1,107.999996704102,4|0,0:2|0:0,0:0:0:0:
229,195,69472,1,0,0:0:0:0:
128,152,69622,6,0,P|68:160|26:209,1,107.999996704102
75,294,69922,1,0,0:0:0:0:
128,53,70072,1,0,0:0:0:0:
231,99,70222,2,0,P|240:189|225:214,1,107.999996704102
107,192,70522,2,0,P|170:295|186:297,1,107.999996704102
234,149,70822,6,12,P|219:98|240:50,1,107.999996704102,12|14,0:2|0:2,0:2:0:0:
407,120,71121,1,8,0:0:0:0:
414,174,71197,1,8,0:0:0:0:
397,227,71271,1,8,0:0:0:0:
363,269,71346,1,8,0:0:0:0:
317,296,71421,1,8,0:0:0:0:
157,81,71572,1,8,0:0:0:0:
104,245,71722,2,0,P|180:163|278:162,1,215.999993408203,8|8,0:0|0:0,0:0:0:0:
361,184,72172,1,0,0:0:0:0:
435,84,72322,5,0,0:0:0:0:
202,125,72472,1,0,0:0:0:0:
290,153,72622,2,0,P|235:210|156:215,1,161.999995056153,4|0,0:2|0:2,0:0:0:0:
81,323,73222,5,8,0:0:0:0:
458,207,73372,1,0,0:0:0:0:
205,38,73522,1,8,0:0:0:0:
190,301,73672,1,0,0:0:0:0:
417,232,73822,1,8,0:0:0:0:
268,136,73972,1,0,0:0:0:0:
236,201,74122,2,4,B|231:206|231:206|269:234,1,53.9999983520508,4|2,0:0|0:0,0:0:0:0:
343,71,74422,5,2,2:0:0:0:
316,51,74497,1,2,2:0:0:0:
285,40,74572,1,2,2:0:0:0:
252,42,74647,1,2,2:0:0:0:
223,51,74722,1,2,2:0:0:0:
196,71,74797,1,2,2:0:0:0:
177,98,74872,1,2,2:0:0:0:
168,128,74947,1,2,2:0:0:0:
168,160,75022,1,2,2:0:0:0:
214,218,75172,1,0,0:0:0:0:
280,271,75322,2,0,B|316:318|316:318|362:298|372:346|417:338,1,161.999995056153,0|8,0:0|0:0,0:0:0:0:
387,131,75922,6,0,P|320:47|236:103,1,225
300,177,76372,1,0,0:0:0:0:
105,325,76522,5,8,1:0:0:0:
105,325,76597,1,8,1:0:0:0:
105,325,76672,2,0,B|71:246|71:246|96:232|116:262,1,107.999996704102,8|0,1:0|1:0,1:0:0:0:
434,256,76972,1,0,1:0:0:0:
158,128,77122,5,8,1:0:0:0:
275,275,77272,1,8,1:0:0:0:
396,85,77422,1,8,1:0:0:0:
396,85,77497,1,8,1:0:0:0:
396,85,77572,2,0,B|345:70|345:70|306:94|265:75|252:98,1,116.999994644165,8|0,1:0|1:0,1:0:0:0:
422,309,77872,1,8,1:0:0:0:
93,231,78022,5,0,1:0:0:0:
294,70,78172,1,0,1:0:0:0:
229,258,78322,5,8,1:0:0:0:
229,258,78397,1,8,1:0:0:0:
229,258,78472,2,0,B|224:213|202:200|202:200|192:168,1,90,8|0,1:2|1:2,1:2:0:0:
348,239,78772,1,0,1:2:0:0:
118,132,78922,1,8,0:0:0:0:
387,89,79072,1,0,0:0:0:0:
257,156,79222,2,0,L|257:194,1,36,2|8,1:2|0:0,0:0:0:0:
376,128,79822,5,2,0:0:0:0:
376,168,79897,1,2,0:0:0:0:
376,208,79972,1,2,0:0:0:0:
376,240,80047,2,0,L|376:296,1,45,2|0,0:0|0:0,0:0:0:0:
162,314,80272,2,0,P|103:262|100:236,1,90
210,188,80572,2,0,P|270:132|274:108,1,90
339,200,80872,1,0,0:0:0:0:
81,113,81022,5,0,0:0:0:0:
86,228,81172,2,0,P|129:239|160:224,1,62.9999980773926
260,129,81472,1,0,0:0:0:0:
360,234,81622,5,2,0:0:0:0:
360,234,81697,1,2,0:0:0:0:
360,234,81772,2,0,B|360:298|360:298|342:317,2,90,2|0|0,0:0|0:0|0:0,0:0:0:0:
228,258,82222,1,0,0:0:0:0:
401,54,82372,1,0,0:0:0:0:
232,59,82522,2,0,B|233:115|304:130,1,90
395,244,82822,6,0,P|438:243|475:273,1,90
296,325,83122,1,0,0:0:0:0:
147,69,83272,1,0,0:0:0:0:
71,194,83422,5,2,0:0:0:0:
71,194,83497,1,2,0:0:0:0:
71,194,83572,2,0,B|71:258|47:290,2,90,2|0|0,0:0|0:0|0:0,0:0:0:0:
108,77,84022,1,0,0:0:0:0:
315,53,84172,6,0,B|354:53|354:53|389:67|390:90,1,90
312,163,84472,1,0,0:0:0:0:
447,188,84622,1,0,0:0:0:0:
388,268,84772,2,0,P|428:287|473:285,2,90
260,319,85222,2,0,P|180:289|165:252,1,90
257,202,85522,2,0,P|207:117|190:107,1,90
130,176,85822,1,0,0:0:0:0:
307,58,85972,6,0,P|335:93|337:138,1,90
181,124,86272,2,0,P|149:92|143:48,1,90
91,227,86572,1,0,0:0:0:0:
192,310,86722,2,0,P|249:302|297:256,1,90
376,64,87022,5,2,0:0:0:0:
376,64,87097,1,2,0:0:0:0:
376,64,87172,2,0,B|440:64|440:64|472:96,2,90,2|0|2,0:0|0:0|0:0,0:0:0:0:
238,66,87622,5,0,0:0:0:0:
210,188,87772,1,0,0:0:0:0:
378,191,87923,2,0,P|356:152|315:139,1,90
131,249,88222,1,0,0:0:0:0:
354,338,88372,2,0,P|398:333|436:309,1,90
213,304,88672,1,0,0:0:0:0:
92,188,88822,5,2,0:0:0:0:
92,188,88897,1,2,0:0:0:0:
92,188,88972,2,2,B|90:124|118:76,2,90,2|0|2,0:0|0:0|0:0,0:0:0:0:
186,265,89422,6,0,P|278:289|291:278,1,90
373,226,89722,1,0,0:0:0:0:
217,114,89872,2,0,P|183:141|177:185,1,90
260,263,90172,1,0,0:0:0:0:
373,275,90322,2,0,P|414:258|439:222,1,90
318,136,90622,5,2,0:0:0:0:
313,115,90697,1,2,0:0:0:0:
310,96,90772,2,0,B|310:32|347:5,2,90,2|0|2,0:0|0:0|0:0,0:0:0:0:
353,196,91222,1,0,0:0:0:0:
311,308,91372,1,0,0:0:0:0:
206,235,91522,1,0,0:0:0:0:
429,287,91672,5,0,0:0:0:0:
219,153,91822,1,0,0:0:0:0:
101,201,91972,2,0,P|72:250|11:279,1,90
56,88,92272,1,0,0:0:0:0:
286,256,92423,6,0,P|299:298|331:330,1,90
469,168,92722,2,0,P|449:208|411:230,1,90
291,38,93022,2,0,P|301:82|332:114,1,90
446,90,93322,2,0,P|433:57|404:39,1,72
139,156,93622,2,0,P|92:137|63:143,1,72,4|0,0:0|0:0,0:0:0:0:
309,195,94072,1,0,0:0:0:0:
184,294,94222,5,2,0:0:0:0:
167,301,94297,1,2,0:0:0:0:
150,308,94371,2,0,B|81:310|62:292,2,90,2|0|2,0:0|0:0|0:0,0:0:0:0:
196,199,94822,5,0,0:0:0:0:
285,95,94972,1,0,0:0:0:0:
324,98,95047,1,0,0:0:0:0:
359,128,95122,1,0,0:0:0:0:
392,222,95272,1,0,0:0:0:0:
343,332,95422,2,0,P|273:288|270:272,1,90
71,146,95722,1,0,0:0:0:0:
201,51,95872,1,0,0:0:0:0:
358,109,96022,5,2,0:0:0:0:
387,118,96097,1,2,0:0:0:0:
418,129,96172,2,0,B|478:151|516:205,2,90,2|0|2,0:0|0:0|0:0,0:0:0:0:
250,91,96622,2,0,P|212:115|188:153,1,90
219,261,96922,1,0,0:0:0:0:
405,308,97072,1,0,0:0:0:0:
472,151,97222,2,0,P|435:125|392:115,1,90
225,82,97522,2,0,P|181:92|144:117,1,90
65,228,97822,5,2,0:0:0:0:
62,243,97897,1,2,0:0:0:0:
61,254,97972,2,0,P|71:310|104:343,2,90,2|0|2,0:0|0:0|0:0,0:0:0:0:
141,114,98422,1,0,0:0:0:0:
270,57,98572,2,0,P|339:78|352:101,1,90
433,154,98872,1,0,0:0:0:0:
471,274,99022,2,0,P|402:283|364:256,1,90
183,233,99322,1,0,0:0:0:0:
124,148,99472,2,0,P|100:122|87:68,1,90
214,73,99772,5,0,0:0:0:0:
304,76,99922,2,0,B|356:93|387:59,1,90
146,135,100222,5,0,0:0:0:0:
102,262,100372,2,0,P|58:253|19:229,1,90
323,196,100672,5,0,0:0:0:0:
378,61,100822,2,0,P|334:50|294:68,2,90
469,226,101272,1,0,0:0:0:0:
286,271,101422,5,2,0:0:0:0:
286,271,101497,1,2,0:0:0:0:
286,271,101572,2,0,B|235:282|200:213,2,90,2|0|2,0:0|0:0|0:0,0:0:0:0:
372,171,102022,5,0,0:0:0:0:
355,58,102172,2,0,P|268:78|261:100,1,90
141,61,102472,1,0,0:0:0:0:
114,194,102622,2,0,B|189:199|201:135,1,90
141,323,102922,6,0,P|97:318|61:293,1,90
203,153,103222,1,2,0:0:0:0:
203,153,103297,1,2,0:0:0:0:
203,153,103372,1,2,0:0:0:0:
309,226,103522,1,0,0:0:0:0:
368,108,103672,2,0,P|412:112|448:138,1,90,2|0,0:0|0:0,0:0:0:0:
388,274,103972,5,0,0:0:0:0:
241,293,104122,2,0,B|203:257|243:180,1,90
291,103,104422,1,0,0:0:0:0:
410,52,104572,2,0,P|427:89|409:145,1,90,0|0,0:0|0:0,0:0:0:0:
274,209,104872,1,0,0:0:0:0:
326,330,105022,5,2,0:0:0:0:
358,331,105097,1,2,0:0:0:0:
391,327,105172,2,0,B|455:327|502:281,2,90,2|0|2,0:0|0:0|0:0,0:0:0:0:
139,215,105622,2,0,P|54:219|38:240,1,90
404,182,105922,2,0,P|387:141|358:107,1,90
245,132,106222,1,0,0:0:0:0:
188,234,106372,2,0,P|189:278|205:321,1,90
368,288,106672,1,0,0:0:0:0:
186,135,106822,5,2,0:0:0:0:
179,130,106897,1,2,0:0:0:0:
170,127,106972,2,0,P|104:93|78:98,1,90,2|0,0:0|0:0,0:0:0:0:
299,290,107272,1,2,0:0:0:0:
383,128,107422,2,0,P|383:84|351:56,1,90,0|0,0:0|0:0,2:0:0:0:
138,250,107722,6,0,P|81:266|39:241,2,90
287,229,108172,1,0,0:0:0:0:
188,124,108322,2,0,P|222:72|264:64,1,90
349,310,108622,6,0,P|360:313|368:316,1,18,8|0,0:3|0:0,0:0:0:0:
131,254,109072,2,0,P|86:239|64:207,2,72
351,127,109522,2,0,L|386:112,1,36,8|0,0:3|0:0,0:0:0:0:
158,74,109972,2,0,P|131:58|75:59,1,72
137,259,110272,1,0,0:0:0:0:
369,244,110422,2,0,B|400:243|400:243|406:246|406:246|409:254|409:254|414:253|414:253|419:267|419:267|402:265|402:265|409:269|409:269|416:269|416:269|453:287|475:359,1,180,4|0,0:3|0:0,0:0:0:0:
320,57,110872,5,0,0:0:0:0:
182,308,111022,1,0,0:0:0:0:
78,121,111172,1,0,0:0:0:0:
388,116,111322,5,8,0:0:0:0:
308,264,111622,2,0,P|437:198|394:117,1,270.000010299683,6|0,0:3|0:0,0:0:0:0:
241,161,112072,1,0,0:0:0:0:
43,230,112222,6,0,P|40:209|61:177,1,53.9999983520508,12|0,0:2|0:0,0:0:0:0:
156,212,112672,1,0,0:0:0:0:
118,46,112822,2,0,P|125:69|114:112,1,67.5000025749208
226,340,113122,2,0,B|330:310|354:277,1,107.999996704102
326,300,113347,1,0,0:0:0:0:
326,300,113422,1,0,0:0:0:0:
214,112,113572,1,0,0:0:0:0:
339,74,113722,2,0,P|297:157|279:173,1,107.999996704102
89,291,114022,6,0,P|75:278|58:240,1,53.9999983520508,4|0,0:2|0:0,0:0:0:0:
51,101,114472,1,0,0:0:0:0:
128,182,114622,1,0,0:0:0:0:
147,39,114772,1,0,0:0:0:0:
237,208,114922,5,2,0:0:0:0:
239,181,114997,1,2,0:0:0:0:
255,145,115072,1,2,0:0:0:0:
286,120,115147,1,2,0:0:0:0:
331,107,115222,1,2,0:0:0:0:
383,119,115297,1,2,0:0:0:0:
422,156,115372,1,2,0:0:0:0:
135,295,115522,1,0,0:0:0:0:
265,52,115672,1,0,0:0:0:0:
439,211,115822,6,0,P|427:234|392:256,1,62.9999980773926,12|0,0:2|0:0,0:0:0:0:
354,156,116272,1,0,0:0:0:0:
195,301,116422,2,0,P|230:259|290:242,1,90
452,64,116722,2,0,P|464:123|441:207,1,90
372,299,117022,1,0,0:0:0:0:
90,177,117172,1,0,0:0:0:0:
181,123,117322,2,0,B|148:91|149:85|130:76|130:76|82:78,1,90
175,298,117622,6,0,P|170:314|152:325,1,36,4|0,0:2|0:0,0:0:0:0:
124,157,118072,1,0,0:0:0:0:
296,69,118222,1,0,0:0:0:0:
231,190,118372,1,0,0:0:0:0:
156,44,118522,1,0,0:0:0:0:
399,121,118597,1,2,0:0:0:0:
397,176,118672,1,2,0:0:0:0:
375,226,118747,1,2,0:0:0:0:
334,263,118822,1,2,0:0:0:0:
281,280,118897,1,2,0:0:0:0:
225,283,118972,1,2,0:0:0:0:
172,265,119047,1,2,0:0:0:0:
131,228,119122,2,0,P|155:160|238:102,1,135.000005149842
402,276,119422,6,0,P|390:289|376:301,1,36,12|0,0:2|0:0,0:0:0:0:
312,185,119872,1,0,0:0:0:0:
238,283,120022,1,0,0:0:0:0:
145,127,120172,1,0,0:0:0:0:
72,258,120322,1,0,0:0:0:0:
38,105,120472,2,0,P|57:50|102:2,1,90
184,201,120772,2,0,B|202:212|201:288,2,90
207,66,121222,6,0,P|225:60|241:63,1,36,4|0,0:2|0:0,0:0:0:0:
173,191,121672,1,0,0:0:0:0:
382,126,121822,2,0,P|387:139|386:148,1,18
287,281,122122,2,0,L|281:257,1,18
276,213,122422,1,0,0:0:0:0:
261,81,122572,1,0,0:0:0:0:
112,199,122722,2,0,L|68:222,1,36
360,310,123022,5,12,0:2:0:0:
360,310,123097,1,0,0:0:0:0:
360,310,123172,1,0,0:0:0:0:
64,94,123322,5,0,0:0:0:0:
461,236,123472,1,0,0:0:0:0:
80,241,123622,1,0,0:0:0:0:
435,70,123772,1,0,0:0:0:0:
381,286,123922,2,0,B|411:302|399:350|426:361,2,90,8|0|0,0:0|0:0|0:0,0:0:0:0:
153,124,124372,1,0,0:0:0:0:
102,310,124522,2,0,B|115:273|176:250,1,90,0|12,0:0|0:2,0:0:0:0:
414,164,124972,1,0,0:0:0:0:
94,146,125122,1,0,0:0:0:0:
258,258,125272,1,0,0:0:0:0:
374,90,125422,2,0,P|371:62|361:55,1,22.5
358,39,125572,1,0,0:0:0:0:
113,249,125722,1,0,0:0:0:0:
420,241,125872,1,0,0:0:0:0:
275,179,126022,5,2,1:2:0:0:
233,179,126097,1,2,1:2:0:0:
255,215,126172,1,2,1:2:0:0:
381,96,126322,6,0,P|413:57|419:56,1,45,2|0,1:2|1:0,1:0:0:0:
135,48,126622,1,8,0:3:0:0:
86,120,126697,1,8,0:3:0:0:
88,200,126772,1,8,0:3:0:0:
125,272,126847,1,8,0:3:0:0:
190,319,126922,1,8,0:3:0:0:
269,334,126997,1,8,0:3:0:0:
344,304,127072,2,0,P|334:275|312:240,1,72,8|0,0:3|0:0,0:0:0:0:
101,87,127522,5,8,0:0:0:0:
461,182,127672,1,0,0:0:0:0:
112,286,127822,1,8,0:0:0:0:
336,55,127972,1,0,0:0:0:0:
324,317,128122,1,8,0:0:0:0:
144,133,128272,1,0,0:0:0:0:
417,234,128422,6,0,B|399:265|399:265|369:267|354:259,1,72,12|0,0:2|0:0,0:0:0:0:
94,73,128872,1,0,0:0:0:0:
121,243,129022,2,0,P|141:257|163:261,1,36
402,285,129322,2,0,L|426:303,2,18
217,296,129622,1,0,0:0:0:0:
328,57,129772,1,0,0:0:0:0:
92,181,129922,2,0,P|72:182|50:163,1,36
219,123,130222,5,4,0:2:0:0:
219,123,130297,1,2,0:2:0:0:
219,123,130372,2,0,B|298:135|329:277|315:267|362:272,1,157.500001502037,2|0,0:2|0:0,0:0:0:0:
103,113,130672,1,0,0:0:0:0:
132,239,130822,2,0,P|145:267|164:273,1,45
281,232,131122,2,0,P|322:261|347:307,1,90
440,310,131572,1,0,0:0:0:0:
430,82,131722,6,0,P|394:58|350:60,1,90,0|8,0:0|0:0,0:0:0:0:
102,192,132172,1,0,0:0:0:0:
333,289,132322,1,0,0:0:0:0:
128,134,132472,5,2,0:2:0:0:
135,77,132547,1,2,0:2:0:0:
179,33,132622,1,2,0:2:0:0:
246,22,132697,1,2,0:2:0:0:
305,57,132772,1,2,0:2:0:0:
338,124,132847,1,2,0:2:0:0:
333,198,132922,1,2,0:2:0:0:
317,269,132997,1,2,0:2:0:0:
327,335,133072,2,0,P|333:351|352:363,1,36,2|0,0:2|0:0,0:0:0:0:
213,308,133522,2,0,P|164:279|126:288,1,90
53,149,133822,6,0,B|56:81|56:81|142:116|181:54|181:32,1,180,12|0,0:2|0:0,0:0:0:0:
289,128,134272,1,0,0:0:0:0:
155,189,134422,2,0,P|163:239|203:265,1,90
397,212,134722,2,0,P|414:259|389:324,1,90
223,315,135022,1,0,0:0:0:0:
269,216,135172,1,0,0:0:0:0:
114,95,135322,1,0,0:0:0:0:
114,95,135397,1,0,0:0:0:0:
114,95,135472,1,0,0:0:0:0:
245,64,135622,6,0,B|262:98|312:99|312:99|341:139|380:120,1,135.000005149842,4|0,0:2|0:0,0:0:0:0:
405,45,135922,1,0,0:0:0:0:
442,185,136072,2,0,P|416:224|370:234,1,90
399,350,136372,2,0,P|407:306|385:268,1,90
435,143,136672,1,0,0:0:0:0:
262,176,136822,2,0,L|285:107,1,45
133,115,137122,6,0,P|121:132|129:171,1,53.9999983520508
321,119,137572,1,0,0:0:0:0:
196,266,137722,1,0,0:0:0:0:
209,85,137872,1,0,0:0:0:0:
331,221,138022,1,0,0:0:0:0:
133,120,138172,5,0,0:0:0:0:
386,172,138322,2,0,P|396:185|396:203,1,26.9999991760254,8|0,0:0|0:0,0:0:0:0:
90,247,138622,1,0,0:0:0:0:
309,69,138772,1,0,0:0:0:0:
468,290,138922,1,0,0:0:0:0:
82,140,139072,5,0,0:0:0:0:
413,217,139222,2,0,L|383:250,1,45,8|0,0:0|0:0,0:0:0:0:
363,274,139371,1,0,0:0:0:0:
249,269,139522,2,0,L|216:219,1,53.9999983520508
172,88,139822,2,0,L|237:60,1,53.9999983520508
292,153,140122,2,0,L|274:210,3,53.9999983520508
244,288,140722,1,0,0:0:0:0:
124,151,141022,5,0,0:0:0:0:
186,74,141172,2,0,P|268:68|294:90,1,90
254,165,141472,1,0,0:0:0:0:
305,308,141622,5,0,0:0:0:0:
444,294,141772,2,0,P|433:211|411:185,1,90
327,199,142072,1,0,0:0:0:0:
214,230,142222,2,0,P|179:256|144:250,1,62.9999980773926
159,116,142522,2,0,P|174:94|217:91,1,62.9999980773926
364,61,142822,5,4,0:0:0:0:
102,203,142972,1,0,0:0:0:0:
322,306,143122,2,0,P|365:311|395:280,1,90
203,47,143422,1,0,0:0:0:0:
161,252,143572,2,0,P|193:303|241:304,1,90
361,229,143872,1,0,0:0:0:0:
367,113,144022,2,0,P|349:86|327:76,1,53.9999983520508
218,133,144322,2,0,P|195:139|181:168,1,53.9999983520508
436,301,144622,5,4,0:0:0:0:
209,301,144772,2,0,P|158:282|150:245,1,90
224,95,145072,2,0,P|248:70|303:71,1,90
402,60,145372,1,0,0:0:0:0:
442,161,145522,2,0,P|439:192|421:209,1,53.9999983520508
349,230,145822,1,0,0:0:0:0:
269,219,145972,2,0,P|251:207|256:164,1,53.9999983520508
308,118,146272,1,0,0:0:0:0:
78,53,146422,5,4,0:0:0:0:
115,226,146572,2,0,P|123:250|146:264,1,53.9999983520508
314,267,146872,1,0,0:0:0:0:
393,169,147022,1,0,0:0:0:0:
322,69,147172,1,0,0:0:0:0:
206,83,147322,2,0,P|181:99|185:139,1,53.9999983520508
306,258,147622,1,0,0:0:0:0:
425,192,147772,2,0,P|431:165|413:141,1,53.9999983520508
348,77,148073,1,0,0:0:0:0:
62,169,148222,5,4,0:0:0:0:
242,66,148372,1,0,0:0:0:0:
324,177,148522,1,0,0:0:0:0:
285,264,148672,2,0,P|253:291|231:295,1,53.9999983520508
123,225,148972,2,0,P|93:202|97:165,1,53.9999983520508
185,93,149272,1,0,0:0:0:0:
235,189,149422,2,0,P|248:233|235:251,1,53.9999983520508
149,277,149722,2,0,P|135:232|147:214,1,53.9999983520508
293,64,150022,5,4,0:0:0:0:
284,238,150172,1,0,0:0:0:0:
427,264,150322,1,0,0:0:0:0:
424,117,150472,2,0,P|391:86|350:77,1,72
114,219,150772,2,0,B|123:265|151:278,2,72
232,92,151222,1,0,0:0:0:0:
377,241,151372,2,0,P|384:289|357:329,2,72
92,62,151822,5,2,0:0:0:0:
211,320,151972,1,0,0:1:0:0:
378,148,152122,1,0,0:0:0:0:
134,131,152272,1,0,0:0:0:0:
285,271,152422,1,0,0:0:0:0:
273,101,152572,2,0,P|299:66|336:57,1,62.9999980773926
215,221,152872,1,0,0:0:0:0:
397,196,153022,2,0,P|465:214|473:227,2,62.9999980773926
136,252,153472,1,0,0:0:0:0:
426,308,153622,6,0,P|400:333|351:337,1,72,2|0,0:0|0:0,0:0:0:0:
254,118,153922,1,0,0:0:0:0:
132,69,154072,2,0,B|115:115|132:139,1,72
282,286,154372,1,0,0:0:0:0:
457,145,154522,1,0,0:0:0:0:
407,251,154672,1,0,0:0:0:0:
308,181,154822,2,0,P|318:147|348:127,2,72
109,80,155422,6,0,P|168:62|206:80,1,90
262,119,155722,1,0,0:0:0:0:
159,148,155872,1,0,0:0:0:0:
241,211,156022,1,0,0:0:0:0:
114,327,156172,5,0,0:0:0:0:
148,243,156322,1,2,0:2:0:0:
186,249,156397,1,2,0:2:0:0:
228,227,156472,1,2,0:2:0:0:
302,223,156622,2,0,P|331:256|336:301,2,90
219,133,157072,1,0,0:0:0:0:
97,133,157222,6,0,P|151:76|178:76,1,90
319,77,157522,5,0,0:0:0:0:
162,253,157672,1,0,0:0:0:0:
255,210,157822,2,0,P|294:184|338:198,1,90
410,146,158122,1,2,0:2:0:0:
410,146,158197,1,2,0:2:0:0:
410,146,158272,1,2,0:2:0:0:
218,115,158422,6,0,P|173:109|128:114,1,90
108,122,158721,1,0,0:0:0:0:
165,297,158872,6,0,P|235:323|277:297,1,90
357,163,159172,2,0,P|329:120|279:106,1,90
222,65,159472,5,0,0:0:0:0:
215,291,159622,1,0,0:0:0:0:
126,253,159772,1,0,0:0:0:0:
455,197,159922,5,2,0:2:0:0:
455,197,159997,1,2,0:2:0:0:
455,197,160072,1,2,0:2:0:0:
211,58,160222,5,0,0:0:0:0:
283,294,160372,1,0,0:0:0:0:
384,133,160522,2,0,P|365:190|308:192,1,90
74,182,160822,6,0,P|74:164|87:152,1,36,8|0,0:2|0:0,0:0:0:0:
167,234,161272,1,0,0:0:0:0:
283,156,161422,2,0,P|290:162|291:171,1,18
405,208,161722,2,0,P|386:253|336:264,1,90,4|0,0:2|0:0,0:0:0:0:
108,288,162022,2,0,B|54:249|77:183,1,116.999994644165,4|0,0:2|0:0,0:0:0:0:
271,38,162322,2,0,P|328:32|421:93,1,144,4|0,0:2|0:0,0:0:0:0:
471,288,162622,6,0,P|445:322|396:348,1,90
373,258,163072,1,0,0:0:0:0:
283,193,163222,1,0,0:0:0:0:
257,297,163372,1,0,0:0:0:0:
392,157,163522,2,0,P|371:122|314:96,1,90
121,295,163822,2,0,P|95:274|93:252,1,45
91,226,164047,1,2,0:2:0:0:
91,226,164122,1,2,0:2:0:0:
312,129,164272,1,0,0:0:0:0:
344,312,164422,6,0,B|352:286|352:286|378:283|379:243|379:243|412:203,1,107.999996704102
369,73,164722,2,0,B|389:76|389:76|404:95,1,45
174,278,165022,2,0,P|154:268|146:233,1,45
203,135,165322,1,0,0:0:0:0:
419,87,165472,2,0,B|407:88|396:79|396:79|376:84,1,45
342,88,165697,1,2,0:2:0:0:
342,88,165772,1,2,0:2:0:0:
368,313,165922,6,0,B|409:203|409:203,1,107.999996704102
113,80,166222,2,0,L|126:157,1,62.9999980773926
148,306,166522,1,0,0:0:0:0:
305,319,166672,2,0,L|331:230,1,80.9999975280763
370,59,166972,5,0,0:0:0:0:
450,306,167122,1,0,0:0:0:0:
52,130,167272,1,0,0:0:0:0:
481,205,167422,1,0,0:0:0:0:
85,319,167572,1,0,0:0:0:0:
427,108,167722,2,0,L|463:69,2,53.9999983520508
250,66,168022,1,0,0:0:0:0:
162,117,168172,2,0,P|221:69|298:83,1,107.999996704102
235,200,168472,6,0,L|252:202,1,18,2|0,0:0|0:0,0:0:0:0:
109,86,168922,5,6,0:0:0:0:
109,86,168997,1,2,0:0:0:0:
109,86,169072,2,0,B|73:119|73:119|117:209,1,80.9999975280763,2|0,0:0|0:0,0:0:0:0:
142,250,169222,1,4,0:0:0:0:
285,342,169297,1,0,0:0:0:0:
285,342,169372,2,0,B|264:283|264:283|329:215,1,80.9999975280763
421,148,169522,2,0,B|409:95|409:95|354:63,2,80.9999975280763,4|0|0,0:0|0:0|0:0,0:0:0:0:
135,174,169822,6,0,B|165:217|165:217|143:269|176:304|176:304|183:347,1,180,12|0,0:2|0:0,0:0:0:0:
259,276,170272,2,0,L|240:259,1,18,8|8,0:3|0:3,0:3:0:0:
467,286,170422,2,0,L|489:279,1,18,8|8,0:3|0:3,0:3:0:0:
370,55,170722,2,0,B|395:79|346:112|346:112|371:151|371:151|353:159|389:231|389:231|338:306|350:351,1,306.000005836487
279,57,171172,5,8,0:2:0:0:
202,47,171247,1,8,0:2:0:0:
128,67,171322,1,8,0:2:0:0:
71,118,171397,1,8,0:2:0:0:
49,190,171472,1,8,0:2:0:0:
324,296,171622,6,0,B|267:312|240:276,1,90,4|0,0:2|0:0,0:0:0:0:
429,250,172072,1,0,0:0:0:0:
256,174,172222,2,0,B|306:145|351:189,1,90
172,143,172522,5,8,0:0:0:0:
349,80,172672,1,0,0:0:0:0:
132,63,172822,1,8,0:0:0:0:
429,61,172972,1,0,0:0:0:0:
40,107,173122,1,8,0:0:0:0:
512,158,173272,1,0,0:0:0:0:
327,240,173422,2,8,L|340:234,1,13.4999995880127,12|8,0:2|0:3,0:3:0:0:
172,136,173572,2,8,L|159:130,1,13.4999995880127,8|8,0:3|0:3,0:3:0:0:
247,53,173872,5,8,0:0:0:0:
251,309,174022,2,0,B|231:218|231:218|282:184|247:41,1,270.000010299683,8|0,0:0|0:0,0:0:0:0:
441,271,174472,1,0,0:0:0:0:
128,277,174622,2,0,P|85:268|67:229,1,90
206,149,174922,2,0,P|228:79|221:28,1,90
80,68,175222,6,0,P|75:77|74:85,1,18,12|0,0:2|0:0,0:0:0:0:
136,292,175672,1,0,0:0:0:0:
136,292,175747,1,0,0:0:0:0:
136,292,175822,2,0,P|161:261|180:251,1,45
489,124,176122,5,8,0:0:0:0:
31,223,176272,1,0,0:0:0:0:
427,91,176422,1,8,0:0:0:0:
69,221,176572,1,0,0:0:0:0:
390,135,176722,1,8,0:0:0:0:
113,185,176872,1,0,0:0:0:0:
254,204,177022,6,0,P|262:246|301:267,1,90,12|0,0:2|0:0,0:0:0:0:
406,180,177472,1,2,0:2:0:0:
406,180,177547,1,2,0:2:0:0:
406,180,177622,2,0,P|432:153|435:126,1,45,2|0,0:2|0:0,0:0:0:0:
278,71,177922,2,0,P|264:46|239:29,1,45
149,117,178222,1,0,0:0:0:0:
342,170,178372,6,8,P|350:161|377:169,1,22.5,8|8,0:3|0:3,0:3:0:0:
187,279,178522,2,8,P|173:288|155:285,1,22.5,8|8,0:3|0:3,0:3:0:0:
298,43,178822,2,0,B|301:96|269:112|249:151|249:151|245:201|262:221|269:229|278:247|278:247|285:302|264:321,1,288,12|0,0:2|0:0,0:0:0:0:
273,310,179272,1,0,0:0:0:0:
377,181,179422,6,0,B|333:198|346:244|373:271,1,107.999996704102
165,207,179722,2,0,B|118:171|143:89|143:89|125:40|60:25,1,215.999993408203
345,179,180172,1,0,0:0:0:0:
348,184,180247,1,0,0:0:0:0:
348,184,180322,2,0,P|350:241|309:287,1,107.999996704102
95,137,180622,5,12,0:2:0:0:
417,206,180772,1,0,0:0:0:0:
116,278,180922,1,0,0:0:0:0:
394,210,181072,1,0,0:0:0:0:
151,140,181222,2,0,B|121:88|132:25,1,107.999996704102
130,35,181447,1,8,0:3:0:0:
130,35,181522,1,8,0:3:0:0:
351,101,181672,5,0,0:0:0:0:
226,303,181822,2,0,B|251:329|251:329|295:333|336:304,1,107.999996704102
225,48,182122,1,8,0:3:0:0:
226,110,182197,1,8,0:3:0:0:
226,174,182272,1,8,0:3:0:0:
226,238,182347,1,8,0:3:0:0:
226,303,182422,1,8,0:3:0:0:
389,121,182572,2,0,P|425:80|480:82,1,107.999996704102
180,54,182872,1,0,0:0:0:0:
134,203,183022,6,0,P|90:269|58:273,1,107.999996704102
382,318,183322,1,8,0:0:0:0:
382,241,183397,1,8,0:0:0:0:
382,161,183472,1,8,0:0:0:0:
382,88,183547,2,0,P|351:50|311:42,1,53.9999983520508,8|0,0:0|0:0,0:0:0:0:
118,229,183772,1,0,0:0:0:0:
266,339,183922,6,0,B|255:342|240:313|240:313|276:308|297:346,1,107.999996704102
228,112,184222,5,2,0:2:0:0:
284,124,184297,1,2,0:2:0:0:
337,116,184372,1,2,0:2:0:0:
360,168,184447,1,2,0:2:0:0:
388,221,184522,1,2,0:2:0:0:
428,253,184597,1,2,0:2:0:0:
472,286,184672,2,0,P|464:310|441:328,1,53.9999983520508
146,151,185122,2,0,B|159:229|149:209|143:267,1,116.999994644165
81,89,185422,1,2,0:2:0:0:
81,89,185497,1,2,0:2:0:0:
81,89,185572,2,0,P|131:63|185:77,1,90,2|0,0:2|0:0,0:0:0:0:
449,326,185872,1,0,0:0:0:0:
281,149,186022,5,8,0:0:0:0:
66,262,186172,1,0,0:0:0:0:
342,45,186322,1,8,0:0:0:0:
162,300,186472,5,0,0:0:0:0:
465,220,186622,1,8,0:0:0:0:
234,66,186772,1,0,0:0:0:0:
438,286,186922,1,8,0:0:0:0:
115,87,187072,1,2,0:2:0:0:
91,101,187147,1,2,0:2:0:0:
81,125,187222,1,2,0:2:0:0:
96,283,187372,5,0,0:0:0:0:
413,178,187522,2,0,P|443:212|454:262,1,90
237,147,187822,6,0,P|232:138|232:119,1,26.9999991760254,8|0,0:0|0:0,0:0:0:0:
133,279,188272,6,0,P|93:299|49:294,1,90,8|0,0:3|0:0,0:0:0:0:
163,154,188572,1,8,0:0:0:0:
202,142,188647,1,8,0:0:0:0:
237,115,188722,1,8,0:0:0:0:
336,127,188872,6,0,B|370:82|429:70,1,90
140,73,189172,2,0,P|114:133|128:171,1,107.999996704102
211,226,189472,2,0,P|260:238|333:316,1,125.999996154785
412,265,189772,1,0,0:0:0:0:
123,72,189922,5,2,0:0:0:0:
86,126,189997,1,2,0:0:0:0:
77,191,190072,1,2,0:0:0:0:
93,254,190147,1,2,0:0:0:0:
134,305,190222,1,2,0:0:0:0:
193,335,190297,1,2,0:0:0:0:
258,342,190372,1,2,0:0:0:0:
271,220,190522,6,0,P|296:192|319:192,1,53.9999983520508,12|0,0:2|0:0,0:0:0:0:
391,317,190972,1,0,0:0:0:0:
381,80,191122,1,2,0:2:0:0:
381,80,191197,1,2,0:2:0:0:
381,80,191272,1,2,0:2:0:0:
87,128,191422,6,0,P|118:182|163:176,1,90
420,155,191722,1,8,0:3:0:0:
140,59,191872,1,0,0:0:0:0:
132,299,192022,1,8,0:3:0:0:
388,308,192172,1,0,0:0:0:0:
441,107,192322,2,0,B|421:77|421:77|386:72|369:60,1,90,8|0,0:3|0:0,0:0:0:0:
148,91,192622,5,8,0:3:0:0:
148,307,192772,1,0,0:0:0:0:
378,307,192922,1,8,0:3:0:0:
378,91,193072,1,0,0:0:0:0:
374,321,193222,5,8,0:0:0:0:
132,299,193372,1,8,0:0:0:0:
152,73,193522,1,8,0:0:0:0:
132,299,193672,1,8,0:0:0:0:
418,326,193822,5,8,0:0:0:0:
382,38,193972,1,0,0:0:0:0:
113,72,194122,1,8,0:0:0:0:
148,359,194272,1,0,0:0:0:0:
137,55,194422,1,8,0:0:0:0:
425,55,194572,1,0,0:0:0:0:
200,314,194722,5,4,0:0:0:0:
200,314,194797,1,4,0:0:0:0:
200,314,194872,1,0,0:0:0:0:
451,96,195022,5,6,0:0:0:0:
48,135,195172,1,12,0:0:0:0:
410,331,195322,1,12,0:0:0:0:
233,31,195472,5,12,0:0:0:0:
165,353,195622,1,12,0:0:0:0:
481,192,195772,1,12,0:0:0:0:
39,150,195922,1,12,0:0:0:0:
459,300,196072,1,4,0:0:0:0:
121,45,196222,1,0,0:0:0:0:
121,45,196297,1,0,0:0:0:0:
121,45,196372,1,0,0:0:0:0:
187,146,196522,6,0,P|209:132|244:135,1,45,2|0,0:0|0:0,0:0:0:0:
432,47,196822,1,0,0:0:0:0:
432,47,196897,1,0,0:0:0:0:
432,47,196972,1,0,0:0:0:0:
187,146,197122,5,2,0:0:0:0:
438,320,197272,1,0,0:0:0:0:
438,320,197347,1,0,0:0:0:0:
438,320,197422,1,0,0:0:0:0:
187,146,197572,5,2,0:0:0:0:
73,309,197722,1,0,0:0:0:0:
73,309,197797,1,0,0:0:0:0:
73,309,197872,1,0,0:0:0:0:
187,146,198022,5,2,0:0:0:0:
400,222,198172,1,0,0:0:0:0:
379,285,198247,1,0,0:0:0:0:
327,327,198322,1,0,0:0:0:0:
262,340,198397,1,0,0:0:0:0:
198,314,198472,1,0,0:0:0:0:
176,150,198622,6,0,B|131:168|79:286,1,135.000005149842,2|0,0:0|0:0,0:0:0:0:
311,95,198922,2,0,L|290:28,1,67.5000025749208
351,186,199072,2,0,L|376:263,2,67.5000025749208
408,80,199372,5,0,0:0:0:0:
187,273,199522,2,0,B|157:269|137:254,1,45
57,220,199822,1,0,0:0:0:0:
108,152,199972,2,0,B|146:116|153:132,1,45
144,340,200272,1,0,0:0:0:0:
429,142,200422,5,0,0:0:0:0:
419,118,200497,1,0,0:0:0:0:
412,105,200572,1,0,0:0:0:0:
407,93,200647,1,0,0:0:0:0:
402,89,200722,2,0,B|372:43|338:42,1,62.9999980773926
276,51,201022,6,0,B|268:82|303:115|303:115|311:158,1,116.999994644165,2|0,0:0|0:0,0:0:0:0:
412,105,201322,2,0,B|392:112|392:112|348:138|348:138|279:156|279:156|265:168|265:168|219:182,1,180,4|0,0:2|0:0,0:0:0:0:
97,135,201622,2,0,B|124:146|124:146|185:148|185:148|235:189|235:189|330:208,1,225,4|0,0:2|0:0,0:0:0:0:
355,321,201922,2,0,B|260:229|260:229|248:141|248:141|210:74,1,270.000010299683,4|0,0:2|0:0,0:0:0:0:
79,70,202222,5,0,0:0:0:0:
75,64,202297,1,0,0:0:0:0:
79,70,202372,2,0,B|102:99|156:121|156:121|157:148|212:176|212:176,1,157.500001502037
399,225,202672,1,0,0:0:0:0:
355,334,202822,2,0,B|370:294|352:256|352:256|382:250|397:226,1,135.000005149842
253,107,203122,5,0,0:0:0:0:
85,311,203272,1,0,0:0:0:0:
76,158,203422,2,0,B|124:132|159:172,1,90
457,208,203722,2,0,B|469:253|469:253|451:307|451:307|458:343,1,135.000005149842
139,113,204022,5,0,0:0:0:0:
129,149,204097,1,0,0:0:0:0:
131,176,204172,1,0,0:0:0:0:
137,192,204247,1,0,0:0:0:0:
155,203,204322,1,0,0:0:0:0:
169,204,204397,1,0,0:0:0:0:
198,206,204472,2,0,B|276:198|433:238|425:99,1,270.000010299683
255,96,204922,2,0,B|238:100|238:100|225:113|225:113|155:130|155:130|112:157|112:157|92:164,1,180,4|0,0:2|0:0,0:0:0:0:
222,238,205222,2,0,B|292:231|292:231|352:253|352:253|410:237|410:237|445:243,1,225,4|0,0:2|0:0,0:0:0:0:
113,53,205522,2,0,B|155:97|155:97|183:180|183:180|293:252,1,279.000002128601,4|0,0:2|0:0,0:0:0:0:
399,294,205822,6,0,L|357:329,1,53.9999983520508
135,143,206272,2,0,B|178:126|178:126|245:150|246:143,1,116.999994644165
383,89,206572,1,0,0:0:0:0:
291,344,206722,2,0,P|356:328|409:287,1,135.000005149842
109,283,207022,5,0,0:0:0:0:
382,188,207172,1,0,0:0:0:0:
231,106,207322,2,0,B|161:71|161:71|155:42|78:35,1,135.000005149842
391,293,207622,6,0,B|415:293|415:293|438:277|459:271,1,66.6000016259766
397,169,208072,1,0,0:0:0:0:
275,274,208222,1,0,0:0:0:0:
244,104,208372,1,0,0:0:0:0:
412,261,208522,2,0,B|407:274|385:282|385:282|380:300,1,53.9999983520508
371,336,208972,1,0,0:0:0:0:
100,123,209122,2,0,B|118:132|156:93|156:93|181:97,1,90
476,221,209422,5,8,0:3:0:0:
81,37,209572,1,0,0:0:0:0:
476,325,209722,1,8,0:3:0:0:
185,34,209872,1,0,0:0:0:0:
326,281,210022,2,0,B|313:290,2,11.25,8|0|0,0:3|0:0|0:0,0:0:0:0:
38,201,210322,5,8,0:3:0:0:
458,83,210471,1,0,0:0:0:0:
143,330,210622,1,8,0:3:0:0:
490,69,210772,1,0,0:0:0:0:
139,127,210922,2,0,L|156:133,1,18,8|0,0:3|0:0,0:0:0:0:
423,306,211222,1,8,0:3:0:0:
95,34,211372,1,0,0:0:0:0:
120,275,211522,2,0,B|103:302|103:302|58:316|40:359|40:359|28:368,1,135.000005149842,8|0,0:0|0:0,0:0:0:0:
460,132,211822,5,8,0:0:0:0:
286,340,211972,1,0,0:0:0:0:
134,65,212122,1,8,0:0:0:0:
381,84,212272,5,8,0:0:0:0:
346,287,212422,1,8,0:0:0:0:
213,156,212572,1,8,0:0:0:0:
353,224,212722,5,12,0:0:0:0:
348,238,212797,1,4,0:0:0:0:
337,245,212872,1,4,0:0:0:0:
138,190,213022,2,0,B|89:156|89:99|89:99|46:41|-12:20,1,225
197,50,213322,1,0,0:0:0:0:
401,233,213472,2,0,B|430:263|430:263|440:333|504:365,1,157.500001502037
492,244,213772,1,0,0:0:0:0:
67,193,213922,5,8,0:0:0:0:
405,94,214072,1,0,0:0:0:0:
142,309,214222,1,8,0:0:0:0:
229,31,214372,1,0,0:0:0:0:
405,270,214522,1,8,0:0:0:0:
122,226,214672,1,4,0:0:0:0:
173,190,214747,1,4,0:0:0:0:
232,185,214822,1,4,0:0:0:0:
418,194,214972,6,0,P|398:114|327:59,1,157.500001502037
343,65,215272,1,0,0:0:0:0:
388,292,215422,1,0,0:0:0:0:
388,292,215497,2,0,P|436:289|494:263,1,78.7500007510185
180,242,215722,2,0,B|206:207|185:144|185:144|217:79,1,157.500001502037
91,43,216022,6,0,B|71:56|71:56|63:85,1,53.9999983520508
96,206,216472,1,0,0:0:0:0:
104,317,216622,5,4,0:0:0:0:
184,314,216697,1,4,0:0:0:0:
258,297,216772,1,4,0:0:0:0:
329,269,216847,1,4,0:0:0:0:
382,215,216922,1,4,0:0:0:0:
423,152,216997,1,0,0:0:0:0:
444,83,217072,2,0,L|462:25,1,53.9999983520508
101,69,217522,1,0,0:0:0:0:
108,224,217672,6,0,B|76:256|84:290|84:290|115:274|130:239,1,135.000005149842
309,120,217972,1,0,0:0:0:0:
461,212,218122,2,0,B|447:291|376:330,1,135.000005149842
187,277,218422,5,2,0:0:0:0:
268,304,218497,1,2,0:0:0:0:
364,269,218572,1,2,0:0:0:0:
394,167,218647,1,2,0:0:0:0:
316,82,218722,1,2,0:0:0:0:
229,94,218797,1,2,0:0:0:0:
223,169,218872,1,2,0:0:0:0:
264,203,218947,1,2,0:0:0:0:
291,190,219022,1,2,0:0:0:0:
291,172,219097,1,2,0:0:0:0:
271,164,219172,1,2,0:0:0:0:
263,173,219247,1,2,0:0:0:0:
263,174,219322,2,0,P|282:160|281:131,1,53.9999983520508
395,167,219772,5,0,0:0:0:0:
126,328,219922,1,0,0:0:0:0:
126,328,219997,2,0,B|99:297|99:297|109:282|96:262,1,45
289,49,220222,6,0,B|264:77|264:77|259:141|259:141|215:173|215:173|199:260,1,225,8|0,0:0|0:0,0:0:0:0:
202,240,220522,1,0,0:0:0:0:
150,87,220672,1,0,0:0:0:0:
242,318,220822,2,0,B|272:325|317:292|317:292|377:302|377:302|471:279,1,225
408,56,221122,6,0,B|390:63|390:63|376:95|337:105|337:105|331:128|289:154|289:154|273:200|173:272,1,288,2|0,0:0|0:0,0:0:0:0:
55,193,221422,2,0,B|94:212|129:187|129:187|154:202|154:202|181:193|181:193|194:198|381:193,1,288,2|0,0:0|0:0,0:0:0:0:
463,31,221722,5,2,0:0:0:0:
103,289,221872,1,0,0:0:0:0:
102,65,222022,2,0,B|172:92|172:92|221:162|221:162|248:161|364:214,1,297.000002832413,2|0,0:0|0:0,0:0:0:0:
369,108,222322,2,0,B|337:156|335:171|335:171|302:175|302:175|239:247|239:247|238:268|238:268|195:329,1,297.000002832413
223,17,222622,5,4,0:3:0:0:
223,17,222697,1,0,0:0:0:0:
223,17,222772,1,4,0:3:0:0:
465,332,222922,5,4,0:3:0:0:
37,177,223072,1,4,0:3:0:0:
471,85,223222,5,4,0:3:0:0:
80,317,223372,1,4,0:3:0:0:
162,275,223522,2,0,P|173:327|150:349,1,62.9999980773926,8|0,0:3|0:0,0:0:0:0:
198,67,223822,2,8,B|339:120|339:120|484:60|484:60|448:308|289:255|289:255|91:109|91:109|37:256|95:300,1,1080,8|0,0:3|0:3,0:3:0:0:
