osu file format v14

[General]
AudioFilename: audio.mp3
AudioLeadIn: 0
PreviewTime: 25821
Countdown: 0
SampleSet: Normal
StackLeniency: 0.7
Mode: 1
LetterboxInBreaks: 0
WidescreenStoryboard: 0

[Editor]
Bookmarks: 21992
DistanceSpacing: 1
BeatDivisor: 4
GridSize: 8
TimelineZoom: 1.6

[Metadata]
Title:Mint Tears
TitleUnicode:Mint Tears
Artist:Ribbon Room
ArtistUnicode:Ribbon Room
Creator:Ahmad Haris
Version:Muzukashii
Source:Taiko no Tatsujin
Tags:Taiko Tatsujin Namco
BeatmapID:969581
BeatmapSetID:451996

[Difficulty]
HPDrainRate:5
CircleSize:5
OverallDifficulty:5
ApproachRate:5
SliderMultiplier:1.4
SliderTickRate:1

[Events]
//Background and Video events
0,0,"sadasad.jpg",0,0
//Break Periods
//Storyboard Layer 0 (Background)
//Storyboard Layer 1 (Fail)
//Storyboard Layer 2 (Pass)
//Storyboard Layer 3 (Foreground)
//Storyboard Sound Samples

[TimingPoints]
290,319.148936170213,4,1,0,69,1,8
25821,-100,4,1,0,69,0,1
46247,-100,4,1,0,69,0,0
97311,-100,4,1,0,69,0,1
107524,-100,4,1,0,69,0,0

[HitObjects]
256,192,4119,5,4,0:0:0:0:
256,192,4438,1,4,0:0:0:0:
256,192,4758,1,0,0:0:0:0:
256,192,4917,1,0,0:0:0:0:
256,192,4997,1,0,0:0:0:0:
256,192,5076,1,0,0:0:0:0:
256,192,5396,1,0,0:0:0:0:
256,192,5715,1,2,0:0:0:0:
256,192,5875,1,0,0:0:0:0:
256,192,6034,1,0,0:0:0:0:
256,192,6353,1,2,0:0:0:0:
256,192,6672,1,0,0:0:0:0:
256,192,6832,1,2,0:0:0:0:
256,192,6912,1,2,0:0:0:0:
256,192,6992,1,2,0:0:0:0:
256,192,7151,1,0,0:0:0:0:
256,192,7311,1,0,0:0:0:0:
256,192,7630,1,2,0:0:0:0:
256,192,7949,1,0,0:0:0:0:
256,192,8268,1,2,0:0:0:0:
256,192,8428,1,0,0:0:0:0:
256,192,8587,1,0,0:0:0:0:
256,192,8907,1,2,0:0:0:0:
256,192,9226,1,0,0:0:0:0:
256,192,9385,1,2,0:0:0:0:
256,192,9465,1,2,0:0:0:0:
256,192,9545,1,2,0:0:0:0:
256,192,9704,1,0,0:0:0:0:
256,192,9864,1,0,0:0:0:0:
256,192,10183,1,2,0:0:0:0:
256,192,10502,1,0,0:0:0:0:
256,192,10821,1,2,0:0:0:0:
256,192,10981,1,0,0:0:0:0:
256,192,11141,1,0,0:0:0:0:
256,192,11460,1,2,0:0:0:0:
256,192,11779,1,0,0:0:0:0:
256,192,11938,1,2,0:0:0:0:
256,192,12018,1,2,0:0:0:0:
256,192,12098,1,2,0:0:0:0:
256,192,12258,1,0,0:0:0:0:
256,192,12417,1,0,0:0:0:0:
256,192,12736,1,2,0:0:0:0:
256,192,13055,1,0,0:0:0:0:
256,192,13375,1,2,0:0:0:0:
256,192,13534,1,0,0:0:0:0:
256,192,13694,1,0,0:0:0:0:
256,192,14013,1,2,0:0:0:0:
256,192,14172,1,0,0:0:0:0:
256,192,14332,1,0,0:0:0:0:
256,192,14492,1,2,0:0:0:0:
256,192,14571,1,2,0:0:0:0:
256,192,14651,1,2,0:0:0:0:
256,192,14811,1,2,0:0:0:0:
256,192,14970,1,0,0:0:0:0:
256,192,15290,1,0,0:0:0:0:
256,192,15609,1,4,0:0:0:0:
256,192,15928,1,2,0:0:0:0:
256,192,16087,1,0,0:0:0:0:
256,192,16247,1,0,0:0:0:0:
256,192,16407,1,2,0:0:0:0:
256,192,16566,1,2,0:0:0:0:
256,192,16885,1,0,0:0:0:0:
256,192,17045,1,2,0:0:0:0:
256,192,17125,1,2,0:0:0:0:
256,192,17204,1,2,0:0:0:0:
256,192,17364,1,0,0:0:0:0:
256,192,17524,1,0,0:0:0:0:
256,192,17843,1,2,0:0:0:0:
256,192,18162,1,0,0:0:0:0:
256,192,18481,1,2,0:0:0:0:
256,192,18641,1,0,0:0:0:0:
256,192,18800,1,0,0:0:0:0:
256,192,18960,1,0,0:0:0:0:
256,192,19119,1,2,0:0:0:0:
256,192,19438,1,0,0:0:0:0:
256,192,19598,1,2,0:0:0:0:
256,192,19678,1,2,0:0:0:0:
256,192,19758,1,2,0:0:0:0:
256,192,19917,1,0,0:0:0:0:
256,192,20077,1,0,0:0:0:0:
256,192,20396,1,2,0:0:0:0:
256,192,20715,1,0,0:0:0:0:
256,192,21034,1,2,0:0:0:0:
256,192,21194,1,0,0:0:0:0:
256,192,21353,1,0,0:0:0:0:
256,192,21513,1,2,0:0:0:0:
256,192,21672,1,2,0:0:0:0:
256,192,21992,1,0,0:0:0:0:
256,192,22151,1,2,0:0:0:0:
256,192,22231,1,2,0:0:0:0:
256,192,22311,1,0,0:0:0:0:
256,192,22470,1,0,0:0:0:0:
256,192,22630,1,0,0:0:0:0:
256,192,22949,1,2,0:0:0:0:
256,192,23268,12,2,24226,0:0:0:0:
256,192,24385,5,0,0:0:0:0:
256,192,24465,1,0,0:0:0:0:
256,192,24545,1,0,0:0:0:0:
256,192,24704,1,2,0:0:0:0:
256,192,24864,1,2,0:0:0:0:
256,192,25024,1,2,0:0:0:0:
256,192,25343,1,0,0:0:0:0:
256,192,25502,1,2,0:0:0:0:
256,192,25821,1,0,0:0:0:0:
248,192,25901,1,0,0:0:0:0:
256,192,25981,1,0,0:0:0:0:
256,192,26141,1,2,0:0:0:0:
256,192,26300,1,0,0:0:0:0:
256,192,26380,1,0,0:0:0:0:
256,192,26460,1,0,0:0:0:0:
256,192,26619,1,2,0:0:0:0:
256,192,26779,1,0,0:0:0:0:
256,192,26859,1,0,0:0:0:0:
256,192,26938,1,0,0:0:0:0:
256,192,27258,1,2,0:0:0:0:
256,192,27736,1,2,0:0:0:0:
256,192,27815,1,2,0:0:0:0:
256,192,27895,1,2,0:0:0:0:
256,192,28055,1,2,0:0:0:0:
256,192,28135,1,2,0:0:0:0:
256,192,28214,1,2,0:0:0:0:
256,192,28375,1,0,0:0:0:0:
256,192,28454,1,0,0:0:0:0:
256,192,28534,1,0,0:0:0:0:
256,192,28694,1,2,0:0:0:0:
256,192,28853,1,0,0:0:0:0:
256,192,28933,1,0,0:0:0:0:
256,192,29013,1,0,0:0:0:0:
256,192,29172,1,2,0:0:0:0:
248,200,29332,1,0,0:0:0:0:
256,192,29492,1,2,0:0:0:0:
256,192,29970,1,2,0:0:0:0:
256,192,30290,1,2,0:0:0:0:
256,192,30370,1,2,0:0:0:0:
256,192,30450,1,2,0:0:0:0:
256,192,30609,1,2,0:0:0:0:
256,192,30928,1,0,0:0:0:0:
256,192,31008,1,0,0:0:0:0:
256,192,31087,1,0,0:0:0:0:
256,192,31247,1,2,0:0:0:0:
256,192,31407,1,0,0:0:0:0:
256,192,31486,1,0,0:0:0:0:
256,192,31566,1,0,0:0:0:0:
256,192,31726,1,2,0:0:0:0:
256,192,31885,1,0,0:0:0:0:
256,192,32045,1,2,0:0:0:0:
256,192,32204,1,0,0:0:0:0:
256,192,32284,1,0,0:0:0:0:
256,192,32364,1,0,0:0:0:0:
256,192,32524,1,2,0:0:0:0:
256,192,32683,1,0,0:0:0:0:
256,192,33002,1,0,0:0:0:0:
256,192,33162,1,2,0:0:0:0:
256,192,33481,1,0,0:0:0:0:
256,192,33561,1,0,0:0:0:0:
256,192,33641,1,0,0:0:0:0:
256,192,33800,1,2,0:0:0:0:
256,192,33960,1,0,0:0:0:0:
256,192,34040,1,0,0:0:0:0:
256,192,34119,1,0,0:0:0:0:
256,192,34279,1,2,0:0:0:0:
256,192,34438,1,0,0:0:0:0:
256,192,34598,1,0,0:0:0:0:
256,200,34917,1,0,0:0:0:0:
256,192,35077,1,2,0:0:0:0:
256,192,35236,1,0,0:0:0:0:
256,192,35396,1,0,0:0:0:0:
256,192,35555,1,2,0:0:0:0:
264,192,35635,1,2,0:0:0:0:
256,192,35715,1,2,0:0:0:0:
256,192,36034,1,4,0:0:0:0:
256,192,36194,1,2,0:0:0:0:
256,192,36274,1,2,0:0:0:0:
256,192,36353,1,2,0:0:0:0:
256,192,36513,1,0,0:0:0:0:
256,192,36672,1,2,0:0:0:0:
256,192,36752,1,2,0:0:0:0:
256,192,36832,1,2,0:0:0:0:
256,192,36992,1,0,0:0:0:0:
256,192,37151,1,2,0:0:0:0:
256,192,37470,1,2,0:0:0:0:
256,192,37790,1,2,0:0:0:0:
256,192,37869,1,2,0:0:0:0:
256,184,37949,1,2,0:0:0:0:
256,192,38109,1,0,0:0:0:0:
256,192,38268,1,2,0:0:0:0:
256,192,38587,1,0,0:0:0:0:
256,192,38747,1,2,0:0:0:0:
256,192,38827,1,2,0:0:0:0:
256,192,38907,1,2,0:0:0:0:
256,192,39066,1,0,0:0:0:0:
256,192,39226,1,2,0:0:0:0:
256,192,39305,1,2,0:0:0:0:
256,192,39385,1,2,0:0:0:0:
256,192,39545,1,2,0:0:0:0:
256,192,39704,1,2,0:0:0:0:
256,192,40024,1,0,0:0:0:0:
256,192,40183,1,2,0:0:0:0:
256,192,40502,1,2,0:0:0:0:
256,192,40662,1,2,0:0:0:0:
256,192,40742,1,2,0:0:0:0:
256,192,40821,1,2,0:0:0:0:
256,192,41141,1,0,0:0:0:0:
256,192,41300,1,0,0:0:0:0:
256,192,41460,1,2,0:0:0:0:
256,192,41619,1,0,0:0:0:0:
256,192,41699,1,0,0:0:0:0:
256,192,41779,1,0,0:0:0:0:
256,192,41938,1,2,0:0:0:0:
256,192,42098,1,0,0:0:0:0:
256,192,42258,1,2,0:0:0:0:
256,192,42417,1,0,0:0:0:0:
256,192,42577,1,0,0:0:0:0:
256,192,42736,1,2,0:0:0:0:
256,192,42896,1,0,0:0:0:0:
256,192,42976,1,0,0:0:0:0:
256,192,43055,1,0,0:0:0:0:
256,192,43215,1,0,0:0:0:0:
256,192,43375,1,2,0:0:0:0:
256,192,43694,1,0,0:0:0:0:
256,192,43853,1,2,0:0:0:0:
256,192,44013,1,0,0:0:0:0:
256,192,44172,1,2,0:0:0:0:
256,192,44332,1,0,0:0:0:0:
256,192,44492,1,2,0:0:0:0:
256,192,44651,1,2,0:0:0:0:
256,192,44811,1,0,0:0:0:0:
256,192,45130,1,0,0:0:0:0:
256,192,45290,1,2,0:0:0:0:
256,192,45449,1,0,0:0:0:0:
256,192,45609,1,0,0:0:0:0:
256,192,45768,1,2,0:0:0:0:
264,208,45848,1,2,0:0:0:0:
264,208,45928,1,2,0:0:0:0:
256,192,46247,1,4,0:0:0:0:
256,192,46566,1,0,0:0:0:0:
256,192,46885,1,0,0:0:0:0:
256,192,47045,1,0,0:0:0:0:
256,192,47204,1,2,0:0:0:0:
256,192,47364,1,0,0:0:0:0:
256,192,47683,1,0,0:0:0:0:
256,192,47843,1,2,0:0:0:0:
256,192,48002,1,0,0:0:0:0:
256,192,48162,1,0,0:0:0:0:
256,192,48481,1,2,0:0:0:0:
256,192,48800,1,0,0:0:0:0:
256,192,49119,1,0,0:0:0:0:
256,192,49279,1,2,0:0:0:0:
256,192,49438,1,0,0:0:0:0:
256,192,49598,1,0,0:0:0:0:
256,192,49758,1,2,0:0:0:0:
256,192,49917,1,0,0:0:0:0:
256,192,50236,1,0,0:0:0:0:
256,192,50396,1,2,0:0:0:0:
256,192,50555,1,0,0:0:0:0:
256,192,50715,1,2,0:0:0:0:
256,184,51034,1,2,0:0:0:0:
256,192,51353,1,0,0:0:0:0:
256,192,51672,1,0,0:0:0:0:
256,192,51992,1,2,0:0:0:0:
256,192,52151,1,0,0:0:0:0:
256,192,52311,1,2,0:0:0:0:
256,192,52470,1,0,0:0:0:0:
256,192,52790,1,2,0:0:0:0:
256,192,52949,1,2,0:0:0:0:
256,192,53109,1,0,0:0:0:0:
256,192,53268,1,2,0:0:0:0:
256,192,53587,1,0,0:0:0:0:
256,192,53907,1,0,0:0:0:0:
256,192,54066,1,2,0:0:0:0:
256,192,54226,1,2,0:0:0:0:
256,192,54385,1,0,0:0:0:0:
256,192,54545,1,0,0:0:0:0:
256,192,54704,1,2,0:0:0:0:
256,192,54864,1,2,0:0:0:0:
256,192,55024,1,0,0:0:0:0:
256,192,55183,1,0,0:0:0:0:
256,192,55502,1,4,0:0:0:0:
256,192,55821,1,6,0:0:0:0:
256,192,55981,1,6,0:0:0:0:
256,192,56300,1,2,0:0:0:0:
256,192,56460,1,0,0:0:0:0:
256,192,56779,1,2,0:0:0:0:
256,192,56938,1,0,0:0:0:0:
256,192,57098,1,0,0:0:0:0:
256,192,57258,1,2,0:0:0:0:
256,192,57337,1,2,0:0:0:0:
256,192,57417,1,2,0:0:0:0:
256,192,57577,1,2,0:0:0:0:
256,192,57736,1,0,0:0:0:0:
256,192,57896,1,2,0:0:0:0:
256,192,57976,1,2,0:0:0:0:
256,192,58055,1,2,0:0:0:0:
264,184,58215,1,0,0:0:0:0:
264,184,58375,1,0,0:0:0:0:
264,184,58534,1,2,0:0:0:0:
264,184,58614,1,2,0:0:0:0:
264,184,58694,1,2,0:0:0:0:
256,200,59013,1,0,0:0:0:0:
256,184,59332,1,2,0:0:0:0:
256,184,59492,1,0,0:0:0:0:
256,184,59651,1,0,0:0:0:0:
256,184,59811,1,2,0:0:0:0:
256,184,59891,1,2,0:0:0:0:
256,184,59970,1,2,0:0:0:0:
256,184,60130,1,2,0:0:0:0:
256,184,60290,1,0,0:0:0:0:
256,184,60449,1,2,0:0:0:0:
256,184,60529,1,2,0:0:0:0:
256,184,60609,1,2,0:0:0:0:
256,184,60768,1,0,0:0:0:0:
256,184,60928,1,0,0:0:0:0:
256,184,61087,1,2,0:0:0:0:
256,184,61167,1,2,0:0:0:0:
256,184,61247,1,2,0:0:0:0:
256,184,61407,1,2,0:0:0:0:
256,184,61566,1,0,0:0:0:0:
256,192,61885,1,2,0:0:0:0:
256,192,62045,1,0,0:0:0:0:
256,192,62204,1,0,0:0:0:0:
256,192,62364,1,2,0:0:0:0:
256,192,62444,1,2,0:0:0:0:
256,192,62524,1,2,0:0:0:0:
256,192,62683,1,2,0:0:0:0:
256,192,62843,1,0,0:0:0:0:
256,192,63002,1,2,0:0:0:0:
256,192,63082,1,2,0:0:0:0:
256,192,63162,1,2,0:0:0:0:
256,192,63321,1,0,0:0:0:0:
256,192,63481,1,0,0:0:0:0:
256,192,63561,1,0,0:0:0:0:
256,192,63641,1,0,0:0:0:0:
256,192,63800,1,0,0:0:0:0:
256,192,64119,12,2,64758,0:0:0:0:
256,192,65236,5,0,0:0:0:0:
256,192,65316,1,0,0:0:0:0:
256,192,65396,1,0,0:0:0:0:
256,192,65715,1,2,0:0:0:0:
256,192,66194,1,2,0:0:0:0:
256,192,66353,1,2,0:0:0:0:
256,192,66672,1,4,0:0:0:0:
256,192,66992,1,2,0:0:0:0:
256,192,67151,1,0,0:0:0:0:
256,192,67231,1,0,0:0:0:0:
256,192,67311,1,0,0:0:0:0:
256,192,67470,1,2,0:0:0:0:
256,192,67630,1,2,0:0:0:0:
256,192,67790,1,0,0:0:0:0:
256,192,67869,1,0,0:0:0:0:
256,192,67949,1,0,0:0:0:0:
256,192,68109,1,0,0:0:0:0:
256,192,68268,1,0,0:0:0:0:
256,192,68428,1,0,0:0:0:0:
256,192,68508,1,0,0:0:0:0:
256,192,68587,1,0,0:0:0:0:
256,192,68747,1,2,0:0:0:0:
256,192,68907,1,2,0:0:0:0:
256,192,69226,1,0,0:0:0:0:
256,192,69545,1,2,0:0:0:0:
256,192,69864,1,0,0:0:0:0:
256,192,69944,1,0,0:0:0:0:
256,192,70024,1,0,0:0:0:0:
256,192,70183,1,0,0:0:0:0:
256,192,70343,1,0,0:0:0:0:
256,192,70422,1,0,0:0:0:0:
256,192,70502,1,0,0:0:0:0:
256,192,70662,1,2,0:0:0:0:
256,192,70742,1,2,0:0:0:0:
256,192,70821,1,2,0:0:0:0:
256,192,70981,1,0,0:0:0:0:
256,192,71141,1,0,0:0:0:0:
256,192,71300,1,2,0:0:0:0:
256,192,71460,1,2,0:0:0:0:
256,192,71779,1,0,0:0:0:0:
256,192,72098,1,2,0:0:0:0:
256,192,72258,1,0,0:0:0:0:
256,192,72337,1,0,0:0:0:0:
256,192,72417,1,0,0:0:0:0:
256,192,72577,1,2,0:0:0:0:
256,192,72736,1,2,0:0:0:0:
256,192,72896,1,0,0:0:0:0:
256,192,72976,1,0,0:0:0:0:
256,192,73055,1,0,0:0:0:0:
256,192,73215,1,8,0:0:0:0:
256,192,73375,1,2,0:0:0:0:
256,192,73534,1,0,0:0:0:0:
256,192,73614,1,0,0:0:0:0:
248,192,73694,1,0,0:0:0:0:
256,192,73853,1,2,0:0:0:0:
256,192,74013,1,2,0:0:0:0:
256,192,74332,1,0,0:0:0:0:
256,192,74651,1,2,0:0:0:0:
256,192,74811,1,0,0:0:0:0:
256,192,74891,1,0,0:0:0:0:
256,192,74970,1,0,0:0:0:0:
256,192,75130,1,0,0:0:0:0:
256,192,75449,1,0,0:0:0:0:
256,192,75529,1,0,0:0:0:0:
256,192,75609,1,0,0:0:0:0:
256,192,75768,1,0,0:0:0:0:
256,192,75928,1,0,0:0:0:0:
256,192,76087,1,0,0:0:0:0:
256,192,76167,1,0,0:0:0:0:
256,192,76247,1,0,0:0:0:0:
256,192,76407,1,2,0:0:0:0:
256,192,76566,1,2,0:0:0:0:
256,192,76885,1,0,0:0:0:0:
256,192,77204,1,2,0:0:0:0:
256,192,77364,1,0,0:0:0:0:
256,192,77444,1,0,0:0:0:0:
256,192,77524,1,0,0:0:0:0:
256,192,77683,1,2,0:0:0:0:
256,192,78002,1,0,0:0:0:0:
256,192,78082,1,0,0:0:0:0:
256,192,78162,1,0,0:0:0:0:
256,192,78321,1,2,0:0:0:0:
256,192,78481,1,2,0:0:0:0:
256,192,78641,1,0,0:0:0:0:
256,192,78800,1,0,0:0:0:0:
256,192,78960,1,2,0:0:0:0:
256,192,79040,1,2,0:0:0:0:
256,192,79119,1,2,0:0:0:0:
256,192,79438,1,0,0:0:0:0:
256,192,79758,1,2,0:0:0:0:
256,192,79917,1,0,0:0:0:0:
256,192,79997,1,0,0:0:0:0:
256,192,80077,1,0,0:0:0:0:
256,192,80236,1,0,0:0:0:0:
256,192,80396,1,2,0:0:0:0:
256,192,80555,1,0,0:0:0:0:
256,192,80715,1,0,0:0:0:0:
256,192,80875,1,0,0:0:0:0:
256,192,81034,1,0,0:0:0:0:
256,192,81194,1,2,0:0:0:0:
256,192,81274,1,2,0:0:0:0:
256,192,81353,1,2,0:0:0:0:
256,192,81513,1,2,0:0:0:0:
256,192,81832,1,2,0:0:0:0:
256,192,81992,1,0,0:0:0:0:
256,192,82311,1,2,0:0:0:0:
248,192,82470,1,0,0:0:0:0:
248,192,82550,1,0,0:0:0:0:
248,192,82630,1,0,0:0:0:0:
248,192,82790,1,2,0:0:0:0:
248,192,83109,1,2,0:0:0:0:
248,192,83268,1,2,0:0:0:0:
248,192,83428,1,0,0:0:0:0:
248,192,83508,1,0,0:0:0:0:
248,192,83587,1,0,0:0:0:0:
256,192,83747,1,2,0:0:0:0:
256,192,83907,1,2,0:0:0:0:
256,192,84066,1,0,0:0:0:0:
256,192,84146,1,0,0:0:0:0:
256,192,84226,1,0,0:0:0:0:
256,192,84545,1,0,0:0:0:0:
256,192,84864,1,2,0:0:0:0:
256,192,85024,1,0,0:0:0:0:
256,192,85103,1,0,0:0:0:0:
256,192,85183,1,0,0:0:0:0:
256,192,85343,1,2,0:0:0:0:
256,192,85502,1,2,0:0:0:0:
256,192,85662,1,0,0:0:0:0:
256,192,85742,1,0,0:0:0:0:
256,192,85821,1,0,0:0:0:0:
256,192,85981,1,0,0:0:0:0:
256,192,86061,1,0,0:0:0:0:
256,192,86141,1,0,0:0:0:0:
256,192,86300,1,2,0:0:0:0:
256,192,86380,1,2,0:0:0:0:
256,192,86460,1,2,0:0:0:0:
256,192,86619,1,2,0:0:0:0:
256,192,86938,1,2,0:0:0:0:
256,192,87098,1,0,0:0:0:0:
256,192,87417,1,0,0:0:0:0:
256,192,87736,1,2,0:0:0:0:
256,192,88375,1,0,0:0:0:0:
256,192,88694,1,0,0:0:0:0:
256,192,89013,1,2,0:0:0:0:
256,192,89651,1,0,0:0:0:0:
256,192,89970,1,0,0:0:0:0:
256,192,90290,1,2,0:0:0:0:
256,192,90609,1,0,0:0:0:0:
256,192,90928,1,0,0:0:0:0:
256,192,92204,1,0,0:0:0:0:
256,192,92524,1,2,0:0:0:0:
256,192,92843,1,2,0:0:0:0:
256,192,93481,1,2,0:0:0:0:
256,192,93800,1,2,0:0:0:0:
256,192,94119,1,0,0:0:0:0:
256,192,94758,1,2,0:0:0:0:
256,192,95077,1,2,0:0:0:0:
256,192,95396,1,0,0:0:0:0:
256,192,95715,1,0,0:0:0:0:
256,192,96034,1,0,0:0:0:0:
256,192,97311,1,0,0:0:0:0:
256,192,97470,1,0,0:0:0:0:
256,192,97630,1,2,0:0:0:0:
256,192,97790,1,0,0:0:0:0:
256,192,97869,1,0,0:0:0:0:
256,192,97949,1,0,0:0:0:0:
256,192,98109,1,0,0:0:0:0:
256,192,98268,1,2,0:0:0:0:
256,192,98428,1,2,0:0:0:0:
256,192,98587,1,0,0:0:0:0:
256,192,98667,1,0,0:0:0:0:
256,192,98747,1,0,0:0:0:0:
256,192,98907,1,2,0:0:0:0:
256,192,99066,1,0,0:0:0:0:
256,192,99146,1,0,0:0:0:0:
256,192,99226,1,0,0:0:0:0:
256,192,99385,1,0,0:0:0:0:
256,192,99545,1,2,0:0:0:0:
256,192,99864,1,0,0:0:0:0:
256,192,100024,1,0,0:0:0:0:
256,192,100183,1,2,0:0:0:0:
256,192,100343,1,0,0:0:0:0:
256,192,100422,1,0,0:0:0:0:
256,192,100502,1,0,0:0:0:0:
256,192,100662,1,0,0:0:0:0:
256,192,100821,1,2,0:0:0:0:
256,192,100901,1,2,0:0:0:0:
256,192,100981,1,2,0:0:0:0:
256,192,101141,1,0,0:0:0:0:
256,192,101300,1,0,0:0:0:0:
256,192,101460,1,0,0:0:0:0:
256,192,101619,1,0,0:0:0:0:
256,192,101779,1,0,0:0:0:0:
256,192,101859,1,0,0:0:0:0:
256,192,101938,1,0,0:0:0:0:
256,192,102098,1,2,0:0:0:0:
256,192,102258,1,0,0:0:0:0:
256,192,102417,1,2,0:0:0:0:
256,192,102577,1,0,0:0:0:0:
256,192,102657,1,0,0:0:0:0:
256,192,102736,1,0,0:0:0:0:
256,192,102896,1,2,0:0:0:0:
256,192,103055,1,0,0:0:0:0:
256,192,103135,1,0,0:0:0:0:
256,192,103215,1,0,0:0:0:0:
256,192,103375,1,0,0:0:0:0:
256,192,103534,1,2,0:0:0:0:
256,192,103694,1,2,0:0:0:0:
256,192,103853,1,0,0:0:0:0:
256,192,103933,1,0,0:0:0:0:
256,192,104013,1,0,0:0:0:0:
256,192,104172,1,2,0:0:0:0:
256,192,104332,1,0,0:0:0:0:
256,192,104412,1,0,0:0:0:0:
256,192,104492,1,0,0:0:0:0:
256,192,104651,1,0,0:0:0:0:
256,192,104811,1,2,0:0:0:0:
256,192,104970,1,2,0:0:0:0:
256,192,105130,1,0,0:0:0:0:
256,192,105210,1,0,0:0:0:0:
256,192,105290,1,0,0:0:0:0:
256,192,105449,1,2,0:0:0:0:
256,192,105609,1,2,0:0:0:0:
256,192,105768,1,0,0:0:0:0:
256,192,105928,1,0,0:0:0:0:
256,192,106087,1,0,0:0:0:0:
256,192,106167,1,0,0:0:0:0:
256,192,106247,1,0,0:0:0:0:
256,192,106566,1,4,0:0:0:0:
256,192,106726,1,4,0:0:0:0:
256,192,106885,1,4,0:0:0:0:
256,192,107045,1,4,0:0:0:0:
