osu file format v14

[General]
AudioFilename: audio.mp3
AudioLeadIn: 0
PreviewTime: 25821
Countdown: 0
SampleSet: Normal
StackLeniency: 0.7
Mode: 1
LetterboxInBreaks: 0
WidescreenStoryboard: 0

[Editor]
DistanceSpacing: 1
BeatDivisor: 1
GridSize: 8
TimelineZoom: 1

[Metadata]
Title:Mint Tears
TitleUnicode:Mint Tears
Artist:Ribbon Room
ArtistUnicode:Ribbon Room
Creator:Ahmad Haris
Version:Kantan
Source:Taiko no Tatsujin
Tags:Taiko Tatsujin Namco
BeatmapID:969580
BeatmapSetID:451996

[Difficulty]
HPDrainRate:7
CircleSize:5
OverallDifficulty:3
ApproachRate:5
SliderMultiplier:1.4
SliderTickRate:1

[Events]
//Background and Video events
0,0,"sadasad.jpg",0,0
//Break Periods
//Storyboard Layer 0 (Background)
//Storyboard Layer 1 (Fail)
//Storyboard Layer 2 (Pass)
//Storyboard Layer 3 (Foreground)
//Storyboard Sound Samples

[TimingPoints]
290,319.148936170213,4,1,0,69,1,8
25821,-100,4,1,0,69,0,1
46247,-100,4,1,0,69,0,0
97311,-100,4,1,0,69,0,1
107524,-100,4,1,0,69,0,0

[HitObjects]
256,192,4119,5,4,0:0:0:0:
256,192,4438,1,4,0:0:0:0:
256,192,5396,1,0,0:0:0:0:
256,192,6672,1,0,0:0:0:0:
256,192,7311,1,2,0:0:0:0:
256,192,7949,1,0,0:0:0:0:
256,192,9226,1,0,0:0:0:0:
256,192,9864,1,2,0:0:0:0:
256,192,10502,1,0,0:0:0:0:
256,192,11141,1,8,0:0:0:0:
256,192,11779,1,0,0:0:0:0:
256,192,12417,1,0,0:0:0:0:
16,16,13055,2,0,L|304:224,2,350
256,192,15609,1,0,0:0:0:0:
256,192,16247,1,0,0:0:0:0:
256,192,16885,1,8,0:0:0:0:
256,192,17204,1,0,0:0:0:0:
256,192,17524,1,8,0:0:0:0:
256,192,18162,1,0,0:0:0:0:
256,192,18800,1,0,0:0:0:0:
256,192,19438,1,0,0:0:0:0:
256,192,19758,1,8,0:0:0:0:
256,192,20077,1,0,0:0:0:0:
256,192,20715,1,0,0:0:0:0:
256,192,21353,1,8,0:0:0:0:
256,192,21992,1,0,0:0:0:0:
256,192,22630,1,0,0:0:0:0:
24,8,23268,2,0,L|256:192,2,280
256,192,25821,1,0,0:0:0:0:
256,192,26460,1,0,0:0:0:0:
256,192,27098,1,2,0:0:0:0:
256,192,28375,1,0,0:0:0:0:
256,192,29013,1,0,0:0:0:0:
256,192,29651,1,2,0:0:0:0:
256,192,30928,1,0,0:0:0:0:
256,192,31247,1,0,0:0:0:0:
256,192,31566,1,0,0:0:0:0:
256,192,32204,1,0,0:0:0:0:
256,192,32524,1,0,0:0:0:0:
256,192,32843,1,8,0:0:0:0:
256,192,33481,1,0,0:0:0:0:
256,192,34119,1,0,0:0:0:0:
256,192,34758,1,2,0:0:0:0:
256,184,36034,1,0,0:0:0:0:
256,184,36672,1,2,0:0:0:0:
256,184,36992,1,2,0:0:0:0:
256,184,37311,1,2,0:0:0:0:
256,184,38587,1,0,0:0:0:0:
256,184,39226,1,2,0:0:0:0:
256,184,39545,1,2,0:0:0:0:
256,184,39864,1,2,0:0:0:0:
256,184,41141,1,0,0:0:0:0:
256,184,41779,1,0,0:0:0:0:
256,184,42417,1,2,0:0:0:0:
256,184,43694,1,0,0:0:0:0:
256,184,44332,1,0,0:0:0:0:
256,184,44651,1,0,0:0:0:0:
256,184,44970,1,0,0:0:0:0:
256,184,46247,1,0,0:0:0:0:
256,184,46885,1,2,0:0:0:0:
256,184,47524,1,0,0:0:0:0:
256,184,48161,1,0,0:0:0:0:
256,184,48800,1,0,0:0:0:0:
256,184,49438,1,2,0:0:0:0:
256,184,50077,1,0,0:0:0:0:
256,184,50714,1,0,0:0:0:0:
256,184,51353,1,0,0:0:0:0:
256,184,51991,1,2,0:0:0:0:
256,184,52630,1,0,0:0:0:0:
256,184,53267,1,0,0:0:0:0:
256,184,53907,1,0,0:0:0:0:
256,184,54545,1,2,0:0:0:0:
256,184,55184,1,0,0:0:0:0:
256,184,55502,1,4,0:0:0:0:
256,184,56460,1,0,0:0:0:0:
256,184,56779,1,0,0:0:0:0:
256,184,57098,1,8,0:0:0:0:
256,184,57736,1,0,0:0:0:0:
256,184,58375,1,8,0:0:0:0:
256,184,59013,1,0,0:0:0:0:
256,184,59651,1,8,0:0:0:0:
256,184,60290,1,0,0:0:0:0:
256,184,60609,1,0,0:0:0:0:
256,184,60928,1,0,0:0:0:0:
256,184,61566,1,0,0:0:0:0:
256,184,62204,1,8,0:0:0:0:
256,184,62843,1,8,0:0:0:0:
256,184,63481,1,0,0:0:0:0:
128,192,64119,2,0,L|368:192,2,210
256,192,65396,1,4,0:0:0:0:
256,192,66672,1,0,0:0:0:0:
256,192,67311,1,8,0:0:0:0:
256,192,67949,1,0,0:0:0:0:
256,192,68587,1,8,0:0:0:0:
256,192,69226,1,0,0:0:0:0:
256,192,69864,1,0,0:0:0:0:
256,192,70183,1,0,0:0:0:0:
256,192,70502,1,8,0:0:0:0:
256,192,71141,1,8,0:0:0:0:
256,192,71779,1,0,0:0:0:0:
256,192,72417,1,8,0:0:0:0:
256,192,73055,1,0,0:0:0:0:
256,192,73694,1,8,0:0:0:0:
256,192,74332,1,0,0:0:0:0:
256,192,74970,1,0,0:0:0:0:
256,192,75290,1,8,0:0:0:0:
256,192,75609,1,0,0:0:0:0:
256,192,76885,1,0,0:0:0:0:
256,192,77524,1,8,0:0:0:0:
256,192,78162,1,0,0:0:0:0:
256,192,78800,1,8,0:0:0:0:
256,192,79438,1,0,0:0:0:0:
256,192,80077,1,8,0:0:0:0:
256,192,80396,1,8,0:0:0:0:
256,192,80715,1,0,0:0:0:0:
256,192,81992,1,0,0:0:0:0:
256,192,82630,1,8,0:0:0:0:
256,192,83268,1,0,0:0:0:0:
256,192,83907,1,8,0:0:0:0:
248,192,84545,1,8,0:0:0:0:
240,192,85183,1,8,0:0:0:0:
240,192,85502,1,0,0:0:0:0:
240,192,85821,1,0,0:0:0:0:
256,192,87098,5,0,0:0:0:0:
256,192,88375,1,0,0:0:0:0:
256,192,89651,1,0,0:0:0:0:
256,192,90928,1,0,0:0:0:0:
256,192,92204,1,8,0:0:0:0:
256,192,93481,1,8,0:0:0:0:
256,192,94758,1,8,0:0:0:0:
256,192,96034,1,0,0:0:0:0:
256,192,97311,1,0,0:0:0:0:
256,192,97630,1,2,0:0:0:0:
256,192,97949,1,0,0:0:0:0:
256,192,98587,1,0,0:0:0:0:
256,192,99226,1,0,0:0:0:0:
256,192,99864,1,0,0:0:0:0:
256,192,100183,1,2,0:0:0:0:
256,192,100502,1,0,0:0:0:0:
256,192,101141,1,0,0:0:0:0:
256,192,101779,1,2,0:0:0:0:
256,192,102417,1,0,0:0:0:0:
256,192,102736,1,2,0:0:0:0:
256,192,103055,1,0,0:0:0:0:
256,192,103694,1,0,0:0:0:0:
256,192,104332,1,0,0:0:0:0:
256,192,104970,1,0,0:0:0:0:
256,192,105609,1,2,0:0:0:0:
256,192,106247,1,4,0:0:0:0:
256,192,106566,1,4,0:0:0:0:
256,192,106885,1,4,0:0:0:0:
256,192,107204,1,4,0:0:0:0:
