osu file format v14

[General]
AudioFilename: Rib - Chuubyou Gekihatsu Boy.mp3
AudioLeadIn: 0
PreviewTime: 52167
Countdown: 0
SampleSet: Soft
StackLeniency: 0.7
Mode: 0
LetterboxInBreaks: 0
WidescreenStoryboard: 0

[Editor]
DistanceSpacing: 1.2
BeatDivisor: 4
GridSize: 4
TimelineZoom: 2

[Metadata]
Title:Young disease outburst Boy
TitleUnicode:厨病激発ボーイ
Artist:Rib
ArtistUnicode:りぶ
Creator:Regraz
Version:Hard
Source:
Tags:vocaloid utaite rerulili Upload feat.Vocalist れるりり Chuubyou Gekihatsu Boy Kagamine Len
BeatmapID:947684
BeatmapSetID:404283

[Difficulty]
HPDrainRate:6
CircleSize:4
OverallDifficulty:7
ApproachRate:8
SliderMultiplier:1.6
SliderTickRate:1

[Events]
//Background and Video events
0,0,"BG_Rib2.jpg",0,0
//Break Periods
2,26157,29944
//Storyboard Layer 0 (Background)
//Storyboard Layer 1 (Fail)
//Storyboard Layer 2 (Pass)
//Storyboard Layer 3 (Foreground)
//Storyboard Sound Samples

[TimingPoints]
694,315.789473684211,4,2,0,45,1,0
694,-133.333333333333,4,2,0,45,0,0
5430,-100,4,2,18,55,0,0
5746,-100,4,2,18,55,0,0
15536,-100,4,2,18,55,0,0
15851,-100,4,2,18,55,0,0
30694,-100,4,2,18,55,0,0
31009,-100,4,2,18,55,0,0
52483,-100,4,2,18,65,0,1
67641,-100,4,2,18,55,0,0

[Colours]
Combo1 : 255,128,128
Combo2 : 0,64,128
Combo3 : 18,124,255

[HitObjects]
24,49,694,6,0,L|112:38,1,60.0000022888184,2|0,0:0|0:0,0:0:0:0:
123,54,930,1,0,0:0:0:0:
123,54,1009,2,0,P|176:59|203:45,1,60.0000022888184
265,48,1325,2,0,L|340:58,2,60.0000022888184,2|0|0,0:0|0:0|0:0,0:0:0:0:
224,122,1799,6,0,P|215:183|247:229,1,120.000004577637,2|0,0:0|0:0,0:0:0:0:
285,210,2194,1,0,0:0:0:0:
285,210,2272,1,0,0:0:0:0:
313,130,2430,1,0,0:0:0:0:
370,185,2588,2,0,L|455:194,1,60.0000022888184,2|0,0:0|0:0,0:0:0:0:
439,275,2904,2,0,L|359:268,1,60.0000022888184,2|0,0:0|0:0,0:0:0:0:
295,255,3220,6,0,P|252:254|221:272,1,60.0000022888184,2|0,0:0|0:0,0:0:0:0:
203,286,3457,1,0,0:0:0:0:
203,286,3536,2,0,L|210:211,1,60.0000022888184
139,177,3851,2,0,P|89:185|70:181,2,60.0000022888184,2|0|0,0:0|0:0|0:0,0:0:0:0:
184,105,4325,6,0,L|307:120,1,120.000004577637,2|0,0:0|0:0,0:0:0:0:
337,94,4720,1,0,0:0:0:0:
337,94,4799,1,2,0:0:0:0:
384,24,4957,1,0,0:0:0:0:
443,83,5115,2,0,P|451:129|443:164,1,60.0000022888184,2|0,0:0|0:0,0:0:0:0:
412,247,5430,1,0,0:0:0:0:
412,247,5746,6,0,P|350:232|310:255,1,80,4|0,0:0|0:0,0:0:0:0:
291,222,5983,1,0,0:0:0:0:
291,222,6062,2,0,P|237:246|195:232,1,80,8|0,0:0|0:0,0:0:0:0:
138,188,6378,2,0,L|145:84,2,80,2|0|8,0:0|0:0|0:0,0:0:0:0:
65,124,6851,6,0,P|74:67|186:48,1,160,0|0,0:0|0:0,0:0:0:0:
209,44,7246,1,0,0:0:0:0:
209,44,7325,2,0,P|260:54|312:36,1,80,8|0,0:0|0:0,0:0:0:0:
380,26,7641,1,2,0:0:0:0:
471,54,7799,1,0,0:0:0:0:
441,145,7957,1,8,0:0:0:0:
350,117,8115,1,0,0:0:0:0:
270,169,8272,6,0,P|183:156|165:171,1,80,2|0,0:0|0:0,0:0:0:0:
158,180,8509,1,0,0:0:0:0:
158,180,8588,2,0,P|105:207|72:201,1,80,8|0,0:0|0:0,0:0:0:0:
23,132,8904,2,0,L|37:31,2,80,2|0|8,0:0|0:0|0:0,0:0:0:0:
113,97,9378,6,0,B|171:112|223:76|223:76|290:93,1,160,2|0,0:0|0:0,0:0:0:0:
313,83,9772,1,0,0:0:0:0:
313,83,9851,2,0,P|321:138|305:178,1,80,8|0,0:0|0:0,0:0:0:0:
246,229,10167,1,2,0:0:0:0:
246,229,10483,2,0,P|175:200|119:231,1,120,8|0,0:0|0:0,0:0:0:0:
104,249,10799,6,0,L|121:134,1,80,4|0,0:0|0:0,0:0:0:0:
101,123,11036,1,0,0:0:0:0:
101,123,11115,1,8,0:0:0:0:
176,64,11272,1,0,0:0:0:0:
263,104,11430,2,0,L|363:122,2,80,2|0|8,0:0|0:0|0:0,0:0:0:0:
206,182,11904,6,0,P|185:242|261:328,1,160,2|0,0:0|0:0,0:0:0:0:
274,292,12299,1,0,0:0:0:0:
274,292,12378,2,0,L|355:305,1,80,8|0,0:0|0:0,0:0:0:0:
379,211,12694,2,0,L|298:200,2,80,2|0|8,0:0|0:0|0:0,0:0:0:0:
458,157,13167,1,0,0:0:0:0:
422,67,13325,6,0,P|366:88|323:82,1,80,2|0,0:0|0:0,0:0:0:0:
312,52,13562,1,0,0:0:0:0:
312,52,13641,2,0,L|212:39,1,80,8|0,0:0|0:0,0:0:0:0:
159,104,13957,1,2,0:0:0:0:
78,50,14115,2,0,L|-1:60,1,80,0|8,0:0|0:0,0:0:0:0:
51,140,14430,6,0,P|27:213|84:282,1,160,0|0,0:0|0:0,0:0:0:0:
119,267,14825,1,0,0:0:0:0:
119,267,14904,2,0,L|108:360,1,80,8|0,0:0|0:0,0:0:0:0:
206,339,15220,2,0,P|262:325|304:335,1,80,8|0,0:0|0:0,0:0:0:0:
377,350,15536,1,8,0:0:0:0:
377,350,15851,6,0,L|399:168,1,160,4|8,0:0|0:0,0:0:0:0:
364,99,16325,1,0,0:0:0:0:
291,161,16483,2,0,P|234:177|191:158,2,80,2|2|8,0:0|0:0|0:0,0:0:0:0:
246,75,16957,6,0,L|80:89,1,160,2|0,0:0|0:0,0:0:0:0:
60,128,17351,1,0,0:0:0:0:
60,128,17430,2,0,P|110:166|126:214,1,80,8|0,0:0|0:0,0:0:0:0:
75,266,17746,2,0,L|57:360,1,80,2|0,0:0|0:0,0:0:0:0:
156,352,18062,2,0,L|171:273,1,80,8|0,0:0|0:0,0:0:0:0:
237,202,18378,6,0,P|259:137|181:71,2,160,2|8|2,0:0|0:0|0:0,0:0:0:0:
311,262,19167,1,0,0:0:0:0:
395,215,19325,1,8,0:0:0:0:
431,303,19483,6,0,L|447:132,1,160,2|0,0:0|0:0,0:0:0:0:
396,60,19957,2,0,P|359:107|306:118,1,80,8|0,0:0|0:0,0:0:0:0:
252,85,20272,2,0,L|261:35,2,40,2|2|2,0:0|0:0|0:0,0:0:0:0:
184,153,20588,2,0,P|103:126|52:161,1,120,8|0,0:0|0:0,0:0:0:0:
41,173,20904,6,0,L|46:273,1,80,4|0,0:0|0:0,0:0:0:0:
129,299,21220,2,0,L|126:196,1,80,8|0,0:0|0:0,0:0:0:0:
212,175,21536,1,2,0:0:0:0:
300,137,21694,1,0,0:0:0:0:
375,195,21851,1,8,0:0:0:0:
469,175,22009,6,0,P|483:105|414:36,1,160,2|2,0:0|0:0,0:0:0:0:
388,65,22404,1,0,0:0:0:0:
388,65,22483,2,0,P|344:83|298:77,1,80,8|0,0:0|0:0,0:0:0:0:
233,25,22799,2,0,L|134:13,1,80,2|0,0:0|0:0,0:0:0:0:
63,50,23115,1,8,0:0:0:0:
63,50,23272,1,0,0:0:0:0:
41,143,23430,6,0,B|26:195|26:195|49:235|26:301,1,160,2|8,0:0|0:0,0:0:0:0:
110,346,23904,1,0,0:0:0:0:
191,292,24062,2,0,P|246:291|285:318,2,80,2|0|8,0:0|0:0|0:0,0:0:0:0:
116,230,24536,6,0,P|89:172|134:83,1,160,2|0,0:0|0:0,0:0:0:0:
200,29,25009,2,0,L|288:40,1,80,8|0,0:0|0:0,0:0:0:0:
375,45,25325,2,0,L|434:38,2,40,8|0|0,0:0|0:0|0:0,0:0:0:0:
322,126,25641,2,0,L|263:119,3,40,8|8|8|8,0:0|0:0|0:0|0:0,0:0:0:0:
234,151,25957,5,4,0:0:0:0:
266,155,30694,6,0,P|337:184|393:153,1,120,2|0,0:0|0:0,0:0:0:0:
408,135,31010,6,0,L|391:250,1,80,4|0,0:0|0:0,0:0:0:0:
360,303,31326,1,8,0:0:0:0:
360,303,31483,1,0,0:0:0:0:
265,288,31641,2,0,L|165:270,2,80,2|0|8,0:0|0:0|0:0,0:0:0:0:
306,202,32115,6,0,P|327:142|251:56,1,160,2|0,0:0|0:0,0:0:0:0:
238,92,32510,1,0,0:0:0:0:
238,92,32589,2,0,L|157:79,1,80,8|0,0:0|0:0,0:0:0:0:
133,173,32905,2,0,L|214:184,2,80,2|2|8,0:0|0:0|0:0,0:0:0:0:
54,227,33378,1,0,0:0:0:0:
90,316,33536,6,0,P|146:295|215:327,1,120,2|0,0:0|0:0,0:0:0:0:
238,344,33852,2,0,L|338:357,1,80,8|0,0:0|0:0,0:0:0:0:
365,270,34168,1,2,0:0:0:0:
434,334,34326,2,0,L|513:324,1,80,0|8,0:0|0:0,0:0:0:0:
446,245,34641,6,0,P|422:172|479:103,1,160,2|0,0:0|0:0,0:0:0:0:
405,33,35115,2,0,L|290:4,1,80,8|0,0:0|0:0,0:0:0:0:
247,67,35431,2,0,P|191:81|149:71,1,80,2|0,0:0|0:0,0:0:0:0:
90,22,35747,1,8,0:0:0:0:
53,211,36062,6,0,L|163:192,1,80,4|0,0:0|0:0,0:0:0:0:
108,291,36378,2,0,L|218:271,1,80,8|0,0:0|0:0,0:0:0:0:
275,314,36694,2,0,P|286:269|264:218,2,80,2|2|8,0:0|0:0|0:0,0:0:0:0:
359,359,37167,6,0,P|375:287|356:195,1,160,2|0,0:0|0:0,0:0:0:0:
328,166,37562,1,0,0:0:0:0:
328,166,37641,2,0,L|427:177,1,80,8|0,0:0|0:0,0:0:0:0:
471,102,37957,1,2,0:0:0:0:
419,20,38115,1,0,0:0:0:0:
328,50,38272,2,0,P|277:67|248:62,1,80,8|0,0:0|0:0,0:0:0:0:
165,19,38588,6,0,L|31:20,1,120,2|0,0:0|0:0,0:0:0:0:
36,67,38904,2,0,P|17:132|34:174,1,80,8|0,0:0|0:0,0:0:0:0:
113,120,39220,1,2,0:0:0:0:
82,206,39378,2,0,L|72:298,1,80,2|8,0:0|0:0,0:0:0:0:
151,342,39694,6,0,P|212:304|214:204,1,160,4|0,0:0|0:0,0:0:0:0:
175,138,40167,2,0,L|112:157,2,40,8|0|8,0:0|0:0|3:0,0:0:0:0:
163,42,40483,2,0,P|229:48|267:27,1,80,10|8,3:0|3:0,0:0:0:0:
282,19,40720,1,8,3:0:0:0:
282,19,40799,2,0,L|390:30,1,80,8|8,3:0|3:0,0:0:0:0:
433,91,41115,6,0,L|533:78,2,80,4|0|8,0:0|0:0|0:0,0:0:0:0:
345,130,41588,2,0,P|324:197|337:237,1,80,2|0,0:0|0:0,0:0:0:0:
410,249,41904,2,0,P|427:309|414:356,1,80,0|8,0:0|0:0,0:0:0:0:
330,306,42220,6,0,B|245:264|183:350,1,160,0|0,0:0|0:0,0:0:0:0:
119,275,42694,2,0,P|154:233|160:190,1,80,8|0,0:0|0:0,0:0:0:0:
133,116,43009,1,2,0:0:0:0:
133,116,43325,2,0,P|233:119|263:89,1,120,12|0,0:0|0:0,0:0:0:0:
289,91,43641,6,0,L|283:192,2,80,2|0|8,0:0|0:0|0:0,0:0:0:0:
366,32,44115,1,0,0:0:0:0:
452,72,44272,2,0,L|446:173,2,80,8|0|8,0:0|0:0|0:0,0:0:0:0:
379,135,44746,6,0,P|396:200|486:210,1,160,2|0,0:0|0:0,0:0:0:0:
476,313,45220,2,0,L|390:304,1,80,8|0,0:0|0:0,0:0:0:0:
299,300,45536,2,0,L|209:313,1,80,8|8,3:0|3:0,3:3:0:0:
180,284,45772,1,0,3:0:0:0:
180,284,45851,2,0,P|115:271|77:288,1,80,8|8,3:0|3:0,3:3:0:0:
34,206,46167,6,0,L|40:116,1,80,4|0,0:0|0:0,0:0:0:0:
133,103,46483,2,0,L|127:182,1,80,8|0,0:0|0:0,0:0:0:0:
219,153,46799,2,0,P|294:146|319:56,1,160,2|8,0:0|0:0,0:0:0:0:
408,28,47272,6,0,L|415:205,1,160,0|0,0:0|0:0,0:0:0:0:
461,272,47746,1,8,0:0:0:0:
461,272,47904,1,0,0:0:0:0:
364,272,48062,2,0,P|301:261|265:280,1,80,2|0,0:0|0:0,0:0:0:0:
191,273,48378,2,0,P|119:293|88:282,1,80,8|0,0:0|0:0,0:0:0:0:
42,229,48694,5,0,0:0:0:0:
256,192,48772,12,4,51220,0:0:0:0:
99,73,52167,5,8,0:0:0:0:
99,73,52483,6,0,P|68:156|87:210,1,120,4|0,0:0|0:0,0:0:0:0:
103,222,52799,2,0,P|146:187|163:140,1,80,8|0,0:0|0:0,0:0:0:0:
232,106,53115,2,0,L|322:118,2,80,2|0|8,0:0|0:0|0:0,0:0:0:0:
296,35,53588,6,0,P|375:44|459:15,1,160,2|0,0:0|0:0,0:0:0:0:
456,116,54062,2,0,L|450:218,1,80,8|0,0:0|0:0,0:0:0:0:
366,155,54378,2,0,L|359:256,1,80,2|0,0:0|0:0,0:0:0:0:
421,310,54694,1,8,0:0:0:0:
326,325,54851,1,0,0:0:0:0:
326,325,54930,1,0,0:0:0:0:
326,325,55009,6,0,P|277:310|239:325,1,80,2|0,0:0|0:0,0:0:0:0:
156,339,55325,2,0,P|112:353|57:345,1,80,8|0,0:0|0:0,0:0:0:0:
22,273,55641,2,0,L|33:183,1,80,2|0,0:0|0:0,0:0:0:0:
106,132,55957,2,0,L|119:236,1,80,8|0,0:0|0:0,0:0:0:0:
201,254,56272,5,2,0:0:0:0:
288,214,56430,1,0,0:0:0:0:
364,272,56588,2,0,P|444:297|463:290,1,80,8|0,0:0|0:0,0:0:0:0:
478,211,56904,2,0,L|466:153,2,40,2|0|0,0:0|0:0|0:0,0:0:0:0:
391,167,57220,2,0,P|343:141|277:173,1,120,8|0,0:0|0:0,0:0:0:0:
253,199,57536,6,0,L|265:53,1,120,4|0,0:0|0:0,0:0:0:0:
237,38,57851,2,0,P|194:58|148:56,1,80,8|0,0:0|0:0,0:0:0:0:
70,28,58167,2,0,L|57:124,2,80,2|2|8,0:0|0:0|0:0,0:0:0:0:
162,58,58641,6,0,P|179:115|125:205,1,160,2|0,0:0|0:0,0:0:0:0:
92,287,59115,2,0,L|208:281,1,80,8|0,0:0|0:0,0:0:0:0:
260,245,59430,2,0,L|322:249,2,40,2|0|0,0:0|0:0|0:0,0:0:0:0:
258,148,59746,2,0,L|372:160,1,80,8|0,0:0|0:0,0:0:0:0:
363,115,59983,1,0,0:0:0:0:
363,115,60062,6,0,P|397:71|400:29,1,80,2|0,0:0|0:0,0:0:0:0:
308,21,60378,1,8,0:0:0:0:
221,63,60536,1,0,0:0:0:0:
133,24,60694,2,0,L|25:21,1,80,2|0,0:0|0:0,0:0:0:0:
48,117,61009,2,0,L|127:119,1,80,8|0,0:0|0:0,0:0:0:0:
224,112,61325,5,2,0:0:0:0:
280,34,61483,1,0,0:0:0:0:
371,64,61641,1,8,0:0:0:0:
371,160,61799,1,0,0:0:0:0:
280,190,61957,2,0,P|262:253|297:314,1,80,2|0,0:0|0:0,0:0:0:0:
351,305,62272,2,0,L|345:359,3,40,8|8|8|8,0:0|0:0|0:0|0:0,0:0:0:0:
393,332,62588,6,0,P|461:300|464:199,1,160,4|8,0:0|0:0,0:0:0:0:
422,141,63062,1,0,0:0:0:0:
335,98,63220,2,0,L|344:8,2,80,2|0|8,0:0|0:0|0:0,0:0:0:0:
247,56,63694,1,0,0:0:0:0:
162,99,63851,6,0,L|153:9,2,80,2|0|8,0:0|0:0|0:0,0:0:0:0:
106,178,64325,2,0,P|35:223|41:304,1,160,0|0,0:0|0:0,0:0:0:0:
126,321,64799,2,0,L|260:305,1,120,8|0,0:0|0:0,0:0:0:0:
288,329,65115,5,4,0:0:0:0:
381,309,65272,1,2,0:0:0:0:
472,337,65430,1,8,0:0:0:0:
446,146,65746,1,2,0:0:0:0:
366,92,65904,1,0,0:0:0:0:
282,140,66062,1,8,0:0:0:0:
196,96,66220,6,0,P|117:84|65:145,1,160,2|0,0:0|0:0,0:0:0:0:
97,229,66694,2,0,L|90:334,1,80,8|0,0:0|0:0,0:0:0:0:
175,355,67009,2,0,P|230:325|241:245,1,120,2|0,0:0|0:0,0:0:0:0:
226,228,67325,1,8,0:0:0:0:
226,228,67641,5,4,0:0:0:0:
