osu file format v14

[General]
AudioFilename: yjnn.mp3
AudioLeadIn: 1200
PreviewTime: 156530
Countdown: 0
SampleSet: Normal
StackLeniency: 0.7
Mode: 0
LetterboxInBreaks: 0
WidescreenStoryboard: 1

[Editor]
DistanceSpacing: 1.2
BeatDivisor: 4
GridSize: 32
TimelineZoom: 1.6

[Metadata]
Title:Yonjuunana
TitleUnicode:ヨンジュウナナ
Artist:Rib
ArtistUnicode:りぶ
Creator:[ Abhor ]
Version:Collab Hard
Source:
Tags:mikitop みきとP Riboot Regraz
BeatmapID:919499
BeatmapSetID:395657

[Difficulty]
HPDrainRate:5
CircleSize:4
OverallDifficulty:6
ApproachRate:7.5
SliderMultiplier:1.3
SliderTickRate:1

[Events]
//Background and Video events
0,0,"Untitled-3.png",0,0
Video,0,"471.avi"
//Break Periods
2,101614,111403
2,218623,223304
//Storyboard Layer 0 (Background)
//Storyboard Layer 1 (Fail)
//Storyboard Layer 2 (Pass)
//Storyboard Layer 3 (Foreground)
//Storyboard Sound Samples

[TimingPoints]
949,348.837209302326,4,2,1,50,1,0
12111,-100,4,2,1,60,0,0
17693,-100,4,1,1,60,0,0
22576,-100,4,2,2,60,0,0
23274,-100,4,1,1,65,0,0
34437,-100,4,1,1,55,0,0
56762,-100,4,1,1,65,0,0
79088,-100,4,1,1,80,0,1
98623,-100,4,1,1,70,0,1
101414,-100,4,1,1,70,0,0
112577,-100,4,1,1,60,0,0
134902,-100,4,1,1,65,0,0
157228,-100,4,1,1,80,0,1
176762,-100,4,1,1,70,0,1
179553,-100,4,1,1,80,0,0
224204,-100,4,1,1,65,0,0
229786,-100,4,2,2,60,0,0
236762,-100,4,1,1,75,0,0
238158,-100,4,1,1,80,0,1
265716,-100,4,2,1,50,0,0
265890,-100,4,1,1,60,0,0
266065,-100,4,1,1,65,0,0

[Colours]
Combo1 : 255,166,77
Combo2 : 0,255,0
Combo3 : 89,89,255
Combo4 : 255,66,66

[HitObjects]
96,64,948,6,0,P|65:139|91:202,1,130,4|8,0:0|0:0,0:0:0:0:
137,233,1472,1,0,0:0:0:0:
214,224,1646,2,0,L|295:217,2,65,0|0|8,0:0|0:0|0:0,0:0:0:0:
127,309,2169,6,0,B|210:334|210:334|326:322,1,195,0|8,0:0|0:0,0:0:0:0:
377,271,2867,1,0,0:0:0:0:
454,259,3042,2,0,P|469:198|442:127,1,130,0|8,0:0|0:0,0:0:0:0:
314,55,3739,6,0,P|232:82|172:69,1,130,4|8,0:0|0:0,0:0:0:0:
115,53,4262,1,0,0:0:0:0:
60,108,4437,2,0,P|43:148|44:173,1,65,0|0,0:0|0:0,0:0:0:0:
106,220,4786,2,0,P|121:192|121:160,1,65,8|0,0:0|0:0,0:0:0:0:
43,168,5135,5,0,0:0:0:0:
144,286,5483,1,8,0:0:0:0:
43,168,5832,1,0,0:0:0:0:
144,286,6181,1,8,0:0:0:0:
298,262,6530,6,0,P|331:244|368:251,1,65,4|0,0:0|0:0,0:0:0:0:
413,300,6879,2,0,P|433:265|433:231,1,65,8|0,0:0|0:0,0:0:0:0:
389,176,7228,2,0,P|387:130|399:103,2,65,0|0|8,0:0|0:0|0:0,0:0:0:0:
462,148,7751,6,0,P|453:66|340:58,1,195,0|8,0:0|0:0,0:0:0:0:
205,88,8623,2,0,P|166:78|133:44,1,65
80,104,8972,2,0,P|62:155|68:187,1,65,8|0,0:0|0:0,0:0:0:0:
140,154,9321,6,0,B|169:207|147:259|147:259|117:262,1,130,4|8,0:0|0:0,0:0:0:0:
49,274,9844,2,0,P|71:313|99:330,1,65
162,344,10193,2,0,P|225:364|291:361,1,130
352,316,10716,5,0,0:0:0:0:
403,168,11065,1,8,0:0:0:0:
352,316,11414,1,0,0:0:0:0:
403,168,11762,1,8,0:0:0:0:
329,30,12111,6,0,L|264:36,1,65,4|0,0:0|0:0,0:0:0:0:
207,89,12460,2,0,P|179:104|136:104,1,65,8|0,0:0|0:0,0:0:0:0:
90,51,12809,2,0,P|123:141|118:197,1,130,0|8,0:0|0:0,0:0:0:0:
65,227,13332,6,0,B|55:298|110:342|110:342|186:342,1,195,0|8,0:0|0:0,0:0:0:0:
231,288,14030,1,0,0:0:0:0:
301,322,14204,2,0,P|361:329|383:322,1,65,0|0,0:0|0:0,0:0:0:0:
339,254,14553,2,0,P|338:212|355:185,1,65,8|0,0:0|0:0,0:0:0:0:
424,172,14902,6,0,P|431:132|412:97,1,65,4|0,0:0|0:0,0:0:0:0:
360,62,15251,2,0,L|281:62,1,65,8|0,0:0|0:0,0:0:0:0:
223,93,15600,2,0,L|159:96,1,65,0|0,0:0|0:0,0:0:0:0:
89,58,15949,2,0,P|78:114|86:144,1,65,8|0,0:0|0:0,0:0:0:0:
134,175,16297,6,0,P|139:223|122:255,1,65,0|0,0:0|0:0,0:0:0:0:
80,295,16646,2,0,P|111:316|148:322,1,65,8|0,0:0|0:0,0:0:0:0:
204,282,16995,2,0,L|291:282,1,65,0|0,0:0|0:0,0:0:0:0:
337,320,17344,2,0,P|345:270|337:248,1,65,8|0,0:0|0:0,0:0:0:0:
282,204,17693,6,0,P|263:160|267:134,1,65,4|0,0:0|0:0,0:0:0:0:
342,150,18042,2,0,P|338:104|324:80,1,65,8|0,0:0|0:0,0:0:0:0:
254,67,18390,2,0,P|203:93|194:172,1,130,0|8,0:0|0:0,0:0:0:0:
205,237,18914,1,0,0:0:0:0:
281,335,19088,6,0,L|151:337,1,130,0|8,0:0|0:0,0:0:0:0:
59,210,19786,1,0,0:0:0:0:
59,210,19960,1,0,0:0:0:0:
59,210,20135,2,0,P|43:161|47:136,1,65,8|0,0:0|0:0,0:0:0:0:
115,54,20483,6,0,P|175:73|237:52,1,130,4|8,0:0|0:0,0:0:0:0:
314,42,21007,1,0,0:0:0:0:
377,87,21181,2,0,B|400:162|400:162|389:222,1,130,0|8,0:0|0:0,0:0:0:0:
322,250,21704,1,0,0:0:0:0:
297,175,21879,6,0,B|250:195|243:242|243:242|211:249|211:249|186:334|96:313,1,260,0|0,0:0|0:0,0:0:0:0:
85,82,23100,1,0,0:0:0:0:
85,82,23187,1,0,0:0:0:0:
85,82,23274,6,0,L|210:80,1,97.5,12|0,0:0|0:0,0:0:0:0:
213,56,23623,2,0,L|307:48,1,65,8|0,0:0|0:0,0:0:0:0:
345,89,23972,2,0,P|392:84|425:95,2,65,0|0|8,0:0|0:0|0:0,0:0:0:0:
276,210,24495,6,0,L|432:198,1,130,4|0,0:0|0:0,0:0:0:0:
453,318,25018,2,0,P|416:319|386:302,1,65,8|0,0:0|0:0,0:0:0:0:
363,298,25280,1,0,0:0:0:0:
363,298,25367,2,0,L|274:311,1,65,0|0,0:0|0:0,0:0:0:0:
177,253,25716,2,0,P|143:269|94:267,1,65,8|0,0:0|0:0,0:0:0:0:
43,231,26065,6,0,L|44:142,1,65,12|0,0:0|0:0,0:0:0:0:
124,113,26414,2,0,L|124:177,1,65,8|0,0:0|0:0,0:0:0:0:
204,166,26762,2,0,P|246:176|284:167,2,65,0|0|8,0:0|0:0|0:0,0:0:0:0:
203,38,27286,6,0,L|352:51,1,130,4|0,0:0|0:0,0:0:0:0:
468,111,27809,2,0,L|390:118,1,65,8|0,0:0|0:0,0:0:0:0:
372,147,28071,1,0,0:0:0:0:
372,147,28158,2,0,P|366:186|375:233,1,65
442,290,28507,2,0,P|405:314|362:311,1,65,8|0,0:0|0:0,0:0:0:0:
366,310,28768,1,0,0:0:0:0:
348,302,28855,6,0,P|302:288|261:300,1,65,4|0,0:0|0:0,0:0:0:0:
146,281,29204,2,0,P|178:281|208:268,1,65,8|0,0:0|0:0,0:0:0:0:
256,206,29553,2,0,L|260:116,2,65,0|0|8,0:0|0:0|0:0,0:0:0:0:
196,103,30076,6,0,P|267:66|320:101,1,130,12|0,0:0|0:0,0:0:0:0:
369,217,30600,2,0,L|376:142,1,65,8|0,0:0|0:0,0:0:0:0:
380,117,30861,1,0,0:0:0:0:
380,117,30949,1,0,0:0:0:0:
466,192,31123,1,0,0:0:0:0:
408,290,31297,2,0,P|354:298|323:284,1,65,8|0,0:0|0:0,0:0:0:0:
231,228,31646,6,0,L|161:236,1,65,4|0,0:0|0:0,0:0:0:0:
221,143,31995,2,0,L|291:151,1,65,8|0,0:0|0:0,0:0:0:0:
364,102,32344,2,0,P|370:63|360:32,2,65,0|0|8,0:0|0:0|0:0,0:0:0:0:
253,190,32867,6,0,P|234:258|256:327,1,130,12|0,0:0|0:0,0:0:0:0:
336,293,33390,2,0,L|410:308,1,65,8|0,0:0|0:0,0:0:0:0:
427,215,33739,2,0,L|363:202,1,65,0|0,0:0|0:0,0:0:0:0:
306,133,34088,1,8,0:0:0:0:
244,79,34262,1,0,0:0:0:0:
244,79,34350,1,0,0:0:0:0:
244,79,34437,6,0,P|268:141|252:220,1,130,4|8,0:0|0:0,0:0:0:0:
182,211,34960,1,0,0:0:0:0:
150,282,35135,2,0,P|196:288|224:276,2,65,0|0|8,0:0|0:0|0:0,0:0:0:0:
104,139,35658,6,0,B|195:131|195:131|238:145,1,130
270,211,36181,2,0,P|311:230|334:230,1,65,8|0,0:0|0:0,0:0:0:0:
399,188,36530,2,0,P|410:218|409:250,1,65
355,306,36879,2,0,P|318:326|277:326,1,65
225,293,37228,6,0,B|125:309|125:309|78:289,1,130,4|8,0:0|0:0,0:0:0:0:
80,221,37751,1,0,0:0:0:0:
74,143,37925,2,0,P|55:102|55:68,1,65
131,91,38274,2,0,L|201:104,1,65,8|0,0:0|0:0,0:0:0:0:
273,105,38623,6,0,L|346:92,2,65,0|0|8,0:0|0:0|0:0,0:0:0:0:
235,173,39146,1,0,0:0:0:0:
194,239,39321,2,0,L|117:230,1,65
78,290,39669,2,0,P|50:256|48:221,1,65,8|0,0:0|0:0,0:0:0:0:
84,167,40018,6,0,B|93:105|53:64|53:64|79:67,1,130,4|8,0:0|0:0,0:0:0:0:
147,89,40542,1,0,0:0:0:0:
222,70,40716,2,0,P|269:63|297:68,2,65,0|0|8,0:0|0:0|0:0,0:0:0:0:
181,160,41239,6,0,P|251:172|322:149,1,130
360,99,41762,2,0,P|392:93|429:100,1,65,8|0,0:0|0:0,0:0:0:0:
396,171,42111,1,0,0:0:0:0:
426,242,42286,1,0,0:0:0:0:
367,293,42460,2,0,P|326:299|294:290,1,65,8|0,0:0|0:0,0:0:0:0:
231,262,42809,6,0,B|200:256|200:256|131:263|131:263|94:248,1,130,4|8,0:0|0:0,0:0:0:0:
145,185,43332,1,0,0:0:0:0:
90,129,43507,2,0,P|83:85|91:52,1,65,0|0,0:0|0:0,0:0:0:0:
160,89,43855,2,0,L|228:96,1,65,8|0,0:0|0:0,0:0:0:0:
298,121,44204,5,0,0:0:0:0:
298,121,44379,1,0,0:0:0:0:
374,134,44553,2,0,P|358:173|321:192,1,65,8|0,0:0|0:0,0:0:0:0:
263,200,44902,1,0,0:0:0:0:
263,200,45076,1,0,0:0:0:0:
184,194,45251,2,0,P|190:233|213:263,1,65,8|0,0:0|0:0,0:0:0:0:
320,311,45600,6,0,L|402:295,1,65,4|0,0:0|0:0,0:0:0:0:
445,231,45949,2,0,L|363:215,1,65,8|0,0:0|0:0,0:0:0:0:
317,164,46297,2,0,P|311:127|318:94,2,65,0|0|8,0:0|0:0|0:0,0:0:0:0:
405,131,46821,1,0,0:0:0:0:
405,131,46908,1,0,0:0:0:0:
405,131,46995,6,0,L|415:55,1,65,0|0,0:0|0:0,0:0:0:0:
307,35,47344,2,0,L|315:99,1,65,8|0,0:0|0:0,0:0:0:0:
213,84,47693,2,0,P|165:69|140:75,1,65,0|0,0:0|0:0,0:0:0:0:
106,158,48042,2,0,P|138:158|167:145,1,65,8|0,0:0|0:0,0:0:0:0:
281,123,48390,6,0,L|270:211,1,65,4|0,0:0|0:0,0:0:0:0:
357,177,48739,2,0,L|368:265,1,65,8|0,0:0|0:0,0:0:0:0:
325,308,49088,1,0,0:0:0:0:
325,308,49262,1,0,0:0:0:0:
240,300,49437,2,0,P|208:285|163:289,1,65,8|0,0:0|0:0,0:0:0:0:
99,313,49786,6,0,L|97:232,2,65,4|0|8,0:0|0:0|0:0,0:0:0:0:
164,367,50309,1,0,0:0:0:0:
240,300,50483,2,0,L|327:312,1,65
319,222,50832,2,0,L|254:213,1,65,8|0,0:0|0:0,0:0:0:0:
142,158,51181,6,0,L|207:149,1,65,4|0,0:0|0:0,0:0:0:0:
188,61,51530,2,0,L|123:69,1,65,8|0,0:0|0:0,0:0:0:0:
59,140,51879,1,0,0:0:0:0:
59,140,52053,1,0,0:0:0:0:
37,229,52228,2,0,P|28:275|45:316,1,65,8|0,0:0|0:0,0:0:0:0:
165,347,52576,6,0,L|173:275,1,65,0|0,0:0|0:0,0:0:0:0:
239,242,52925,2,0,L|246:306,1,65,8|0,0:0|0:0,0:0:0:0:
316,341,53274,2,0,L|324:269,1,65,0|0,0:0|0:0,0:0:0:0:
390,236,53623,2,0,L|397:300,1,65,8|0,0:0|0:0,0:0:0:0:
468,240,53972,6,0,P|495:171|474:112,1,130,4|8,0:0|0:0,0:0:0:0:
405,93,54495,1,0,0:0:0:0:
327,90,54669,2,0,B|283:94|283:94|234:82|234:82|172:88,1,130,0|8,0:0|0:0,0:0:0:0:
148,145,55193,1,0,0:0:0:0:
215,184,55367,6,0,P|213:229|221:255,1,65
303,176,55716,2,0,P|309:144|306:112,1,65,8|0,0:0|0:0,0:0:0:0:
289,77,55978,1,0,0:0:0:0:
289,77,56065,2,0,L|358:91,1,65,0|0,0:0|0:0,0:0:0:0:
457,71,56414,1,8,0:0:0:0:
457,71,56762,6,0,P|465:145|433:197,1,130,4|8,0:0|0:0,0:0:0:0:
360,185,57286,1,0,0:0:0:0:
339,110,57460,2,0,L|260:105,1,65,0|0,0:0|0:0,0:0:0:0:
256,182,57809,2,0,P|208:192|154:177,1,97.5,8|0,0:0|0:0,0:0:0:0:
145,145,58158,6,0,B|159:244|159:244|137:281,1,130,0|8,0:0|0:0,0:0:0:0:
71,239,58681,1,0,0:0:0:0:
56,162,58855,2,0,L|46:92,1,65,0|0,0:0|0:0,0:0:0:0:
111,6,59204,2,0,L|120:71,1,65,8|0,0:0|0:0,0:0:0:0:
197,77,59553,6,0,P|265:87|328:63,1,130,4|8,0:0|0:0,0:0:0:0:
396,44,60076,1,0,0:0:0:0:
438,109,60251,2,0,P|447:160|444:175,1,65,0|0,0:0|0:0,0:0:0:0:
368,154,60600,2,0,P|369:198|381:220,1,65,8|0,0:0|0:0,0:0:0:0:
392,229,60861,1,0,0:0:0:0:
408,239,60949,6,0,P|450:274|456:301,1,65,0|0,0:0|0:0,0:0:0:0:
380,310,61297,2,0,L|302:310,1,65,8|0,0:0|0:0,0:0:0:0:
249,266,61646,1,0,0:0:0:0:
182,307,61821,1,0,0:0:0:0:
124,255,61995,2,0,L|120:177,1,65,8|0,0:0|0:0,0:0:0:0:
93,60,62344,6,0,P|173:77|220:58,1,130,4|8,0:0|0:0,0:0:0:0:
292,43,62867,1,0,0:0:0:0:
369,52,63042,2,0,P|415:47|443:57,2,65,0|0|8,0:0|0:0|0:0,0:0:0:0:
400,137,63565,1,0,0:0:0:0:
400,137,63652,1,0,0:0:0:0:
400,137,63739,6,0,B|439:194|412:244|412:244|387:252,1,130,4|8,0:0|0:0,0:0:0:0:
327,199,64262,1,0,0:0:0:0:
253,239,64437,2,0,P|189:257|135:224,1,130,0|8,0:0|0:0,0:0:0:0:
200,169,64960,1,0,0:0:0:0:
67,172,65135,6,0,P|48:223|85:291,1,130,0|8,0:0|0:0,0:0:0:0:
159,316,65658,1,0,0:0:0:0:
242,327,65832,2,0,P|276:332|320:320,2,65,0|0|8,0:0|0:0|0:0,0:0:0:0:
278,244,66355,1,0,0:0:0:0:
278,244,66443,1,0,0:0:0:0:
278,244,66530,6,0,B|300:194|290:140|290:140|261:152,1,130,4|8,0:0|0:0,0:0:0:0:
161,182,67053,2,0,L|106:184,2,32.5,0|0|0,0:0|0:0|0:0,0:0:0:0:
181,68,67402,2,0,L|175:29,2,32.5,0|0|8,0:0|0:0|0:0,0:0:0:0:
299,96,67751,1,0,0:0:0:0:
299,96,67838,1,0,0:0:0:0:
299,96,67925,6,0,L|452:87,1,130,4|8,0:0|0:0,0:0:0:0:
477,156,68449,1,0,0:0:0:0:
411,198,68623,2,0,L|334:178,1,65,0|0,0:0|0:0,0:0:0:0:
338,259,68972,2,0,L|400:275,1,65,8|0,0:0|0:0,0:0:0:0:
417,351,69321,6,0,L|270:359,1,130,0|8,0:0|0:0,0:0:0:0:
228,306,69844,1,0,0:0:0:0:
169,357,70018,2,0,L|98:348,1,65,0|0,0:0|0:0,0:0:0:0:
98,271,70367,2,0,L|162:263,1,65,8|0,0:0|0:0,0:0:0:0:
216,207,70716,6,0,P|242:177|230:78,1,130,4|8,0:0|0:0,0:0:0:0:
88,51,71414,2,0,L|77:132,2,65,0|0|8,0:0|0:0|0:0,0:0:0:0:
189,47,71937,6,0,L|196:198,1,130,6|0,0:0|0:0,0:0:0:0:
275,141,72460,2,0,P|316:149|361:141,1,65,8|0,0:0|0:0,0:0:0:0:
403,89,72809,1,0,0:0:0:0:
461,145,72983,2,0,L|455:200,2,32.5,0|0|8,0:0|0:0|0:0,0:0:0:0:
382,240,73332,1,0,0:0:0:0:
382,240,73419,1,0,0:0:0:0:
382,240,73507,6,0,P|342:237|301:213,1,65,0|0,0:0|0:0,0:0:0:0:
245,252,73855,2,0,P|212:253|182:264,1,65,8|0,0:0|0:0,0:0:0:0:
106,283,74204,2,0,L|94:196,1,65
35,161,74553,1,8,0:0:0:0:
137,40,74902,6,0,P|183:56|220:46,1,65,6|0,0:2|0:0,0:0:0:0:
278,32,75251,2,0,P|316:24|352:38,1,65,8|0,0:0|0:0,0:0:0:0:
416,60,75600,2,0,L|407:132,1,65
332,175,75949,2,0,L|323:110,1,65,8|0,0:0|0:0,0:0:0:0:
256,192,76297,12,0,77693,0:0:0:0:
457,285,79088,6,0,L|323:293,2,130,12|8|0,0:0|0:0|0:0,0:0:0:0:
430,211,79960,2,0,P|411:167|414:145,1,65,0|8,0:0|0:0,0:0:0:0:
301,76,80309,6,0,P|330:128|315:204,1,130,4|0,0:0|0:0,0:0:0:0:
261,247,80832,2,0,P|201:259|188:258,2,65,8|0|0,0:0|0:0|0:0,0:0:0:0:
244,170,81355,2,0,P|227:133|231:105,1,65,0|8,0:0|0:0,0:0:0:0:
288,58,81704,1,0,0:0:0:0:
162,75,81879,6,0,P|117:81|41:146,1,130,4|8,0:0|0:0,0:0:0:0:
96,193,82402,1,0,0:0:0:0:
54,259,82576,2,0,P|51:297|63:329,1,65,0|0,0:0|0:0,0:0:0:0:
129,287,82925,1,8,0:0:0:0:
246,237,83100,6,0,P|316:229|384:254,1,130,12|0,0:0|0:0,0:0:0:0:
383,324,83623,2,0,P|419:309|440:279,1,65,8|0,0:0|0:0,0:0:0:0:
443,203,83972,2,0,P|421:176|391:165,1,65
304,206,84321,2,0,P|292:238|296:276,1,65,8|0,0:0|0:0,0:0:0:0:
304,284,84582,1,0,0:0:0:0:
312,301,84669,6,0,P|258:334|191:320,1,130,4|8,0:0|0:0,0:0:0:0:
155,253,85193,1,0,0:0:0:0:
105,186,85367,2,0,L|24:201,2,65,0|0|8,0:0|0:0|0:0,0:0:0:0:
232,220,85890,6,0,B|328:207|328:207|366:172,1,130,12|0,0:0|0:0,0:0:0:0:
292,133,86414,2,0,P|283:95|292:64,1,65,8|0,0:0|0:0,0:0:0:0:
352,184,86762,2,0,P|364:250|334:303,1,130,0|8,0:0|0:0,0:0:0:0:
255,299,87286,1,0,0:0:0:0:
179,279,87460,6,0,B|88:286|88:286|45:270,1,130,4|8,0:0|0:0,0:0:0:0:
96,208,87983,1,0,0:0:0:0:
52,142,88158,2,0,P|46:92|51:63,2,65,0|0|8,0:0|0:0|0:0,0:0:0:0:
173,192,88681,6,0,P|252:182|316:199,1,130,12|0,0:0|0:0,0:0:0:0:
367,233,89204,2,0,P|407:245|449:237,1,65,8|0,0:0|0:0,0:0:0:0:
487,178,89553,2,0,L|490:100,2,65,0|0|8,0:0|0:0|0:0,0:0:0:0:
485,301,90076,1,0,0:0:0:0:
485,301,90164,1,0,0:0:0:0:
485,301,90251,6,0,P|415:346|350:335,1,130,4|8,0:0|0:0,0:0:0:0:
177,291,90949,2,0,L|106:307,2,65,0|0|8,0:0|0:0|0:0,0:0:0:0:
227,222,91472,6,0,P|254:180|225:83,1,130,4|0,0:0|0:0,0:0:0:0:
161,85,91995,1,8,0:0:0:0:
81,230,92344,2,0,L|3:213,2,65,0|0|8,0:0|0:0|0:0,0:0:0:0:
125,297,92867,1,0,0:0:0:0:
182,235,93042,6,0,L|167:372,1,130,4|8,0:0|0:0,0:0:0:0:
254,325,93565,1,0,0:0:0:0:
334,343,93739,2,0,P|374:338|414:355,2,65,0|0|8,0:0|0:0|0:0,0:0:0:0:
254,325,94262,6,0,P|236:257|261:202,1,130,12|0,0:0|0:0,0:0:0:0:
340,184,94786,1,8,0:0:0:0:
114,53,95135,2,0,L|106:137,2,65,0|0|8,0:0|0:0|0:0,0:0:0:0:
188,34,95658,1,0,0:0:0:0:
226,140,95832,6,0,P|189:210|130:222,1,130,4|8,0:0|0:0,0:0:0:0:
307,170,96530,2,0,L|381:181,1,65,0|0,0:0|0:0,0:0:0:0:
418,86,96879,2,0,L|344:97,1,65,8|0,0:0|0:0,0:0:0:0:
277,47,97228,6,0,P|226:39|200:49,1,65,4|0,0:0|0:0,0:0:0:0:
149,135,97576,2,0,P|137:195|167:260,1,130,8|0,0:0|0:0,0:0:0:0:
237,207,98100,1,0,0:0:0:0:
322,231,98274,2,0,P|332:277|309:342,1,97.5,8|0,0:0|0:0,0:0:0:0:
299,339,98623,5,6,0:0:0:0:
161,215,98972,2,0,L|74:238,1,65,8|2,0:0|0:0,0:0:0:0:
67,150,99321,2,0,L|129:133,1,65,0|2,0:0|0:0,0:0:0:0:
185,63,99669,1,8,0:0:0:0:
185,63,99844,1,2,0:0:0:0:
277,63,100018,6,0,P|255:125|289:185,1,130,0|10,0:0|0:0,0:0:0:0:
339,122,100542,2,0,L|486:109,2,130,2|2|10,0:0|0:0|0:0,0:0:0:0:
312,151,101326,1,0,0:0:0:0:
312,151,101414,1,4,0:0:0:0:
434,82,112228,5,8,0:0:0:0:
434,82,112576,6,0,P|389:96|361:93,1,65,4|0,0:0|0:0,0:0:0:0:
296,73,112925,2,0,P|245:62|209:72,1,65,8|0,0:0|0:0,0:0:0:0:
172,113,113274,1,0,0:0:0:0:
94,123,113449,2,0,L|86:47,1,65,0|8,0:0|0:0,0:0:0:0:
172,113,113797,6,0,P|149:182|93:202,1,130
27,171,114321,2,0,P|20:207|36:247,1,65,8|0,0:0|0:0,0:0:0:0:
90,279,114669,1,0,0:0:0:0:
168,278,114844,1,0,0:0:0:0:
240,307,115018,2,0,P|293:312|325:303,1,65,8|0,0:0|0:0,0:0:0:0:
408,222,115367,6,0,L|411:152,1,65,4|0,0:0|0:0,0:0:0:0:
335,78,115716,2,0,L|333:143,1,65,8|0,0:0|0:0,0:0:0:0:
263,178,116065,1,0,0:0:0:0:
263,178,116239,1,0,0:0:0:0:
185,189,116414,1,8,0:0:0:0:
185,189,116588,6,0,P|120:195|73:147,1,130,8|0,0:0|0:0,0:0:0:0:
147,122,117111,2,0,P|133:77|201:48,1,130,8|0,0:0|0:0,0:0:0:0:
268,78,117635,1,0,0:0:0:0:
343,58,117809,2,0,L|416:56,1,65,8|0,0:0|0:0,0:0:0:0:
453,120,118158,6,0,P|458:180|453:195,1,65,4|0,0:0|0:0,0:0:0:0:
387,219,118507,2,0,P|387:272|399:291,1,65,8|0,0:0|0:0,0:0:0:0:
453,329,118855,1,0,0:0:0:0:
453,329,119030,2,0,P|422:352|385:357,1,65,0|8,0:0|0:0,0:0:0:0:
314,269,119379,6,0,B|251:258|251:258|213:274|174:256,1,130
87,179,119902,2,0,B|150:193|150:193|181:177|214:187,1,130,8|0,0:0|0:0,0:0:0:0:
186,260,120425,1,0,0:0:0:0:
109,277,120600,2,0,L|39:262,1,65,8|0,0:0|0:0,0:0:0:0:
87,179,120949,6,0,P|66:108|77:40,1,130,4|8,0:0|0:0,0:0:0:0:
150,60,121472,1,0,0:0:0:0:
227,50,121646,2,0,L|306:45,1,65,0|0,0:0|0:0,0:0:0:0:
309,122,121995,2,0,L|381:126,1,65,8|0,0:0|0:0,0:0:0:0:
431,178,122344,5,0,0:0:0:0:
431,178,122518,1,0,0:0:0:0:
431,178,122693,2,0,P|424:226|435:251,1,65,8|0,0:0|0:0,0:0:0:0:
472,305,123042,1,0,0:0:0:0:
472,305,123216,1,0,0:0:0:0:
472,305,123390,2,0,P|433:317|391:310,1,65,8|0,0:0|0:0,0:0:0:0:
279,328,123739,6,0,P|227:318|192:325,1,65,12|0,0:0|0:0,0:0:0:0:
125,329,124088,2,0,L|150:259,1,65,8|0,0:0|0:0,0:0:0:0:
63,234,124437,2,0,L|41:295,2,65,0|0|8,0:0|0:0|0:0,0:0:0:0:
297,178,125135,6,0,P|245:168|210:175,1,65,0|0,0:0|0:0,0:0:0:0:
143,179,125484,2,0,L|168:109,1,65,8|0,0:0|0:0,0:0:0:0:
81,84,125833,2,0,L|59:145,2,65,0|0|8,0:0|0:0|0:0,0:0:0:0:
146,35,126355,1,0,0:0:0:0:
231,35,126530,6,0,L|309:25,1,65,4|0,0:0|0:0,0:0:0:0:
343,115,126879,2,0,L|265:105,1,65,8|0,0:0|0:0,0:0:0:0:
203,155,127228,2,0,P|199:199|208:228,2,65,0|0|8,0:0|0:0|0:0,0:0:0:0:
365,205,127925,5,0,0:0:0:0:
365,205,128100,1,0,0:0:0:0:
450,184,128274,2,0,L|438:268,1,65,8|0,0:0|0:0,0:0:0:0:
378,304,128623,1,0,0:0:0:0:
378,304,128798,1,0,0:0:0:0:
293,283,128972,2,0,L|305:367,1,65,8|0,0:0|0:0,0:0:0:0:
222,313,129321,6,0,P|183:308|152:315,1,65,4|0,0:0|0:0,0:0:0:0:
29,357,129669,2,0,P|60:362|92:356,1,65,8|0,0:0|0:0,0:0:0:0:
99,252,130018,1,0,0:0:0:0:
99,252,130193,1,0,0:0:0:0:
177,201,130367,2,0,L|173:121,1,65,8|0,0:0|0:0,0:0:0:0:
260,164,130716,6,0,L|246:305,1,130,4|8,0:0|0:0,0:0:0:0:
172,337,131239,1,0,0:0:0:0:
306,345,131414,2,0,P|337:350|369:343,1,65,0|0,0:0|0:0,0:0:0:0:
403,264,131762,2,0,P|371:258|339:265,1,65,8|0,0:0|0:0,0:0:0:0:
203,300,132111,6,0,P|259:259|266:191,1,130,12|8,0:0|0:0,0:0:0:0:
275,89,132635,1,0,0:0:0:0:
268,202,132809,2,0,P|281:264|333:299,1,130,0|8,0:0|0:0,0:0:0:0:
410,235,133332,1,0,0:0:0:0:
333,299,133507,6,0,L|249:290,1,65,12|0,0:0|0:0,0:0:0:0:
163,360,133855,2,0,L|229:355,1,65,8|0,0:0|0:0,0:0:0:0:
248,267,134204,1,0,0:0:0:0:
153,245,134379,1,0,0:0:0:0:
84,305,134553,1,8,0:0:0:0:
84,305,134902,6,0,B|114:279|115:227|115:227|134:246|171:248,1,130,12|8,0:0|0:0,0:0:0:0:
170,169,135425,2,0,B|189:168|208:187|208:187|209:135|239:109,1,130,0|0,0:0|0:0,0:0:0:0:
295,172,135949,2,0,P|339:187|368:178,1,65,8|0,0:0|0:0,0:0:0:0:
374,176,136210,1,0,0:0:0:0:
387,162,136297,6,0,L|397:82,1,65
442,223,136646,2,0,P|447:269|428:308,1,65,8|0,0:0|0:0,0:0:0:0:
366,305,136995,2,0,B|268:296|268:296|230:312,1,130,0|8,0:0|0:0,0:0:0:0:
139,300,137518,1,0,0:0:0:0:
139,300,137605,1,0,0:0:0:0:
139,300,137693,6,0,P|141:217|112:167,1,130,4|8,0:0|0:0,0:0:0:0:
61,125,138216,1,0,0:0:0:0:
121,69,138390,2,0,L|190:66,1,65,0|0,0:0|0:0,0:0:0:0:
246,115,138739,2,0,P|293:122|325:117,1,65,8|0,0:0|0:0,0:0:0:0:
326,109,139001,1,0,0:0:0:0:
339,94,139088,6,0,P|381:88|421:94,1,65,4|0,0:0|0:0,0:0:0:0:
427,164,139437,1,8,0:0:0:0:
427,164,139611,1,0,0:0:0:0:
455,236,139786,2,0,P|462:282|452:304,1,65,0|0,0:0|0:0,0:0:0:0:
382,269,140135,1,8,0:0:0:0:
306,286,140309,1,0,0:0:0:0:
306,286,140396,1,0,0:0:0:0:
306,286,140483,6,0,P|218:281|167:295,1,130,4|8,0:0|0:0,0:0:0:0:
104,319,141007,1,0,0:0:0:0:
34,283,141181,2,0,L|24:207,1,65
82,164,141530,2,0,P|97:112|115:99,1,65,8|0,0:0|0:0,0:0:0:0:
120,95,141792,1,0,0:0:0:0:
137,87,141879,6,0,P|198:59|268:70,1,130,4|8,0:0|0:0,0:0:0:0:
211,136,142402,1,0,0:0:0:0:
290,151,142576,2,0,P|310:218|307:233,1,65,0|0,0:0|0:0,0:0:0:0:
251,262,142925,2,0,P|280:283|314:287,1,65,8|0,0:0|0:0,0:0:0:0:
328,288,143187,1,0,0:0:0:0:
347,284,143274,6,0,P|382:253|382:169,1,130,4|8,0:0|0:0,0:0:0:0:
315,137,143797,1,0,0:0:0:0:
382,98,143972,2,0,P|410:62|434:55,2,65,0|0|8,0:0|0:0|0:0,0:0:0:0:
315,137,144495,1,0,0:0:0:0:
315,137,144582,1,0,0:0:0:0:
315,137,144669,6,0,B|218:144|218:144|175:130,1,130,12|8,0:0|0:0,0:0:0:0:
82,79,145193,1,0,0:0:0:0:
82,79,145280,1,0,0:0:0:0:
82,79,145367,2,0,P|67:114|71:154,1,65,0|0,0:0|0:0,0:0:0:0:
134,237,145716,2,0,P|144:276|138:313,1,65,8|0,0:0|0:0,0:0:0:0:
128,315,145978,1,0,0:0:0:0:
110,322,146065,6,0,L|257:323,1,130,12|8,0:0|0:0,0:0:0:0:
344,144,146762,2,0,L|267:131,1,65,0|0,0:0|0:0,0:0:0:0:
237,228,147111,2,0,L|314:215,1,65,8|0,0:0|0:0,0:0:0:0:
348,325,147460,6,0,L|219:303,1,130,4|8,0:0|0:0,0:0:0:0:
144,325,147983,1,0,0:0:0:0:
68,345,148158,2,0,P|65:298|79:271,2,65,0|0|8,0:0|0:0|0:0,0:0:0:0:
187,150,148855,6,0,P|250:136|310:189,1,130,4|8,0:0|0:0,0:0:0:0:
325,245,149379,1,0,0:0:0:0:
301,170,149553,2,0,L|305:87,2,65,0|0|8,0:0|0:0|0:0,0:0:0:0:
401,225,150076,6,0,L|410:70,1,130,4|0,0:0|0:0,0:0:0:0:
327,50,150600,2,0,L|334:128,1,65,8|0,0:0|0:0,0:0:0:0:
286,178,150949,1,0,0:0:0:0:
221,133,151123,2,0,L|225:94,2,32.5,0|0|8,0:0|0:0|0:0,0:0:0:0:
159,192,151472,1,0,0:0:0:0:
159,192,151559,1,0,0:0:0:0:
159,192,151646,6,0,L|76:174,1,65,4|0,0:0|0:0,0:0:0:0:
26,283,151995,2,0,L|168:274,1,130,8|0,0:0|0:0,0:0:0:0:
220,324,152518,1,0,0:0:0:0:
295,287,152693,2,0,P|340:289|364:302,1,65,8|0,0:0|0:0,0:0:0:0:
435,288,153042,6,0,P|385:272|355:179,1,130,4|8,0:2|0:0,0:0:0:0:
395,141,153565,1,0,0:0:0:0:
345,80,153739,2,0,L|273:84,2,65,0|0|8,0:0|0:0|0:0,0:0:0:0:
399,23,154262,1,0,0:0:0:0:
256,192,154437,12,0,155832,0:0:0:0:
256,293,157228,6,0,B|354:298|354:298|395:273,1,130,12|8,0:0|0:0,0:0:0:0:
334,218,157751,1,0,0:0:0:0:
384,158,157925,2,0,L|462:150,2,65,0|0|8,0:0|0:0|0:0,0:0:0:0:
262,188,158449,6,0,B|167:182|167:182|121:203,1,130,4|0,0:0|0:0,0:0:0:0:
65,232,158972,2,0,P|56:186|64:161,1,65,8|0,0:0|0:0,0:0:0:0:
116,114,159321,1,0,0:0:0:0:
116,114,159495,2,0,P|116:53|106:36,1,65,0|8,0:0|0:0,0:0:0:0:
41,78,159844,6,0,L|187:82,1,130,12|0,0:0|0:0,0:0:0:0:
249,78,160367,1,8,0:0:0:0:
249,78,160542,1,0,0:0:0:0:
318,113,160716,2,0,P|369:120|395:113,1,65,0|0,0:0|0:0,0:0:0:0:
421,50,161065,1,8,0:0:0:0:
435,172,161239,6,0,P|447:224|430:314,1,130,12|0,0:0|0:0,0:0:0:0:
358,298,161762,2,0,L|286:310,1,65,8|0,0:0|0:0,0:0:0:0:
234,257,162111,2,0,L|162:251,2,65,0|0|8,0:0|0:0|0:0,0:0:0:0:
272,188,162635,1,0,0:0:0:0:
272,188,162722,1,0,0:0:0:0:
272,188,162809,6,0,B|345:183|345:183|375:162|376:122,1,130,4|8,0:0|0:0,0:0:0:0:
301,107,163332,1,0,0:0:0:0:
226,84,163507,2,0,P|168:89|142:77,2,65,0|0|8,0:0|0:0|0:0,0:0:0:0:
362,58,164030,6,0,P|428:70|459:137,1,130,12|0,0:0|0:0,0:0:0:0:
437,195,164553,2,0,P|430:244|448:277,1,65,8|0,0:0|0:0,0:0:0:0:
374,136,164902,2,0,P|324:147|293:144,1,65,0|0,0:0|0:0,0:0:0:0:
458,120,165251,2,0,P|459:72|447:48,1,65,8|0,0:0|0:0,0:0:0:0:
321,57,165600,6,0,B|223:62|223:62|176:83,1,130,4|8,0:0|0:0,0:0:0:0:
165,147,166123,1,0,0:0:0:0:
96,235,166297,2,0,L|10:240,2,65,0|0|8,0:0|0:0|0:0,0:0:0:0:
239,229,166821,6,0,P|292:241|379:212,1,130,12|0,0:0|0:0,0:0:0:0:
388,147,167344,2,0,P|381:102|391:75,1,65,8|0,0:0|0:0,0:0:0:0:
457,115,167693,2,0,P|461:168|446:195,2,65,0|0|8,0:0|0:0|0:0,0:0:0:0:
448,37,168216,1,0,0:0:0:0:
448,37,168303,1,0,0:0:0:0:
448,37,168390,6,0,L|296:45,1,130,4|8,0:0|0:0,0:0:0:0:
125,155,169088,2,0,L|122:233,2,65,0|0|8,0:0|0:0|0:0,0:0:0:0:
27,83,169611,1,0,0:0:0:0:
27,83,169786,6,0,P|97:38|162:49,1,130,4|8,0:0|0:0,0:0:0:0:
335,93,170484,2,0,L|406:77,2,65,0|0|8,0:0|0:0|0:0,0:0:0:0:
285,162,171007,6,0,P|258:204|287:301,1,130,12|0,0:0|0:0,0:0:0:0:
344,299,171530,2,0,L|405:259,1,65,8|0,0:0|0:0,0:0:0:0:
438,196,171879,2,0,L|516:213,2,65,0|0|8,0:0|0:0|0:0,0:0:0:0:
406,124,172402,1,0,0:0:0:0:
330,149,172577,6,0,L|345:12,1,130,4|8,0:0|0:0,0:0:0:0:
258,59,173100,1,0,0:0:0:0:
178,41,173274,2,0,P|138:46|98:29,2,65,0|0|8,0:0|0:0|0:0,0:0:0:0:
258,59,173797,6,0,P|276:127|251:182,1,130,4|0,0:0|0:0,0:0:0:0:
172,200,174321,1,8,0:0:0:0:
398,331,174670,2,0,L|406:247,2,65,0|0|8,0:0|0:0|0:0,0:0:0:0:
324,350,175193,1,0,0:0:0:0:
286,244,175367,6,0,P|323:174|382:162,1,130,4|8,0:0|0:0,0:0:0:0:
205,214,176065,2,0,L|131:203,1,65,0|0,0:0|0:0,0:0:0:0:
94,298,176414,2,0,L|168:287,1,65,8|0,0:0|0:0,0:0:0:0:
227,323,176762,6,0,P|266:323|305:336,1,65,6|0,0:0|0:0,0:0:0:0:
364,304,177111,1,8,0:0:0:0:
417,360,177286,2,0,L|410:205,1,130,2|0,0:0|0:0,0:0:0:0:
345,187,177809,2,0,L|356:52,1,130,10|0,0:0|0:0,0:0:0:0:
431,39,178332,6,0,P|455:91|424:165,1,130,6|0,0:0|0:0,0:0:0:0:
407,251,178855,2,0,L|487:246,1,65
470,354,179204,2,0,L|392:344,1,65,8|0,0:0|0:0,0:0:0:0:
297,311,179553,5,4,0:0:0:0:
181,348,179902,1,8,0:0:0:0:
104,269,180251,1,0,0:0:0:0:
114,133,180600,1,8,0:0:0:0:
177,212,180949,6,0,P|125:230|52:212,1,130,4|8,0:0|0:0,0:0:0:0:
259,146,181646,2,0,P|311:128|384:146,1,130,0|8,0:0|0:0,0:0:0:0:
335,357,182344,6,0,L|323:219,1,130,4|8,0:0|0:0,0:0:0:0:
259,146,183042,1,0,0:0:0:0:
161,182,183390,2,0,P|114:191|80:178,1,65,8|0,0:0|0:0,0:0:0:0:
79,168,183652,1,0,0:0:0:0:
60,150,183739,6,0,P|89:237|72:287,1,130,4|8,0:0|0:0,0:0:0:0:
218,330,184437,2,0,P|204:260|231:194,1,130,0|8,0:0|0:0,0:0:0:0:
255,135,184960,1,0,0:0:0:0:
255,135,185047,1,0,0:0:0:0:
255,135,185135,6,0,P|337:145|392:99,1,130,12|8,0:0|0:0,0:0:0:0:
198,211,185832,2,0,P|116:201|61:247,1,130,0|8,0:0|0:0,0:0:0:0:
270,347,186530,6,0,L|280:191,1,130,4|8,0:0|0:0,0:0:0:0:
177,112,187228,2,0,L|185:241,1,130,0|8,0:0|0:0,0:0:0:0:
278,217,187925,6,0,P|340:222|406:172,1,130,4|8,0:0|0:0,0:0:0:0:
185,241,188623,2,0,P|123:236|57:286,1,130,0|8,0:0|0:0,0:0:0:0:
203,331,189321,5,4,0:0:0:0:
181,152,189669,1,8,0:0:0:0:
341,126,190018,1,0,0:0:0:0:
465,218,190367,1,8,0:0:0:0:
418,283,190542,1,0,0:0:0:0:
418,283,190629,1,0,0:0:0:0:
418,283,190716,6,0,L|282:279,1,130,12|8,0:0|0:0,0:0:0:0:
134,308,191414,1,0,0:0:0:0:
134,308,191588,1,0,0:0:0:0:
134,308,191762,2,0,P|121:255|128:226,1,65,8|0,0:0|0:0,0:0:0:0:
146,171,192111,6,0,L|224:176,2,65,4|0|8,0:0|0:0|0:0,0:0:0:0:
67,163,192635,1,0,0:0:0:0:
102,42,192809,6,0,L|184:37,1,65
230,83,193158,2,0,L|296:88,1,65,8|0,0:0|0:0,0:0:0:0:
370,106,193507,5,4,0:0:0:0:
370,106,193681,1,0,0:0:0:0:
371,107,193855,2,0,P|356:135|332:157,1,65,8|0,0:0|0:0,0:0:0:0:
285,219,194204,1,0,0:0:0:0:
285,219,194379,1,0,0:0:0:0:
285,219,194553,2,0,P|276:268|294:301,1,65,8|0,0:0|0:0,0:0:0:0:
354,256,194902,6,0,L|425:252,2,65,4|0|8,0:0|0:0|0:0,0:0:0:0:
340,333,195425,1,0,0:0:0:0:
214,322,195600,6,0,L|209:257,1,65,8|0,0:0|0:0,0:0:0:0:
131,252,195949,2,0,L|126:187,1,65,8|0,0:0|0:0,0:0:0:0:
181,131,196297,6,0,P|241:114|298:169,1,130,4|8,0:0|0:0,0:0:0:0:
360,189,196821,1,0,0:0:0:0:
419,138,196995,2,0,L|421:68,2,65,0|0|8,0:0|0:0|0:0,0:0:0:0:
476,191,197518,1,0,0:0:0:0:
461,267,197693,6,0,L|378:256,1,65
347,319,198042,2,0,L|282:327,1,65,8|0,0:0|0:0,0:0:0:0:
213,292,198390,2,0,P|168:287|132:299,2,65,0|0|8,0:0|0:0|0:0,0:0:0:0:
117,167,199088,6,0,P|226:130|242:95,1,130,4|8,0:0|0:0,0:0:0:0:
275,59,199611,1,0,0:0:0:0:
345,92,199786,2,0,L|329:174,1,65,0|0,0:0|0:0,0:0:0:0:
405,184,200135,2,0,L|417:120,1,65,8|0,0:0|0:0,0:0:0:0:
471,64,200483,5,0,0:0:0:0:
402,26,200658,1,0,0:0:0:0:
332,60,200832,2,0,L|322:135,1,65,8|0,0:0|0:0,0:0:0:0:
253,159,201181,2,0,L|247:77,1,65,0|0,0:0|0:0,0:0:0:0:
190,41,201530,2,0,P|152:63|90:38,1,97.5,8|0,0:0|0:0,0:0:0:0:
71,70,201879,6,0,L|81:145,1,65,12|0,0:0|0:0,0:0:0:0:
35,199,202228,2,0,P|82:215|107:210,1,65,8|0,0:0|0:0,0:0:0:0:
160,169,202576,2,0,P|212:159|232:162,2,65,0|0|8,0:0|0:0|0:0,0:0:0:0:
201,236,203100,1,0,0:0:0:0:
161,303,203274,6,0,P|215:313|243:305,1,65,0|0,0:0|0:0,0:0:0:0:
300,294,203623,2,0,P|351:288|384:294,1,65,8|0,0:0|0:0,0:0:0:0:
438,313,203972,2,0,P|481:318|510:310,2,65,0|0|8,0:0|0:0|0:0,0:0:0:0:
364,289,204495,1,0,0:0:0:0:
398,219,204669,6,0,P|397:153|357:96,1,130,4|8,0:0|0:0,0:0:0:0:
285,88,205193,1,0,0:0:0:0:
208,76,205367,2,0,L|127:77,2,65,0|0|8,0:0|0:0|0:0,0:0:0:0:
285,88,205890,1,0,0:0:0:0:
236,149,206065,6,0,B|191:172|191:172|95:173,1,130,0|8,0:0|0:0,0:0:0:0:
33,163,206588,2,0,P|38:205|53:225,1,65,0|0,0:0|0:0,0:0:0:0:
121,255,206937,1,0,0:0:0:0:
198,260,207111,2,0,L|279:280,1,65,8|0,0:0|0:0,0:0:0:0:
304,210,207460,6,0,P|319:172|317:138,1,65,12|0,0:0|0:0,0:0:0:0:
395,165,207809,2,0,P|393:124|378:93,1,65,12|0,0:0|0:0,0:0:0:0:
327,16,208158,2,0,P|312:54|314:88,1,65,12|0,0:0|0:0,0:0:0:0:
236,61,208507,2,0,P|237:101|252:132,1,65,12|0,0:0|0:0,0:0:0:0:
380,228,208855,6,0,L|465:244,1,65,12|0,0:0|0:0,0:0:0:0:
371,309,209204,2,0,L|286:325,1,65,12|0,0:0|0:0,0:0:0:0:
233,289,209553,2,0,P|226:243|230:216,1,65,12|0,0:0|0:0,0:0:0:0:
281,161,209902,1,12,0:0:0:0:
281,161,210076,1,0,0:0:0:0:
390,108,210251,6,0,L|388:264,1,130,12|8,0:0|0:0,0:0:0:0:
409,323,210774,2,0,P|373:287|279:312,1,130,4|0,0:0|0:0,0:0:0:0:
226,261,211297,2,0,P|185:279|158:278,1,65,12|0,0:0|0:0,0:0:0:0:
81,144,211646,6,0,L|232:158,1,130,12|8,0:0|0:0,0:0:0:0:
222,78,212169,2,0,L|372:66,1,130,4|0,0:0|0:0,0:0:0:0:
421,111,212693,1,8,0:0:0:0:
421,111,213042,1,12,0:0:0:0:
256,192,213129,12,0,215832,0:0:0:0:
104,86,217228,6,0,P|147:132|134:204,1,130,12|8,0:0|0:0,0:0:0:0:
270,281,217925,2,0,P|226:234|233:172,1,130,0|8,0:0|0:0,0:0:0:0:
408,194,224204,6,0,B|414:239|380:268|380:268|389:292|390:321,1,130,12|8,0:0|0:0,0:0:0:0:
233,307,224902,1,0,0:0:0:0:
156,322,225076,1,0,0:0:0:0:
78,313,225251,2,0,P|57:260|60:237,1,65,8|0,0:0|0:0,0:0:0:0:
77,131,225600,6,0,B|116:139|116:139|181:121|181:121|231:127,1,130,4|8,0:0|0:0,0:0:0:0:
308,260,226297,2,0,B|331:263|331:263|396:245|396:245|435:253,1,130,0|8,0:0|0:0,0:0:0:0:
407,337,226821,1,0,0:0:0:0:
407,337,226908,1,0,0:0:0:0:
407,337,226995,6,0,B|348:355|348:355|272:343,1,130,4|8,0:0|0:0,0:0:0:0:
129,273,227693,2,0,P|135:207|91:153,1,130,0|8,0:0|0:0,0:0:0:0:
46,229,228216,2,0,P|34:275|86:349,1,130
302,236,229088,5,0,0:0:0:0:
379,232,229262,1,0,0:0:0:0:
355,112,229437,1,8,0:0:0:0:
277,106,229611,1,0,0:0:0:0:
277,106,229786,6,0,P|236:127|155:80,1,130,4|0,0:0|0:0,0:0:0:0:
226,50,230309,1,0,0:0:0:0:
277,106,230483,2,0,L|250:255,1,130,2|2,0:0|0:0,0:0:0:0:
311,287,231007,1,0,0:0:0:0:
386,307,231181,6,0,L|377:222,2,65,0|0|2,0:0|0:0|0:0,0:0:0:0:
420,154,231879,2,0,P|453:91|434:28,1,130,0|2,0:0|0:0,0:0:0:0:
284,46,232576,6,0,L|139:61,1,130,4|2,0:0|0:0,0:0:0:0:
42,168,233274,2,0,P|91:153|173:205,1,130,0|2,0:0|0:0,0:0:0:0:
222,230,233797,1,0,0:0:0:0:
285,184,233972,6,0,L|285:115,1,65,0|0,0:0|0:0,0:0:0:0:
357,89,234321,2,0,L|361:247,1,130,2|0,0:0|0:0,0:0:0:0:
293,274,234844,1,0,0:0:0:0:
209,260,235018,2,0,P|172:275|114:257,1,97.5,2|0,0:0|0:0,0:0:0:0:
103,223,235367,6,0,L|81:358,1,130,12|8,0:0|0:0,0:0:0:0:
238,342,236065,2,0,P|289:298|293:217,1,130,8|8,0:0|0:0,0:0:0:0:
246,91,236762,2,0,L|235:6,1,65,12|0,0:0|0:0,0:0:0:0:
328,78,237111,2,0,L|319:142,1,65,8|0,0:0|0:0,0:0:0:0:
416,75,237460,2,0,L|410:18,2,32.5,0|0|0,0:0|0:0|0:0,0:0:0:0:
498,111,237809,2,0,L|504:54,2,32.5,8|0|0,0:0|0:0|0:0,0:0:0:0:
452,184,238158,6,0,P|338:211|307:209,1,130,12|8,0:0|0:0,0:0:0:0:
216,99,238855,1,0,0:0:0:0:
143,127,239030,2,0,P|96:132|75:124,1,65,0|8,0:0|0:0,0:0:0:0:
216,99,239379,6,0,P|221:138|155:207,1,130,4|0,0:0|0:0,0:0:0:0:
91,225,239902,1,8,0:0:0:0:
145,281,240076,1,0,0:0:0:0:
145,281,240251,2,0,L|226:280,1,65,0|0,0:0|0:0,0:0:0:0:
273,357,240600,2,0,L|209:358,1,65,8|0,0:0|0:0,0:0:0:0:
91,339,240949,6,0,P|64:283|98:219,1,130,4|8,0:0|0:0,0:0:0:0:
166,204,241472,1,0,0:0:0:0:
231,162,241646,2,0,P|231:127|220:91,1,65,0|0,0:0|0:0,0:0:0:0:
148,73,241995,1,8,0:0:0:0:
297,66,242169,6,0,L|437:58,1,130,12|0,0:0|0:0,0:0:0:0:
462,128,242693,2,0,P|472:173|461:212,1,65,8|0,0:0|0:0,0:0:0:0:
394,168,243042,1,0,0:0:0:0:
394,168,243216,2,0,L|315:174,1,65,0|8,0:0|0:0,0:0:0:0:
262,213,243565,1,0,0:0:0:0:
292,103,243739,6,0,B|206:102|206:102|160:83,1,130,4|8,0:0|0:0,0:0:0:0:
98,46,244262,1,0,0:0:0:0:
220,29,244437,1,0,0:0:0:0:
220,29,244611,2,0,L|299:30,1,65,0|8,0:0|0:0,0:0:0:0:
375,102,244960,6,0,P|356:155|279:185,1,130,12|0,0:0|0:0,0:0:0:0:
217,208,245483,2,0,P|234:240|260:258,1,65,8|0,0:0|0:0,0:0:0:0:
238,130,245832,2,0,P|251:96|246:60,1,65,0|0,0:0|0:0,0:0:0:0:
163,151,246181,2,0,P|126:154|94:172,1,65,8|0,0:0|0:0,0:0:0:0:
87,179,246443,1,0,0:0:0:0:
81,197,246530,6,0,B|96:273|96:273|88:305|65:320,1,130,4|8,0:0|0:0,0:0:0:0:
16,259,247053,1,0,0:0:0:0:
30,126,247228,1,0,0:0:0:0:
16,259,247402,2,0,L|5:191,1,65,0|8,0:0|0:0,0:0:0:0:
98,102,247751,6,0,P|161:112|228:95,1,130,12|0,0:0|0:0,0:0:0:0:
302,85,248274,2,0,P|380:77|410:85,1,97.5,8|0,0:0|0:0,0:0:0:0:
424,109,248623,2,0,L|434:189,1,65,0|0,0:0|0:0,0:0:0:0:
392,241,248972,1,8,0:0:0:0:
392,241,249059,1,0,0:0:0:0:
392,241,249146,2,0,L|378:289,1,32.5,0|0,0:0|0:0,0:0:0:0:
348,291,249321,6,0,P|267:307|213:299,1,130,4|8,0:0|0:0,0:0:0:0:
25,206,250018,2,0,L|22:284,2,65,0|0|8,0:0|0:0|0:0,0:0:0:0:
27,83,250541,1,0,0:0:0:0:
27,83,250716,6,0,P|97:38|162:49,1,130,4|8,0:0|0:0,0:0:0:0:
335,93,251414,2,0,L|406:77,2,65,0|0|8,0:0|0:0|0:0,0:0:0:0:
285,162,251937,6,0,P|258:204|287:301,1,130,12|0,0:0|0:0,0:0:0:0:
351,299,252460,1,8,0:0:0:0:
431,154,252809,2,0,L|509:171,2,65,0|0|8,0:0|0:0|0:0,0:0:0:0:
387,87,253332,1,0,0:0:0:0:
330,149,253507,6,0,L|345:12,1,130,4|8,0:0|0:0,0:0:0:0:
258,59,254030,1,0,0:0:0:0:
178,41,254204,2,0,P|138:46|98:29,2,65,0|0|8,0:0|0:0|0:0,0:0:0:0:
258,59,254728,1,0,0:0:0:0:
199,119,254902,6,0,P|165:206|181:251,1,130,4|8,0:0|0:0,0:0:0:0:
398,331,255600,2,0,L|406:247,2,65,0|0|8,0:0|0:0|0:0,0:0:0:0:
324,350,256123,1,0,0:0:0:0:
286,244,256297,6,0,P|323:174|382:162,1,130,4|8,0:0|0:0,0:0:0:0:
205,214,256995,2,0,L|131:203,1,65,0|0,0:0|0:0,0:0:0:0:
94,298,257344,2,0,L|168:287,1,65,8|0,0:0|0:0,0:0:0:0:
235,337,257693,6,0,P|286:345|312:335,1,65,4|0,0:0|0:0,0:0:0:0:
351,240,258041,2,0,P|369:182|347:106,1,130,8|0,0:0|0:0,0:0:0:0:
275,177,258565,1,0,0:0:0:0:
190,153,258739,2,0,P|180:107|203:42,1,97.5,8|0,0:0|0:0,0:0:0:0:
214,43,259088,6,0,L|297:53,1,65,4|0,0:0|0:0,0:0:0:0:
344,90,259437,2,0,L|409:83,1,65,8|0,0:0|0:0,0:0:0:0:
408,161,259786,2,0,L|325:171,1,65,0|0,0:0|0:0,0:0:0:0:
268,139,260135,2,0,L|203:131,1,65,8|0,0:0|0:0,0:0:0:0:
96,114,260483,5,4,0:0:0:0:
97,270,260832,1,8,0:0:0:0:
126,106,261181,1,0,0:0:0:0:
126,278,261530,1,8,0:0:0:0:
160,98,261879,1,4,0:0:0:0:
160,285,262228,1,8,0:0:0:0:
297,190,262576,2,0,B|368:194|368:194|400:175|444:186,1,130,0|8,0:0|0:0,0:0:0:0:
415,260,263100,1,0,0:0:0:0:
415,260,263274,6,0,B|460:273|464:332|403:360|403:360|348:326|348:326|292:347|292:347|228:323|228:323|167:344|167:344|101:359|67:323|57:284,1,520,4|0,0:0|0:0,0:0:0:0:
134,270,264844,1,0,0:0:0:0:
154,194,265018,2,0,P|156:140|145:120,1,65,8|0,0:0|0:0,0:0:0:0:
81,165,265367,2,0,P|77:113|134:51,1,130
256,41,265890,1,0,0:0:0:0:
256,41,265978,1,0,0:0:0:0:
256,41,266065,6,0,P|235:81|261:182,1,130,12|8,0:0|0:0,0:0:0:0:
398,133,266763,2,0,P|445:128|478:139,2,65,0|0|8,0:0|0:0|0:0,0:0:0:0:
309,223,267286,6,0,L|465:211,1,130,4|0,0:0|0:0,0:0:0:0:
486,331,267809,2,0,P|449:332|419:315,1,65,8|0,0:0|0:0,0:0:0:0:
396,311,268071,1,0,0:0:0:0:
396,311,268158,2,0,L|307:324,1,65,0|0,0:0|0:0,0:0:0:0:
210,266,268507,2,0,P|177:286|138:281,1,65,8|0,0:0|0:0,0:0:0:0:
79,246,268856,6,0,L|80:157,1,65,0|0,0:0|0:0,0:0:0:0:
157,126,269205,2,0,L|157:190,1,65,8|0,0:0|0:0,0:0:0:0:
237,179,269553,2,0,P|279:189|317:180,2,65,0|0|8,0:0|0:0|0:0,0:0:0:0:
236,51,270077,6,0,L|385:64,1,130,4|0,0:0|0:0,0:0:0:0:
501,124,270600,2,0,L|423:131,1,65,8|0,0:0|0:0,0:0:0:0:
405,160,270862,1,0,0:0:0:0:
405,160,270949,2,0,P|399:199|408:246,1,65,0|0,0:0|0:0,0:0:0:0:
475,303,271298,1,8,0:0:0:0:
369,338,271472,1,0,0:0:0:0:
369,338,271559,1,0,0:0:0:0:
369,338,271646,6,0,P|323:324|282:336,1,65,4|0,0:0|0:0,0:0:0:0:
175,292,271995,2,0,P|207:292|237:279,1,65,8|0,0:0|0:0,0:0:0:0:
283,210,272344,2,0,L|287:120,2,65,0|0|8,0:0|0:0|0:0,0:0:0:0:
224,112,272867,6,0,P|295:75|348:110,1,130,4|0,0:0|0:0,0:0:0:0:
402,230,273391,2,0,L|409:155,1,65,8|0,0:0|0:0,0:0:0:0:
413,130,273652,1,0,0:0:0:0:
413,130,273740,1,0,0:0:0:0:
499,205,273914,1,0,0:0:0:0:
441,303,274088,2,0,P|387:311|356:297,1,65,8|0,0:0|0:0,0:0:0:0:
264,241,274437,6,0,L|194:249,1,65,4|0,0:0|0:0,0:0:0:0:
254,156,274786,2,0,L|324:164,1,65,8|0,0:0|0:0,0:0:0:0:
397,115,275135,2,0,P|403:76|393:45,2,65,0|0|8,0:0|0:0|0:0,0:0:0:0:
434,229,275658,6,0,P|408:295|433:364,1,130,4|0,0:0|0:0,0:0:0:0:
490,293,276181,1,8,0:0:0:0:
373,273,276355,2,0,L|321:279,2,32.5
329,165,276704,2,0,L|253:156,2,65
406,75,277228,1,2,0:0:0:0:
256,192,277402,12,0,280018,0:0:0:0:
