osu file format v14

[General]
AudioFilename: audio.mp3
AudioLeadIn: 0
PreviewTime: 135960
Countdown: 0
SampleSet: Soft
StackLeniency: 0.7
Mode: 0
LetterboxInBreaks: 0
WidescreenStoryboard: 0

[Editor]
Bookmarks: 194010,208560
DistanceSpacing: 1.2
BeatDivisor: 4
GridSize: 32
TimelineZoom: 1.6

[Metadata]
Title:Tsukiakari
TitleUnicode:月陽 -ツキアカリ-
Artist:Rib
ArtistUnicode:りぶ
Creator:-Zel
Version:Lux Lunae
Source:幕末奇譚 SHINSEN5 〜剣豪降臨〜
Tags:MikitoP みきとP MYLIST Rock Japanese Exit Tunes Academy Best2 Yudragen ChaoticRed arronchu1207 Heroine Some Hero j-rock j rock male vocal vocalist vocaloid cover 友達募集P tomobop
BeatmapID:3451160
BeatmapSetID:1688783

[Difficulty]
HPDrainRate:6.2
CircleSize:4
OverallDifficulty:9.2
ApproachRate:9.5
SliderMultiplier:1.7
SliderTickRate:1

[Events]
//Background and Video events
0,0,"tsukiakari_rib0s.jpg",0,0
//Break Periods
//Storyboard Layer 0 (Background)
//Storyboard Layer 1 (Fail)
//Storyboard Layer 2 (Pass)
//Storyboard Layer 3 (Foreground)
//Storyboard Layer 4 (Overlay)
//Storyboard Sound Samples

[TimingPoints]
5760,300,4,2,1,60,1,0
5760,-166.666666666667,4,2,1,60,0,0
6360,-250.000000000001,4,2,1,60,0,0
6960,-100,4,2,1,60,0,0
7560,-125,4,2,1,60,0,0
8010,-125,4,2,1,80,0,0
8160,-133.333333333333,4,2,1,80,0,0
9060,-133.333333333333,4,2,1,80,0,0
9360,-250,4,2,1,80,0,0
10260,-250,4,2,1,80,0,0
10560,-100,4,1,1,90,0,0
10860,-100,4,1,1,90,0,0
11160,-100,4,1,1,90,0,0
11460,-100,4,1,1,90,0,0
11760,-100,4,1,1,90,0,0
12060,-100,4,1,1,90,0,0
12360,-100,4,3,2,90,0,0
12960,-100,4,1,1,90,0,0
13260,-100,4,1,1,90,0,0
13560,-100,4,1,1,90,0,0
13860,-100,4,1,1,90,0,0
14160,-100,4,1,1,90,0,0
14460,-100,4,1,1,90,0,0
14760,-100,4,3,2,90,0,0
15360,-100,4,2,1,70,0,0
16560,-100,4,3,2,100,0,0
16710,-100,4,3,1,100,0,0
16860,-100,4,3,2,100,0,0
17010,-100,4,3,1,100,0,0
17760,-100,4,3,2,100,0,0
17910,-100,4,3,1,100,0,0
18060,-100,4,3,2,100,0,0
18210,-100,4,3,1,100,0,0
18960,-100,4,3,2,100,0,0
19110,-100,4,3,1,100,0,0
19260,-100,4,3,2,100,0,0
19410,-100,4,3,1,100,0,0
20160,-100,4,3,2,100,0,0
20310,-100,4,3,1,100,0,0
20460,-100,4,3,2,100,0,0
20610,-100,4,3,1,100,0,0
20910,-50,4,3,3,70,0,0
21060,-133.333333333333,4,3,3,70,0,0
21210,-66.6666666666667,4,3,3,70,0,0
21360,-66.6666666666667,4,3,1,80,0,0
21960,-100,4,3,4,80,0,0
22260,-66.6666666666667,4,3,4,80,0,0
22560,-66.6666666666667,4,3,1,80,0,0
23160,-66.6666666666667,4,3,4,80,0,0
23760,-66.6666666666667,4,3,1,80,0,0
24360,-66.6666666666667,4,3,4,80,0,0
24960,-66.6666666666667,4,3,3,80,0,0
25560,-66.6666666666667,4,3,1,80,0,0
25634,-66.6666666666667,4,3,1,5,0,0
26160,-76.9230769230769,4,1,3,100,0,1
26385,-76.9230769230769,4,1,3,5,0,1
26460,-76.9230769230769,4,1,3,100,0,1
28260,-100,4,1,3,100,0,1
28410,-125,4,1,4,100,0,1
28560,-71.4285714285714,4,1,3,100,0,1
28785,-76.9230769230769,4,1,3,5,0,1
28860,-76.9230769230769,4,1,3,100,0,1
29460,-100,4,1,3,100,0,1
29610,-71.4285714285714,4,1,3,100,0,1
30660,-100,4,1,3,100,0,1
30810,-125,4,1,4,100,0,1
30960,-125,4,1,3,100,0,1
31860,-100,4,1,3,100,0,1
32010,-71.4285714285714,4,1,3,100,0,1
32310,-76.9230769230769,4,1,3,100,0,1
35160,-125,4,1,3,100,0,1
35460,-90.9090909090909,4,1,3,100,0,1
35610,-90.9090909090909,4,1,4,100,0,1
35760,-83.3333333333333,4,1,3,70,0,0
36360,-83.3333333333333,4,1,1,70,0,0
36660,-83.3333333333333,4,1,3,70,0,0
36960,-83.3333333333333,4,1,3,70,0,0
37260,-83.3333333333333,4,1,3,70,0,0
37410,-83.3333333333333,4,1,1,70,0,0
37710,-83.3333333333333,4,1,2,70,0,0
37860,-83.3333333333333,4,1,3,70,0,0
38010,-83.3333333333333,4,1,2,70,0,0
38160,-83.3333333333333,4,3,4,90,0,0
38460,-83.3333333333333,4,3,3,100,0,0
38760,-83.3333333333333,4,3,4,100,0,0
39060,-83.3333333333333,4,3,3,100,0,0
39660,-83.3333333333333,4,3,4,100,0,0
40110,-166.666666666667,4,3,1,80,0,0
40560,-125,4,2,1,60,0,0
45060,-66.6666666666667,4,2,1,60,0,0
45360,-125,4,2,1,60,0,0
48660,-125,4,2,3,80,0,0
48810,-125,4,2,1,80,0,0
49710,-125,4,2,1,60,0,0
49860,-71.4285714285714,4,2,3,80,0,0
50010,-83.3333333333333,4,2,1,80,0,0
50160,-100,4,2,1,70,0,0
52110,-100,4,2,1,80,0,0
52560,-100,4,2,1,70,0,0
53910,-100,4,2,1,80,0,0
54360,-100,4,2,1,90,0,0
54960,-100,4,2,1,70,0,0
56235,-100,4,2,1,5,0,0
56310,-100,4,2,1,70,0,0
57360,-100,4,2,1,80,0,0
58410,-166.666666666667,4,2,1,60,0,0
58860,-100,4,2,1,100,0,0
59760,-100,4,2,1,80,0,0
60210,-125,4,2,1,80,0,0
61260,-125,4,2,1,90,0,0
62160,-333.333333333333,4,2,1,70,0,0
63360,-100,4,2,1,80,0,0
64260,-250,4,2,3,100,0,0
64560,-71.4285714285714,4,1,1,90,0,0
64710,-100,4,1,1,90,0,0
66210,-285.714285714286,4,1,1,80,0,0
66660,-83.3333333333333,4,1,1,90,0,0
66960,-153.846153846154,4,2,1,70,0,0
68160,-71.4285714285714,4,2,1,80,0,0
68460,-100,4,2,1,80,0,0
69060,-125,4,2,1,80,0,0
69360,-83.3333333333333,4,1,3,90,0,0
69510,-83.3333333333333,4,1,2,90,0,0
69660,-83.3333333333333,4,1,3,90,0,0
71760,-71.4285714285714,4,2,1,70,0,0
71835,-71.4285714285714,4,2,1,5,0,0
71910,-71.4285714285714,4,2,1,60,0,0
73560,-166.666666666667,4,2,1,80,0,0
73860,-166.666666666667,4,2,1,5,0,0
74010,-71.4285714285714,4,1,3,100,0,1
75960,-100,4,1,3,100,0,1
76110,-71.4285714285714,4,1,3,100,0,1
81960,-100,4,1,3,100,0,1
82110,-71.4285714285714,4,1,3,100,0,1
90810,-100,4,1,3,100,0,1
92160,-71.4285714285714,4,1,3,90,0,0
92760,-71.4285714285714,4,3,3,100,0,0
93360,-71.4285714285714,4,1,3,70,0,0
94560,-71.4285714285714,4,1,3,100,0,0
95160,-400,4,2,1,50,0,0
95610,-250,4,2,1,5,0,0
95760,-71.4285714285714,4,3,3,80,0,1
96960,-71.4285714285714,4,3,3,85,0,1
98160,-71.4285714285714,4,3,3,90,0,1
99360,-71.4285714285714,4,3,3,95,0,1
99960,-71.4285714285714,4,3,3,100,0,1
100410,-100,4,3,3,100,0,1
100560,-76.9230769230769,4,3,3,90,0,0
100785,-76.9230769230769,4,3,3,5,0,0
100860,-76.9230769230769,4,3,3,90,0,0
101835,-76.9230769230769,4,3,3,5,0,0
101910,-76.9230769230769,4,3,3,90,0,0
102810,-100,4,3,2,90,0,0
102960,-76.9230769230769,4,3,4,100,0,0
103260,-76.9230769230769,4,3,3,100,0,0
103560,-76.9230769230769,4,3,4,100,0,0
103860,-76.9230769230769,4,3,3,100,0,0
104160,-76.9230769230769,4,3,3,100,0,0
104460,-76.9230769230769,4,3,4,100,0,0
104760,-111.111111111111,4,1,3,80,0,0
105360,-100,4,2,1,60,0,0
105960,-125,4,2,1,60,0,0
106410,-90.9090909090909,4,2,1,60,0,0
107610,-125,4,2,1,60,0,0
109560,-250,4,2,1,60,0,0
109860,-250,4,2,1,60,0,0
110160,-90.9090909090909,4,2,1,60,0,0
113610,-142.857142857143,4,2,2,70,0,0
113910,-200,4,2,2,80,0,0
114210,-111.111111111111,4,2,2,90,0,0
114510,-142.857142857143,4,2,1,100,0,0
114735,-142.857142857143,4,2,1,5,0,0
114810,-142.857142857143,4,2,1,100,0,0
114960,-142.857142857143,4,2,1,80,0,0
115560,-166.666666666667,4,2,1,80,0,0
115860,-55.5555555555556,4,2,1,100,0,0
116160,-250,4,2,1,80,0,0
116460,-142.857142857143,4,2,1,90,0,0
116760,-100,4,2,1,80,0,0
117060,-100,4,2,1,70,0,0
117210,-71.4285714285714,4,2,1,90,0,0
117510,-71.4285714285714,4,2,1,70,0,0
117660,-125,4,2,1,90,0,0
117960,-250.000000000001,4,2,1,70,0,0
118260,-166.666666666666,4,2,1,90,0,0
118560,-166.666666666666,4,2,1,70,0,0
118710,-200,4,2,1,90,0,0
119010,-200,4,2,1,70,0,0
119160,-125,4,2,1,80,0,0
119460,-62.5,4,2,1,90,0,0
119760,-62.5,4,2,1,60,0,0
121710,-250.000000000001,4,2,1,80,0,0
122160,-111.111111111111,4,2,1,60,0,0
123660,-111.111111111111,4,2,1,80,0,0
123960,-111.111111111111,4,2,3,90,0,0
124260,-71.4285714285714,4,1,3,90,0,0
124410,-142.857142857143,4,1,1,90,0,0
124560,-333.333333333334,4,2,1,70,0,0
125760,-476.190476190476,4,2,1,90,0,0
126585,-476.190476190476,4,2,1,5,0,0
126660,-83.3333333333333,4,2,1,70,0,0
126960,-83.3333333333333,4,1,1,90,0,0
128460,-125,4,1,1,90,0,0
128610,-250,4,1,1,70,0,0
129060,-125,4,1,1,90,0,0
129210,-71.4285714285714,4,1,1,90,0,0
129360,-250,4,2,1,70,0,0
130560,-100,4,2,1,80,0,0
131760,-71.4285714285714,4,1,3,90,0,0
134160,-71.4285714285714,4,2,1,70,0,0
134235,-71.4285714285714,4,2,1,5,0,0
134310,-71.4285714285714,4,2,1,60,0,0
135360,-71.4285714285714,4,1,3,100,0,0
135960,-50,4,2,1,80,0,0
136260,-166.666666666667,4,2,1,5,0,0
136410,-62.5,4,1,3,100,0,1
138510,-100,4,1,3,100,0,1
138810,-62.5,4,1,3,100,0,1
140235,-62.5,4,1,3,5,0,1
140310,-62.5,4,1,3,100,0,1
144360,-100,4,1,3,100,0,1
144510,-62.5,4,1,3,100,0,1
144660,-62.5,4,1,3,100,0,1
147435,-62.5,4,1,3,5,0,1
147510,-62.5,4,1,3,100,0,1
154560,-71.4285714285714,4,1,3,90,0,0
155160,-166.666666666667,4,3,3,100,0,0
155460,-58.8235294117647,4,3,3,100,0,0
155760,-71.4285714285714,4,3,6,100,0,1
158160,-100,4,1,6,85,0,0
160560,-71.4285714285714,4,3,6,100,0,1
162960,-100,4,1,6,85,0,0
165060,-125,4,1,3,90,0,0
165210,-71.4285714285714,4,1,3,95,0,0
165360,-71.4285714285714,4,3,6,100,0,1
167760,-100,4,1,6,85,0,0
168360,-142.857142857143,4,1,6,80,0,0
168660,-83.3333333333333,4,1,6,90,0,0
168960,-166.666666666667,4,1,6,80,0,0
169260,-200,4,1,6,90,0,0
169560,-83.3333333333333,4,1,6,80,0,0
169860,-83.3333333333333,4,1,4,100,0,0
169935,-83.3333333333333,4,1,4,5,0,0
170160,-100,4,1,3,85,0,0
172560,-100,4,3,3,90,0,1
172710,-71.4285714285714,4,3,3,100,0,1
174960,-90.9090909090909,4,1,3,100,0,0
175035,-90.9090909090909,4,2,1,60,0,0
175860,-90.9090909090909,4,1,3,50,0,0
176160,-200,4,1,3,70,0,0
176235,-90.9090909090909,4,2,1,60,0,0
177210,-90.9090909090909,4,2,1,90,0,0
177360,-71.4285714285714,4,2,2,50,0,0
178860,-71.4285714285714,4,2,2,50,0,0
179160,-71.4285714285714,4,2,2,50,0,0
181560,-71.4285714285714,4,2,1,70,0,0
181710,-71.4285714285714,4,2,2,50,0,0
181860,-71.4285714285714,4,2,1,70,0,0
182010,-71.4285714285714,4,2,2,50,0,0
182160,-71.4285714285714,4,2,2,60,0,0
182460,-71.4285714285714,4,2,2,65,0,0
182760,-71.4285714285714,4,2,2,70,0,0
183060,-71.4285714285714,4,2,2,75,0,0
183360,-71.4285714285714,4,2,2,80,0,0
183660,-71.4285714285714,4,2,2,85,0,0
183960,-71.4285714285714,4,2,2,90,0,0
184260,-71.4285714285714,4,2,2,50,0,0
185610,-71.4285714285714,4,3,1,80,0,0
185760,-71.4285714285714,4,3,1,90,0,0
186360,-71.4285714285714,4,3,1,100,0,0
186510,-111.111111111111,4,3,1,80,0,0
186735,-111.111111111111,4,3,1,5,0,0
186810,-71.4285714285714,4,1,3,100,0,1
190110,-111.111111111111,4,1,3,100,0,1
190335,-111.111111111111,4,1,3,5,0,1
190410,-71.4285714285714,4,1,3,100,0,1
192060,-125,4,3,3,100,0,1
192360,-83.3333333333333,4,3,3,100,0,1
192660,-166.666666666667,4,3,3,100,0,1
192960,-166.666666666667,4,3,1,90,0,0
193560,-166.666666666667,4,2,1,80,0,0
193860,-166.666666666667,4,2,1,5,0,0
194010,-58.8235294117647,4,1,3,100,0,1
194985,-58.8235294117647,4,1,3,5,0,1
195060,-100,4,1,3,100,0,1
195135,-100,4,1,3,5,0,1
195210,-58.8235294117647,4,1,3,100,0,1
195660,-90.9090909090909,4,1,3,100,0,1
196410,-58.8235294117647,4,1,3,100,0,1
196860,-66.6666666666667,4,1,3,100,0,1
197160,-83.3333333333333,4,1,3,100,0,1
197610,-58.8235294117647,4,1,3,100,0,1
198360,-58.8235294117647,4,3,3,100,0,1
198810,-58.8235294117647,4,1,3,100,0,1
199560,-58.8235294117647,4,3,3,100,0,1
200010,-58.8235294117647,4,1,3,100,0,1
200460,-76.9230769230769,4,1,3,100,0,1
200760,-76.9230769230769,4,3,3,100,0,1
201210,-58.8235294117647,4,1,3,100,0,1
201660,-125,4,1,3,100,0,1
201960,-125,4,3,3,100,0,1
202410,-58.8235294117647,4,1,3,100,0,1
202860,-71.4285714285714,4,1,3,100,0,1
203310,-62.5,4,1,3,100,0,0
203610,-62.5,4,1,3,100,0,1
204060,-71.4285714285714,4,1,3,100,0,1
204810,-50,4,1,3,100,0,1
205035,-50,4,1,3,5,0,1
205110,-66.6666666666667,4,1,3,100,0,1
206010,-58.8235294117647,4,1,3,100,0,1
206310,-83.3333333333333,4,1,3,100,0,1
206460,-62.5,4,1,3,100,0,1
206760,-62.5,4,3,3,100,0,1
207210,-62.5,4,1,3,100,0,1
207660,-125,4,1,3,100,0,1
208410,-58.8235294117647,4,1,3,100,0,1
209160,-58.8235294117647,4,1,3,90,0,1
210810,-100,4,1,3,90,0,1
211260,-100,4,1,3,100,0,1
212160,-50,4,1,3,90,0,0
212760,-50,4,3,3,100,0,0
213360,-71.4285714285714,4,2,1,70,0,0
213435,-71.4285714285714,4,2,1,5,0,0
213510,-71.4285714285714,4,2,1,60,0,0
215160,-250,4,2,1,80,0,0
215610,-250,4,2,1,5,0,0
215760,-571.428571428571,4,2,1,30,0,0
216660,-666.666666666667,4,2,1,5,0,0
216960,-71.4285714285714,4,3,3,85,0,1
218160,-71.4285714285714,4,3,3,90,0,1
219360,-71.4285714285714,4,3,3,95,0,1
220560,-71.4285714285714,4,3,3,100,0,1
221760,-71.4285714285714,4,3,2,80,0,0
221910,-71.4285714285714,4,3,1,80,0,0
222060,-71.4285714285714,4,3,2,80,0,0
222210,-71.4285714285714,4,3,1,80,0,0
222960,-71.4285714285714,4,3,2,85,0,0
223110,-71.4285714285714,4,3,1,85,0,0
223260,-71.4285714285714,4,3,2,85,0,0
223410,-71.4285714285714,4,3,1,85,0,0
224160,-71.4285714285714,4,3,2,90,0,0
224310,-71.4285714285714,4,3,1,90,0,0
224460,-71.4285714285714,4,3,2,90,0,0
224610,-71.4285714285714,4,3,1,90,0,0
225360,-71.4285714285714,4,3,2,95,0,0
225510,-71.4285714285714,4,3,1,95,0,0
225660,-71.4285714285714,4,3,2,95,0,0
225810,-71.4285714285714,4,3,1,95,0,0
226110,-71.4285714285714,4,3,3,100,0,0
226260,-125,4,3,2,100,0,0
226410,-125,4,3,2,5,0,0
226560,-166.666666666667,4,2,1,80,0,0
227160,-125,4,2,1,80,0,0
227760,-100,4,2,1,90,0,0
228360,-125,4,2,1,100,0,0
228810,-125,4,2,1,80,0,0
228960,-166.666666666667,4,2,2,90,0,0
229260,-166.666666666667,4,2,1,70,0,0
229560,-125,4,2,2,90,0,0
229860,-125,4,2,1,70,0,0
230160,-250,4,2,2,90,0,0
230460,-250,4,2,1,70,0,0
230760,-166.666666666667,4,2,2,90,0,0
231060,-166.666666666667,4,2,1,70,0,0
231210,-166.666666666667,4,2,1,100,0,0

[Colours]
Combo1 : 115,169,33
Combo2 : 235,200,94
Combo3 : 255,187,18
Combo4 : 219,115,59

[HitObjects]
256,192,3960,12,0,5460,0:0:0:0:
283,309,5760,6,0,P|295:329|293:363,1,50.9999984436036,12|0,0:0|0:0,0:0:0:0:
219,374,6060,2,0,P|207:354|209:320,1,50.9999984436036
384,226,6360,38,0,L|397:181,1,34,8|0,0:0|0:0,0:0:0:0:
452,269,6660,2,0,L|465:224,1,34
171,175,6960,6,0,L|158:91,1,85,8|0,0:0|0:0,0:0:0:0:
86,151,7260,2,0,L|73:67,1,85
258,43,7560,6,0,B|260:7|260:7|242:46,2,68,8|8|8,0:0|0:0|0:0,0:0:0:0:
307,191,8010,21,0,0:0:0:0:
307,191,8085,1,0,0:0:0:0:
307,191,8160,2,0,B|282:154|302:114|302:114|331:98|334:62,2,127.500004863739,10|2|2,0:3|0:3|0:3,0:0:0:0:
379,151,8910,1,2,0:3:0:0:
254,281,9060,6,0,P|252:265|256:250,2,31.8750012159348,0|0|0,0:3|0:0|0:0,0:0:0:0:
334,335,9360,6,0,P|250:318|167:306,1,170,10|0,0:3|0:0,0:0:0:0:
254,280,10260,1,10,0:3:0:0:
166,305,10410,1,10,0:3:0:0:
387,71,10560,5,10,0:3:0:0:
445,169,10710,1,0,0:3:0:0:
464,89,10860,1,8,0:3:0:0:
366,151,11010,1,0,0:3:0:0:
46,118,11160,5,8,0:3:0:0:
141,217,11310,1,0,0:3:0:0:
7,250,11460,1,8,0:3:0:0:
64,195,11610,1,0,0:3:0:0:
301,209,11760,5,8,0:3:0:0:
301,209,11910,1,0,0:3:0:0:
211,175,12060,1,8,0:3:0:0:
211,175,12210,1,0,0:0:0:0:
286,37,12360,5,8,0:0:0:0:
226,347,12510,1,8,0:0:0:0:
286,37,12660,5,8,0:0:0:0:
226,347,12810,1,8,0:0:0:0:
294,295,12960,5,8,0:3:0:0:
294,295,13110,1,0,0:3:0:0:
226,347,13260,5,8,0:3:0:0:
208,267,13410,1,2,0:3:0:0:
146,322,13560,5,8,0:3:0:0:
185,191,13710,1,2,0:3:0:0:
106,171,13860,5,8,0:3:0:0:
259,146,14010,1,2,0:3:0:0:
66,89,14160,5,8,0:3:0:0:
330,193,14310,1,2,0:3:0:0:
214,76,14460,5,8,0:3:0:0:
319,273,14610,1,2,0:3:0:0:
286,37,14760,5,8,0:0:0:0:
226,347,14910,1,8,0:0:0:0:
286,37,15060,5,8,0:0:0:0:
226,347,15210,1,8,0:0:0:0:
508,54,15360,21,4,0:3:0:0:
508,54,15660,1,4,0:3:0:0:
508,54,15960,1,4,0:3:0:0:
508,54,16260,1,4,0:3:0:0:
112,79,16560,5,8,0:1:0:0:
446,131,16710,1,8,0:1:0:0:
112,79,16860,1,8,0:0:0:0:
446,131,17010,1,8,0:1:0:0:
308,92,17310,21,8,0:0:0:0:
234,122,17460,1,8,0:1:0:0:
325,332,17760,37,8,0:1:0:0:
391,69,17910,1,8,0:1:0:0:
325,332,18060,1,8,0:0:0:0:
391,69,18210,1,8,0:1:0:0:
350,174,18510,5,8,0:0:0:0:
365,250,18660,1,8,0:1:0:0:
116,247,18960,5,8,0:1:0:0:
429,201,19110,1,8,0:1:0:0:
116,247,19260,1,8,0:0:0:0:
429,201,19410,1,8,0:1:0:0:
308,237,19710,5,8,0:0:0:0:
230,220,19860,1,8,0:1:0:0:
193,58,20160,37,8,0:1:0:0:
230,326,20310,1,8,0:1:0:0:
193,58,20460,1,8,0:0:0:0:
230,326,20610,1,8,0:1:0:0:
193,58,20910,6,0,B|198:95|198:95|201:97|201:97|208:158,1,85,12|0,1:3|1:0,1:0:0:0:
246,292,21060,6,0,P|247:307|238:321,1,31.8750012159348,8|0,1:1|1:0,1:0:0:0:
274,186,21210,22,0,P|299:203|304:234,1,63.7500024318696,8|0,1:3|1:0,1:0:0:0:
230,326,21360,38,0,B|200:338|141:340|82:310|72:227|157:197|180:247,1,255.000009727478,12|8,0:0|0:1,0:0:0:0:
180,248,21810,1,0,0:0:0:0:
324,360,21960,21,8,0:3:0:0:
324,360,22035,1,0,0:0:0:0:
324,360,22110,2,0,P|346:359|366:342,1,42.5,8|0,0:3|0:0,0:0:0:0:
413,274,22260,6,0,P|466:259|493:274,1,63.7500024318696,8|0,0:1|0:0,0:0:0:0:
271,166,22410,2,0,P|310:126|341:126,1,63.7500024318696,8|0,0:1|0:0,0:0:0:0:
375,58,22560,22,0,B|426:66|426:66|431:81|431:81|497:91,1,127.500004863739,8|0,0:3|0:3,0:3:0:0:
164,329,22860,2,0,P|125:310|124:230,1,127.500004863739,8|0,0:1|0:0,0:0:0:0:
271,166,23160,37,0,0:0:0:0:
280,177,23235,1,0,0:0:0:0:
282,191,23310,1,0,0:0:0:0:
276,204,23385,1,0,0:0:0:0:
266,211,23460,22,0,B|235:213|235:213|232:216|232:216|181:222,1,63.7500024318696,8|0,0:1|0:0,0:0:0:0:
444,69,23610,2,0,B|413:62|413:62|410:59|410:59|360:48,1,63.7500024318696,8|0,0:1|0:0,0:0:0:0:
375,58,23760,6,0,B|388:110|388:110|385:117|385:117|402:181,1,127.500004863739
439,345,24060,2,0,B|469:347|469:347|472:354|472:354|518:360,2,63.7500024318696,8|0|0,0:1|0:0|0:1,0:0:0:0:
229,296,24360,21,8,0:3:0:0:
206,261,24435,1,0,0:0:0:0:
207,219,24510,1,8,0:3:0:0:
229,183,24585,1,0,0:0:0:0:
253,148,24660,1,12,0:1:0:0:
261,107,24735,1,0,0:0:0:0:
244,68,24810,2,0,B|242:36|242:36|222:67,1,63.7500024318696,8|0,0:3|0:0,0:0:0:0:
321,242,24960,37,8,0:1:0:0:
358,202,25035,1,0,0:0:0:0:
350,149,25110,1,8,0:0:0:0:
305,126,25185,1,0,0:0:0:0:
253,148,25260,1,8,0:1:0:0:
204,169,25335,1,0,0:0:0:0:
155,142,25410,1,8,0:0:0:0:
150,91,25485,1,0,0:0:0:0:
184,51,25560,22,0,P|205:46|183:56,1,63.7500024318696,4|0,3:2|0:2,0:0:0:0:
440,117,26160,6,0,B|388:71|332:107|332:107|356:130|349:182,1,165.749992412568,12|0,0:3|0:0,0:0:0:0:
230,232,26460,2,0,P|241:163|268:160,1,110.499994941712,8|0,0:0|0:0,0:0:0:0:
389,225,26760,21,0,0:3:0:0:
142,115,26910,1,0,0:2:0:0:
237,31,27060,1,8,0:0:0:0:
237,31,27135,1,0,0:0:0:0:
237,31,27210,38,0,B|243:4|211:-18|211:-18|147:17|147:17|127:67|156:103,1,220.999989883423,12|8,0:3|0:3,0:0:0:0:
295,225,27660,1,8,0:0:0:0:
302,245,27735,1,0,0:0:0:0:
289,263,27810,1,8,0:0:0:0:
99,283,27960,2,0,B|146:269|146:269|156:254|156:254|202:242,1,110.499994941712,8|0,0:3|0:0,0:0:0:0:
209,232,28185,1,0,0:0:0:0:
209,232,28260,6,0,L|196:285,1,42.5,8|0,0:0|0:0,0:0:0:0:
46,0,28410,6,0,L|59:53,1,34,8|0,0:1|0:1,0:1:0:0:
34,140,28560,22,0,B|10:109|26:80|26:80|97:66|97:66|145:112,1,178.499994552612,12|0,0:3|0:0,0:0:0:0:
135,102,28860,2,0,B|124:155|124:155|122:148|122:148|107:223,1,110.499994941712,8|0,0:0|0:0,0:0:0:0:
33,223,29160,37,8,0:3:0:0:
223,97,29310,1,8,0:2:0:0:
33,223,29460,2,0,L|83:214,1,42.5,8|0,0:0|0:0,0:0:0:0:
237,280,29610,22,0,B|265:233|231:188|231:188|149:169|149:169|170:253,1,237.999992736817,12|8,0:3|0:3,0:0:0:0:
285,363,30060,1,8,0:0:0:0:
304,349,30135,1,0,0:0:0:0:
312,324,30210,1,8,0:0:0:0:
162,222,30360,2,0,B|212:230|212:230|218:241|218:241|285:254,1,118.999996368408,8|0,0:3|0:0,0:0:0:0:
409,272,30585,1,0,0:0:0:0:
409,272,30660,6,0,L|451:278,1,42.5,8|0,0:0|0:0,0:0:0:0:
152,217,30810,22,0,L|194:210,1,34,8|0,0:1|0:1,0:1:0:0:
272,251,30960,37,12,0:0:0:0:
132,133,31110,1,8,0:3:0:0:
252,167,31260,21,8,0:0:0:0:
152,217,31410,1,8,0:3:0:0:
394,236,31560,5,8,0:0:0:0:
18,141,31710,1,8,0:3:0:0:
394,236,31860,2,0,L|344:245,1,42.5,8|0,0:0|0:0,0:0:0:0:
187,307,32010,22,0,B|164:264|200:226|200:226|286:196|286:196|263:227|276:272,1,237.999992736817,12|8,0:3|0:3,0:0:0:0:
455,349,32460,2,0,B|391:317|391:317|381:341|344:352,1,110.499994941712,8|0,0:0|0:0,0:0:0:0:
287,375,32760,37,8,0:3:0:0:
476,231,32910,1,8,0:3:0:0:
259,99,33060,1,8,0:0:0:0:
249,127,33135,1,0,0:0:0:0:
261,152,33210,1,8,0:0:0:0:
369,41,33360,21,12,0:3:0:0:
345,123,33510,1,8,0:2:0:0:
29,151,33660,6,0,P|49:216|53:278,1,110.499994941712,8|0,0:0|0:0,0:0:0:0:
476,231,33960,22,0,P|449:293|438:354,1,110.499994941712,8|0,0:0|0:0,0:0:0:0:
13,328,34260,38,0,P|28:351|38:376,1,55.2499974708558,8|0,0:0|0:0,0:0:0:0:
131,322,34410,22,0,B|169:293|155:252|155:252|125:215|66:219|66:219|68:252|38:270,1,220.999989883423,12|8,0:3|0:3,0:0:0:0:
52,258,34860,2,0,B|100:243|100:243|100:239|100:239|158:223,1,110.499994941712,8|0,0:0|0:0,0:0:0:0:
306,364,35160,5,8,0:0:0:0:
306,364,35235,1,0,0:0:0:0:
306,364,35310,2,0,L|315:318,1,34,2|0,0:3|0:0,0:0:0:0:
250,276,35460,6,0,P|240:245|223:212,1,46.7500014266968,8|0,0:0|0:0,0:0:0:0:
403,155,35610,2,0,P|413:124|430:91,1,46.7500014266968,8|0,3:1|3:1,3:1:0:0:
358,48,35760,22,0,B|372:32|397:28|397:28|302:8|302:8|302:45|266:66,1,203.999993774414,12|8,0:3|0:3,0:0:0:0:
122,148,36360,5,10,0:3:0:0:
212,123,36510,1,8,0:3:0:0:
130,152,36660,2,0,P|167:106|225:115,1,101.999996887207,8|8,0:1|0:3,0:0:0:0:
314,189,36960,22,0,P|285:239|273:288,1,101.999996887207,2|8,0:3|0:3,0:0:0:0:
328,190,37260,1,8,0:1:0:0:
193,305,37410,2,0,P|161:249|190:206,1,101.999996887207,8|0,0:3|0:3,0:0:0:0:
472,247,37710,37,8,0:3:0:0:
234,162,37860,1,8,0:0:0:0:
472,247,38010,1,8,0:3:0:0:
401,296,38160,21,12,0:1:0:0:
474,85,38310,1,0,0:0:0:0:
364,4,38460,5,8,0:1:0:0:
411,138,38610,1,0,0:1:0:0:
198,328,38760,5,8,0:1:0:0:
290,198,38910,1,0,0:0:0:0:
193,85,39060,5,8,0:1:0:0:
285,211,39210,1,0,0:0:0:0:
60,304,39360,5,8,0:0:0:0:
151,17,39510,1,8,0:0:0:0:
117,197,39660,5,8,0:0:0:0:
96,121,39810,1,8,0:0:0:0:
423,320,40110,22,0,P|447:300|487:302,1,50.9999984436036,2|2,3:1|0:3,0:0:0:0:
371,380,40410,1,8,0:1:0:0:
371,380,40485,1,8,0:1:0:0:
371,380,40560,38,0,B|389:331|353:306|350:321|327:286|351:238,1,136,14|10,0:0|0:0,0:0:0:0:
432,227,41010,1,0,0:0:0:0:
512,219,41160,2,0,P|473:217|441:195,1,68,10|0,0:0|0:0,0:0:0:0:
340,101,41460,1,10,0:0:0:0:
354,25,41610,22,0,B|375:28|390:13|390:13|386:34|401:54,1,68,10|0,0:0|0:0,0:0:0:0:
284,154,41910,2,0,B|268:139|247:142|247:142|263:127|263:102,1,68,10|0,0:0|0:0,0:0:0:0:
416,90,42210,2,0,B|419:110|438:120|438:120|417:123|402:143,1,68,10|0,0:0|0:0,0:0:0:0:
271,64,42510,2,0,B|280:44|270:25|270:25|289:36|313:28,1,68,10|0,0:0|0:0,0:0:0:0:
298,31,42810,1,2,0:0:0:0:
359,200,42960,6,0,B|385:225|385:225|283:208,1,136,10|10,0:0|0:0,0:0:0:0:
120,177,43410,1,0,0:0:0:0:
222,152,43560,2,0,B|238:136|238:136|183:151,1,68,10|0,0:0|0:0,0:0:0:0:
120,177,43860,1,10,0:0:0:0:
185,249,44010,21,10,0:3:0:0:
110,184,44160,1,0,0:0:0:0:
141,93,44310,37,10,0:1:0:0:
124,190,44460,1,2,0:3:0:0:
29,208,44610,21,10,0:3:0:0:
120,177,44760,1,8,0:1:0:0:
29,208,44910,1,2,0:3:0:0:
212,357,45060,6,0,B|239:358|248:380|248:380|159:346,1,127.5,10|8,0:3|0:1,0:0:0:0:
150,324,45285,1,8,0:1:0:0:
150,324,45360,22,0,P|156:282|203:280,1,68,14|0,0:0|0:0,0:0:0:0:
356,304,45660,2,0,P|316:319|291:280,1,68,10|0,0:0|0:0,0:0:0:0:
235,155,45960,2,0,P|268:181|246:222,1,68,10|0,0:0|0:0,0:0:0:0:
108,176,46260,1,10,0:0:0:0:
175,272,46410,38,0,B|200:253|200:253|188:207,1,68,10|0,0:0|0:0,0:0:0:0:
22,186,46710,2,0,B|9:157|9:157|43:123,1,68,10|0,0:0|0:0,0:0:0:0:
169,117,47010,2,0,B|165:85|165:85|119:73,1,68,10|0,0:0|0:0,0:0:0:0:
107,175,47310,22,0,P|105:209|100:243,1,68,10|0,0:0|0:0,0:0:0:0:
100,165,47610,1,10,0:0:0:0:
33,302,47760,6,0,B|122:319|78:265|169:280,1,136,10|10,0:0|0:0,0:0:0:0:
271,153,48210,1,0,0:0:0:0:
220,216,48360,2,0,P|194:197|188:164,1,68,10|0,0:0|0:0,0:0:0:0:
498,241,48660,21,8,1:1:0:0:
100,165,48810,1,6,1:2:0:0:
498,241,49710,37,2,0:3:0:0:
427,312,49860,22,0,B|419:338|419:338|421:306,1,59.4999981842042,8|8,1:1|0:1,1:0:0:0:
360,76,50010,6,0,B|347:95|347:95|357:121,1,50.9999984436036,8|0,1:1|0:0,0:0:0:0:
429,160,50160,22,0,B|361:148|361:148|338:174|338:174|260:157,1,170,14|10,0:0|0:1,0:0:0:0:
480,93,50610,1,0,0:0:0:0:
273,160,50760,38,0,P|261:195|291:243,1,85,10|0,0:0|0:0,0:0:0:0:
280,236,50985,1,0,0:0:0:0:
280,236,51060,1,8,0:1:0:0:
358,213,51210,22,0,B|396:204|396:204|404:193|404:193|455:184,1,85,10|0,0:0|0:0,0:0:0:0:
196,151,51510,2,0,P|202:110|236:86,1,85,10|8,0:0|0:1,0:0:0:0:
140,277,51810,2,0,B|154:299|154:299|216:310,1,85,10|0,0:0|0:0,0:0:0:0:
117,32,52110,5,2,1:3:0:0:
130,53,52185,1,0,1:0:0:0:
128,78,52260,1,8,1:1:0:0:
58,126,52410,1,2,1:3:0:0:
231,229,52560,22,0,B|226:261|226:261|222:263|222:263|213:309,1,85,10|0,0:0|0:0,0:0:0:0:
199,315,52860,2,0,P|184:264|209:244,1,85,10|0,0:1|0:0,0:0:0:0:
387,322,53160,2,0,P|365:357|324:353,1,85,10|0,0:0|0:0,0:0:0:0:
281,166,53460,37,8,0:1:0:0:
356,194,53610,2,0,P|339:157|299:157,1,85,10|0,0:0|0:0,0:0:0:0:
469,362,53910,21,2,1:3:0:0:
474,337,53985,1,0,1:0:0:0:
479,312,54060,1,8,1:1:0:0:
422,251,54210,1,2,1:0:0:0:
512,219,54360,5,2,1:3:0:0:
367,163,54510,1,2,1:3:0:0:
512,121,54660,1,8,1:1:0:0:
427,89,54810,1,2,1:3:0:0:
427,89,54885,1,8,1:1:0:0:
427,89,54960,21,14,0:0:0:0:
337,63,55110,1,0,0:0:0:0:
298,153,55260,37,10,0:1:0:0:
337,63,55410,1,0,0:0:0:0:
431,93,55560,21,10,0:2:0:0:
337,63,55710,1,0,0:0:0:0:
431,93,55860,1,10,0:1:0:0:
389,177,56010,6,0,B|351:163|328:183|328:183|323:220|281:234,1,127.5,10|0,0:0|0:0,0:0:0:0:
278,230,56310,2,0,P|245:242|246:290,1,85,10|8,0:0|0:1,0:0:0:0:
342,384,56610,22,0,B|323:338|328:288,1,85,10|0,0:0|0:0,0:0:0:0:
103,161,56910,1,8,0:0:0:0:
151,63,57060,2,0,B|155:100|136:146,1,85,8|0,0:1|0:0,0:0:0:0:
201,200,57360,37,10,0:1:0:0:
103,161,57510,1,0,0:0:0:0:
50,314,57660,21,10,0:1:0:0:
264,256,57810,1,0,0:0:0:0:
334,95,57960,5,10,0:1:0:0:
269,243,58110,1,0,0:0:0:0:
407,56,58260,21,10,0:1:0:0:
496,322,58410,2,0,B|460:313|460:313|412:334|438:381,1,101.999996887207,6|0,0:0|0:0,0:0:0:0:
438,368,58860,38,0,B|399:357|399:357|393:361|393:361|351:351,1,85,10|0,0:1|0:0,0:0:0:0:
353,332,59160,2,0,P|332:286|372:249,1,85,10|0,0:0|0:0,0:0:0:0:
372,256,59385,1,0,0:0:0:0:
387,261,59460,1,10,0:3:0:0:
464,213,59610,1,8,0:3:0:0:
328,99,59760,22,0,B|290:63|315:25|315:25|352:4|352:4|345:35|398:90|368:57,1,170,12|0,0:3|0:0,0:0:0:0:
470,97,60210,2,0,B|429:91|397:135,1,68,8|0,0:3|0:0,0:0:0:0:
412,135,60510,1,8,0:3:0:0:
269,42,60660,1,0,0:0:0:0:
199,69,60810,1,8,0:3:0:0:
209,151,60960,6,0,B|190:141|189:116|189:116|174:135|156:136,1,68,10|8,0:3|0:1,0:0:0:0:
157,137,61185,1,0,0:0:0:0:
145,141,61260,5,10,0:1:0:0:
168,220,61410,1,0,0:0:0:0:
89,201,61560,21,10,0:1:0:0:
245,309,61710,1,0,0:0:0:0:
108,279,61860,37,10,0:1:0:0:
332,103,62010,1,0,0:0:0:0:
261,13,62160,22,0,P|256:80|244:176,1,152.999995330811,12|0,0:3|0:0,0:0:0:0:
246,166,63360,6,0,B|288:156|327:104|327:104|274:212|286:341,1,340,12|0,0:0|0:0,0:0:0:0:
290,344,64260,22,0,P|294:327|302:312,1,34,8|0,0:1|0:0,0:0:0:0:
474,281,64560,38,0,B|477:251|477:251|467:281,1,59.4999981842042,12|0,0:1|0:0,0:0:0:0:
453,356,64710,1,8,0:3:0:0:
271,155,64860,21,8,0:1:0:0:
358,295,65010,1,0,0:3:0:0:
341,278,65085,1,0,0:0:0:0:
347,256,65160,1,8,0:1:0:0:
420,216,65310,1,8,0:3:0:0:
257,144,65460,6,0,B|211:153|211:153|210:157|210:157|162:168,1,85,8|0,0:1|0:0,0:0:0:0:
154,148,65685,1,0,0:0:0:0:
170,154,65760,1,8,0:3:0:0:
326,71,65910,2,0,L|277:60,1,42.5,8|0,0:3|0:0,0:0:0:0:
218,0,66060,21,8,0:1:0:0:
347,256,66210,2,0,P|336:288|330:321,1,59.4999981842042,12|8,0:3|0:3,0:0:0:0:
321,325,66660,38,0,B|316:304|316:304|317:303|317:303|311:276,1,50.9999984436036,8|0,0:1|0:0,0:0:0:0:
238,201,66810,22,0,B|232:228|232:228|233:229|233:229|227:250,1,50.9999984436036,8|0,0:1|0:0,0:0:0:0:
9,330,66960,6,0,B|8:305|-12:282|-12:282|29:257|91:258|147:277|185:334|185:334|149:347|135:381,1,331.499984825135,12|0,0:3|0:0,0:0:0:0:
138,372,68160,22,0,B|131:320|131:320|118:309|118:309|111:251,1,118.999996368408,14|0,0:0|0:0,0:0:0:0:
122,247,68460,2,0,P|163:275|145:319,1,85,10|0,0:0|0:0,0:0:0:0:
57,128,68760,5,10,0:0:0:0:
49,99,68835,1,0,0:0:0:0:
32,74,68910,1,8,0:0:0:0:
201,92,69060,2,0,P|206:49|218:10,1,68,10|0,0:0|0:0,0:0:0:0:
106,0,69360,38,0,B|120:61,1,50.9999984436036,8|0,0:1|0:0,0:0:0:0:
448,186,69510,2,0,B|505:174|505:174|445:200,1,101.999996887207,8|8,0:0|0:3,0:0:0:0:
464,191,69810,22,0,L|512:205,1,50.9999984436036,8|0,0:0|0:0,0:0:0:0:
384,234,69960,1,8,0:3:0:0:
319,196,70110,6,0,L|367:210,1,50.9999984436036,8|0,0:0|0:0,0:0:0:0:
464,191,70260,1,8,0:3:0:0:
253,73,70410,22,0,L|301:87,1,50.9999984436036,8|0,0:0|0:0,0:0:0:0:
185,219,70560,1,8,0:3:0:0:
118,179,70710,38,0,L|166:193,1,50.9999984436036,8|0,0:0|0:0,0:0:0:0:
247,312,70860,5,10,0:3:0:0:
32,176,71010,1,8,0:3:0:0:
253,73,71160,1,10,0:0:0:0:
64,25,71310,5,8,0:0:0:0:
340,172,71460,1,10,0:3:0:0:
76,329,71610,1,10,0:3:0:0:
169,359,71760,22,0,P|156:378|160:358,1,59.4999981842042,12|0,0:1|0:0,0:0:0:0:
165,367,72360,1,4,0:3:0:0:
165,367,72960,1,4,0:3:0:0:
38,47,73560,38,0,B|54:33|61:1|61:1|67:36|46:56,1,101.999996887207,6|0,0:0|0:0,0:0:0:0:
47,199,74010,22,0,B|18:125|81:80|81:80|158:104|158:104|137:109|125:126,1,237.999992736817,14|0,0:3|0:0,0:0:0:0:
155,294,74460,2,0,B|175:233|175:233|170:232|170:232|187:186,1,118.999996368408,8|0,0:0|0:0,0:0:0:0:
266,152,74760,5,10,0:3:0:0:
72,320,74910,1,8,0:3:0:0:
70,343,74985,1,0,0:0:0:0:
91,356,75060,1,8,0:0:0:0:
422,260,75210,22,0,B|464:227|448:181|448:181|415:140|349:145|349:145|354:176|329:196,1,237.999992736817,10|8,0:3|0:3,0:0:0:0:
342,181,75585,1,0,0:0:0:0:
342,182,75660,1,8,0:0:0:0:
432,43,75810,1,8,0:2:0:0:
494,88,75960,38,0,B|438:70,1,42.5,10|0,0:3|0:0,0:0:0:0:
215,193,76110,22,0,B|241:204|241:204|245:204|245:204|274:217,1,59.4999981842042,10|0,0:3|0:0,0:0:0:0:
349,189,76260,1,8,0:0:0:0:
235,365,76410,6,0,B|164:363|155:295|155:295|183:244|183:244|186:244|186:244|219:187,1,237.999992736817,14|8,0:3|0:3,0:0:0:0:
116,88,76860,2,0,P|104:158|151:159,1,118.999996368408,10|0,0:0|0:0,0:0:0:0:
260,123,77160,37,10,0:3:0:0:
21,184,77310,1,10,0:3:0:0:
1,158,77385,1,0,0:0:0:0:
8,129,77460,1,8,0:0:0:0:
371,359,77610,22,0,B|495:321|495:321|522:278|494:232|444:227,1,237.999992736817,10|8,0:3|0:3,0:0:0:0:
465,232,77985,1,0,0:0:0:0:
465,232,78060,1,10,0:0:0:0:
238,281,78210,1,8,0:2:0:0:
281,349,78360,5,8,0:3:0:0:
230,277,78510,1,8,0:3:0:0:
287,209,78660,1,8,0:0:0:0:
35,64,78810,22,0,B|57:50|71:17|71:17|192:46|192:46|189:82|208:114,1,237.999992736817,14|8,0:3|0:3,0:0:0:0:
186,194,79185,1,0,0:0:0:0:
186,194,79260,2,0,B|163:209|144:235|144:235|148:198|143:175,1,118.999996368408,10|0,0:0|0:0,0:0:0:0:
200,98,79560,37,10,0:3:0:0:
61,209,79710,1,10,0:3:0:0:
61,209,79785,1,0,0:0:0:0:
61,209,79860,1,8,0:0:0:0:
366,180,80010,22,0,B|372:152|338:128|338:128|269:166|269:166|248:219|279:258,1,237.999992736817,10|8,0:3|0:3,0:0:0:0:
410,273,80385,1,0,0:0:0:0:
410,273,80460,2,0,B|430:238|430:238|347:277,1,118.999996368408,10|0,0:0|0:0,0:0:0:0:
310,337,80760,5,10,0:3:0:0:
444,156,80910,1,10,0:3:0:0:
310,337,81060,1,8,0:0:0:0:
200,98,81210,22,0,B|241:77|245:32|245:32|348:11|348:11|365:39|385:39,1,237.999992736817,14|8,0:3|0:3,0:0:0:0:
462,16,81585,1,0,0:0:0:0:
462,16,81660,1,10,0:0:0:0:
316,107,81810,1,2,0:3:0:0:
373,201,81960,38,0,L|381:160,1,42.5,10|0,0:3|0:0,0:0:0:0:
105,17,82110,22,0,B|109:47|109:47|108:51|108:51|113:86,1,59.4999981842042,10|0,0:3|0:0,0:0:0:0:
170,196,82260,1,8,0:0:0:0:
21,152,82410,6,0,B|22:121|45:99|45:99|169:134|169:134|140:161|151:205,1,237.999992736817,14|8,0:3|0:3,0:0:0:0:
148,177,82785,1,0,0:0:0:0:
148,177,82860,1,8,0:0:0:0:
74,221,83010,1,8,0:2:0:0:
333,99,83160,21,10,0:3:0:0:
70,208,83310,1,10,0:3:0:0:
426,354,83460,1,10,0:1:0:0:
165,164,83610,38,0,B|142:121|178:83|178:83|264:53|264:53|241:84|254:129,1,237.999992736817,14|8,0:3|0:3,0:0:0:0:
336,235,83985,1,0,0:0:0:0:
336,235,84060,2,0,B|309:228|297:177|297:177|291:206|269:216,1,118.999996368408,10|0,0:0|0:0,0:0:0:0:
489,168,84360,21,10,0:3:0:0:
267,350,84510,1,10,0:3:0:0:
273,325,84585,1,0,0:0:0:0:
278,301,84660,1,8,0:1:0:0:
165,164,84810,6,0,B|172:138|156:119|156:119|60:152|60:152|84:193|61:237,1,237.999992736817,10|8,0:3|0:3,0:0:0:0:
62,237,85185,1,0,0:0:0:0:
62,237,85260,1,8,0:0:0:0:
285,85,85410,1,8,0:2:0:0:
230,20,85560,21,10,0:3:0:0:
367,103,85710,1,10,0:3:0:0:
165,164,85860,1,10,0:0:0:0:
428,287,86010,38,0,B|442:320|421:348|421:348|299:370|299:370|268:350|275:312,1,237.999992736817,14|8,0:3|0:3,0:0:0:0:
308,187,86385,1,0,0:0:0:0:
312,191,86460,2,0,B|367:218|367:218|342:277,1,118.999996368408,10|0,0:0|0:0,0:0:0:0:
273,329,86760,21,10,0:3:0:0:
442,175,86910,2,0,P|449:145|462:119,1,59.4999981842042,10|0,0:0|0:0,0:0:0:0:
291,2,87060,2,0,P|305:29|311:58,1,59.4999981842042,8|0,0:0|0:0,0:0:0:0:
368,122,87210,6,8,B|329:115|312:85|312:85|212:108|212:108|202:148|168:171,1,237.999992736817,14|8,0:3|0:3,0:3:0:0:
178,163,87585,1,0,0:0:0:0:
178,163,87660,1,8,0:0:0:0:
423,288,87810,1,8,0:2:0:0:
324,331,87960,5,10,0:3:0:0:
311,297,88035,1,0,0:0:0:0:
313,262,88110,1,10,0:3:0:0:
327,229,88185,1,0,0:0:0:0:
353,205,88260,1,8,0:0:0:0:
129,79,88410,6,0,B|135:51|101:27|101:27|32:65|32:65|11:118|42:157,1,237.999992736817,14|8,0:3|0:3,0:0:0:0:
41,156,88785,1,0,0:0:0:0:
41,156,88860,1,8,0:0:0:0:
271,240,89010,1,8,0:2:0:0:
119,216,89160,5,8,0:3:0:0:
198,184,89310,1,10,0:3:0:0:
119,216,89460,1,8,0:0:0:0:
454,307,89610,6,0,B|454:345|425:364|425:364|364:356|326:309|326:309|353:282|357:233,1,237.999992736817,10|8,0:3|0:3,0:0:0:0:
351,262,89985,1,0,0:0:0:0:
351,262,90060,1,8,0:0:0:0:
309,194,90210,1,8,0:2:0:0:
392,158,90360,5,8,0:3:0:0:
215,88,90510,1,10,0:3:0:0:
392,158,90660,1,10,0:0:0:0:
305,24,90810,37,6,0:3:0:0:
305,41,90885,1,0,0:0:0:0:
296,54,90960,1,8,0:0:0:0:
226,8,91110,1,8,0:3:0:0:
359,124,91260,5,8,0:0:0:0:
173,191,91410,1,8,0:3:0:0:
414,189,91560,5,8,0:0:0:0:
120,60,91710,1,8,0:3:0:0:
321,239,91860,5,8,0:0:0:0:
50,315,92010,1,8,0:3:0:0:
199,383,92160,5,8,0:0:0:0:
243,367,92235,1,0,0:0:0:0:
270,328,92310,1,8,0:3:0:0:
260,281,92385,1,0,0:0:0:0:
219,255,92460,1,8,0:0:0:0:
187,219,92535,1,0,0:0:0:0:
180,171,92610,1,8,0:3:0:0:
216,140,92685,1,0,0:0:0:0:
262,130,92760,6,0,P|264:98|273:70,1,59.4999981842042,10|0,0:1|0:0,0:0:0:0:
192,53,92910,2,0,P|188:83|178:111,1,59.4999981842042,10|0,0:1|0:0,0:0:0:0:
426,235,93060,6,0,P|415:208|411:178,1,59.4999981842042,8|0,0:1|0:0,0:0:0:0:
328,194,93210,2,0,P|338:221|342:251,1,59.4999981842042,10|0,0:1|0:0,0:0:0:0:
303,327,93360,5,6,0:3:0:0:
378,366,93660,1,8,0:2:0:0:
456,345,93960,1,8,0:2:0:0:
492,273,94260,1,8,0:2:0:0:
14,339,94560,5,6,0:1:0:0:
115,372,95160,22,0,P|97:377|116:367,1,63.75,2|0,0:0|0:0,0:0:0:0:
52,26,95760,37,10,0:1:0:0:
249,112,95910,1,8,0:3:0:0:
72,230,96060,1,8,0:0:0:0:
119,130,96210,1,8,1:1:0:0:
119,130,96285,1,0,1:0:0:0:
119,130,96360,1,8,1:3:0:0:
295,217,96510,21,8,0:3:0:0:
172,27,96660,1,8,1:1:0:0:
172,27,96735,1,0,1:0:0:0:
172,27,96810,1,8,3:3:0:0:
273,5,96960,5,10,0:1:0:0:
171,245,97110,1,10,0:3:0:0:
273,5,97260,1,8,0:0:0:0:
227,130,97410,1,8,1:1:0:0:
227,130,97485,1,0,1:0:0:0:
227,130,97560,1,8,1:3:0:0:
409,207,97710,21,8,0:3:0:0:
350,113,97860,1,8,1:1:0:0:
350,113,97935,1,0,1:0:0:0:
350,113,98010,1,8,3:3:0:0:
162,299,98160,37,10,0:1:0:0:
278,12,98310,1,10,0:3:0:0:
483,244,98460,1,10,0:0:0:0:
256,354,98610,1,8,1:1:0:0:
256,354,98685,1,0,1:0:0:0:
256,354,98760,1,8,1:3:0:0:
217,137,98910,21,8,0:3:0:0:
350,384,99060,1,8,1:1:0:0:
350,384,99135,1,0,1:0:0:0:
350,384,99210,1,8,3:3:0:0:
474,142,99360,5,10,0:1:0:0:
506,313,99510,1,8,1:3:0:0:
389,84,99660,21,10,0:1:0:0:
334,372,99810,1,8,0:3:0:0:
197,33,99960,37,10,0:1:0:0:
239,358,100110,1,8,0:3:0:0:
108,62,100260,22,0,L|119:4,1,59.4999981842042,10|0,0:1|0:0,0:0:0:0:
85,182,100410,2,0,L|93:141,1,42.5,10|0,0:1|0:0,0:0:0:0:
3,235,100560,6,0,B|120:214|120:214|139:247|178:251,1,165.749992412568,12|0,0:0|0:0,0:0:0:0:
265,124,100860,2,0,P|206:128|195:186,1,110.499994941712,8|0,0:1|0:0,0:0:0:0:
350,118,101160,21,8,0:0:0:0:
154,245,101310,1,8,0:0:0:0:
400,360,101460,1,8,0:1:0:0:
400,360,101535,1,0,0:0:0:0:
400,360,101610,38,0,B|382:341|378:320|378:320|322:309|322:309|298:334|262:337,1,165.749992412568,12|0,0:0|0:0,0:0:0:0:
260,343,101910,2,0,L|319:356,1,55.2499974708558,8|0,0:3|0:0,0:0:0:0:
447,271,102060,21,8,0:1:0:0:
264,154,102210,1,8,0:0:0:0:
453,78,102360,1,8,0:0:0:0:
387,30,102510,1,8,0:0:0:0:
387,30,102585,1,0,0:0:0:0:
387,30,102660,6,0,B|378:56|378:56|380:59|380:59|368:96,1,55.2499974708558,8|0,0:1|0:0,0:0:0:0:
210,282,102810,22,0,L|225:335,1,42.5,8|0,0:1|0:0,0:0:0:0:
260,345,102960,37,12,0:1:0:0:
442,310,103110,1,0,0:0:0:0:
407,230,103260,21,8,0:1:0:0:
254,181,103410,1,0,0:0:0:0:
335,143,103560,5,8,0:1:0:0:
261,336,103710,1,0,0:0:0:0:
233,2,103860,21,8,0:1:0:0:
261,87,104010,1,0,0:0:0:0:
92,183,104160,37,8,0:3:0:0:
303,255,104310,1,8,0:3:0:0:
224,206,104460,5,8,0:3:0:0:
333,162,104610,1,8,0:3:0:0:
233,2,104760,6,0,P|211:-3|184:-5,2,38.2499988327027,8|0|8,0:1|0:0|0:3,0:0:0:0:
490,96,105060,1,8,0:1:0:0:
490,96,105135,1,0,0:0:0:0:
490,96,105210,1,8,0:3:0:0:
438,18,105360,22,0,B|384:-13|330:8|330:8|319:48|280:59,1,170,14|10,0:0|0:1,0:0:0:0:
490,96,105810,1,0,0:0:0:0:
416,143,105960,2,0,P|394:118|346:115,1,68,10|0,0:0|0:0,0:0:0:0:
361,111,106260,1,8,0:1:0:0:
160,151,106410,38,0,B|155:117|138:95|138:95|150:106|179:113,1,93.5000028533936,10|0,0:0|0:0,0:0:0:0:
274,277,106710,2,0,B|290:270|307:271|307:271|280:264|257:240,1,93.5000028533936,10|8,0:0|0:1,0:0:0:0:
126,225,107010,2,0,B|92:218|66:228|66:228|81:219|96:194,1,93.5000028533936,10|0,0:0|0:0,0:0:0:0:
281,154,107310,2,0,B|279:137|285:122|285:122|270:145|240:160,1,93.5000028533936,10|8,0:0|0:1,0:0:0:0:
188,291,107610,21,2,0:3:0:0:
188,291,107685,1,0,0:0:0:0:
188,291,107760,2,0,P|170:336|197:365,1,68,10|0,0:0|0:0,0:0:0:0:
331,257,108060,2,0,P|283:263|271:301,1,68,10|0,0:1|0:0,0:0:0:0:
431,363,108360,2,0,P|401:324|362:333,1,68,10|0,0:0|0:0,0:0:0:0:
385,322,108660,1,8,0:1:0:0:
289,377,108810,5,10,0:0:0:0:
237,307,108960,1,0,0:0:0:0:
293,237,109110,21,10,0:0:0:0:
239,299,109260,1,8,0:1:0:0:
298,231,109410,1,2,0:0:0:0:
238,160,109560,38,0,B|228:147|227:128|227:128|219:146|202:156,1,68,2|8,0:3|0:1,0:0:0:0:
285,25,110085,5,8,0:1:0:0:
285,25,110160,2,0,B|335:23|335:23|293:33,1,93.5000028533936,14|0,0:0|0:0,0:0:0:0:
396,88,110460,2,0,B|423:53|423:53|401:98,1,93.5000028533936,10|0,0:1|0:0,0:0:0:0:
379,206,110760,2,0,B|421:194|421:194|371:195,1,93.5000028533936,10|0,0:0|0:0,0:0:0:0:
372,196,111060,1,10,0:1:0:0:
259,193,111210,5,10,0:0:0:0:
313,144,111360,1,0,0:0:0:0:
181,205,111510,21,10,0:0:0:0:
274,268,111660,1,8,0:1:0:0:
100,211,111810,37,10,0:0:0:0:
129,140,111960,1,8,0:0:0:0:
24,224,112110,21,10,0:0:0:0:
144,275,112260,1,8,0:1:0:0:
24,224,112410,1,2,0:0:0:0:
138,375,112560,6,0,P|144:319|163:268,1,93.5000028533936,10|0,0:0|0:0,0:0:0:0:
83,66,112860,2,0,P|28:67|1:121,1,93.5000028533936,10|0,0:1|0:0,0:0:0:0:
118,158,113160,21,10,0:1:0:0:
129,140,113235,1,0,0:0:0:0:
148,131,113310,1,12,0:0:0:0:
24,224,113460,1,10,0:3:0:0:
209,196,113610,38,0,P|233:155|236:118,1,59.4999981842042,8|0,0:1|0:0,0:0:0:0:
301,223,113910,22,0,P|324:212|350:209,1,42.5,8|0,0:1|0:0,0:0:0:0:
344,96,114210,6,0,P|361:52|365:1,1,76.4999976654053,8|0,0:1|0:0,0:0:0:0:
421,244,114510,22,0,P|441:283|452:326,1,89.2499972763062,12|0,0:1|0:0,0:0:0:0:
463,328,114810,1,8,0:3:0:0:
487,173,114960,38,0,P|495:114|509:56,1,118.999996368408,12|0,0:3|0:0,0:0:0:0:
367,62,115410,1,8,0:3:0:0:
436,17,115560,22,0,P|460:30|468:51,1,51,8|8,0:1|0:0,0:0:0:0:
296,104,115860,6,0,B|254:140|285:204|285:204|313:209|332:229,1,152.999995330811,10|8,0:3|0:1,0:0:0:0:
333,224,116160,22,0,P|341:245|337:265,1,34,8|8,0:3|0:0,0:0:0:0:
398,307,116460,2,0,P|393:338|368:352,1,59.4999981842042,10|10,0:3|0:3,0:0:0:0:
22,266,116760,37,8,0:1:0:0:
4,246,116835,1,2,0:3:0:0:
8,220,116910,1,10,0:3:0:0:
67,158,117060,21,8,0:3:0:0:
213,298,117210,2,0,B|269:273|327:267,1,118.999996368408,8|8,0:1|0:0,0:0:0:0:
139,255,117510,5,2,0:3:0:0:
333,262,117660,2,0,P|336:231|291:203,1,68,10|8,0:3|0:0,0:0:0:0:
309,200,117960,22,0,P|297:188|298:165,1,34,8|8,0:1|0:0,0:0:0:0:
250,108,118260,2,0,P|256:82|288:66,1,50.9999984436036,10|8,0:3|0:1,0:0:0:0:
364,147,118560,37,10,0:3:0:0:
213,298,118710,2,0,B|216:316|216:316|216:320|216:320|220:339,1,42.5,14|8,0:3|0:0,0:0:0:0:
236,357,119010,1,8,0:1:0:0:
124,314,119160,22,0,P|96:281|44:272,1,68,8|8,0:3|0:1,0:0:0:0:
254,221,119460,6,0,P|279:138|335:112,1,136,8|2,0:1|0:3,0:0:0:0:
103,15,119760,21,6,0:0:0:0:
464,347,121710,38,0,B|502:342|502:342|465:360,1,68,8|0,0:1|0:0,0:0:0:0:
453,360,122160,22,0,B|420:314|452:268|452:268|484:261|501:215,1,152.999995330811,14|10,0:0|0:1,0:0:0:0:
491,221,122610,1,0,0:0:0:0:
342,86,122760,5,10,0:0:0:0:
458,62,122910,1,8,0:0:0:0:
353,90,123060,21,10,0:1:0:0:
433,156,123210,2,0,B|460:125|438:90|438:90|344:74,1,152.999995330811,10|0,0:0|0:0,0:0:0:0:
54,49,123660,37,8,0:1:0:0:
117,1,123810,1,0,0:0:0:0:
135,20,123885,1,0,0:0:0:0:
134,46,123960,1,8,0:1:0:0:
4,114,124110,1,8,0:3:0:0:
162,236,124260,22,0,B|170:213|170:213|169:209|169:209|179:180,1,59.4999981842042,8|0,0:3|0:0,0:0:0:0:
87,128,124410,6,0,L|95:156,1,29.7499990921021,8|0,0:1|0:0,0:0:0:0:
91,308,124560,22,0,B|158:296|158:296|177:263|177:263|252:249,1,178.499994552612,12|0,0:3|0:0,0:0:0:0:
309,21,125760,38,0,B|259:12|259:12|259:14|259:14|214:7,1,98.1749970039369,12|0,0:3|0:0,0:0:0:0:
329,9,126660,21,10,0:0:0:0:
499,136,126960,6,0,B|479:140|479:140|478:139|478:139|449:145,1,50.9999984436036,12|0,0:3|0:0,0:3:0:0:
425,128,127110,1,8,0:3:0:0:
490,220,127260,21,8,0:1:0:0:
264,143,127410,1,8,0:3:0:0:
260,117,127485,1,0,0:0:0:0:
273,94,127560,1,8,0:3:0:0:
343,136,127710,1,8,0:3:0:0:
383,27,127860,38,0,B|369:79|369:79|370:84|370:84|351:164,1,101.999996887207,8|0,0:0|0:0,0:0:0:0:
270,246,128160,1,8,0:3:0:0:
234,281,128235,1,0,0:0:0:0:
246,329,128310,1,8,0:0:0:0:
282,355,128385,1,0,0:0:0:0:
295,347,128460,22,0,P|287:326|286:309,1,34,8|0,0:0|0:0,0:0:0:0:
181,53,128610,6,0,P|175:86|163:118,1,68,12|0,0:3|0:0,0:0:0:0:
163,119,129060,22,0,B|176:115|176:115|178:114|178:114|195:110,1,34,8|0,0:0|0:0,0:0:0:0:
169,322,129210,6,0,B|162:292|162:292|160:288|160:288|155:265,1,59.4999981842042,8|0,0:0|0:0,0:0:0:0:
310,222,129360,22,0,B|289:169|289:169|166:147|166:147|123:194,1,238,12|0,0:0|0:0,0:0:0:0:
128,188,130560,6,0,B|118:203|123:231|123:231|110:203|74:204,1,85,10|0,0:0|0:0,0:0:0:0:
189,34,130860,2,0,B|206:35|228:16|228:16|210:42|229:72,1,85,10|0,0:0|0:0,0:0:0:0:
123,103,131160,1,2,0:0:0:0:
123,103,131235,1,0,0:0:0:0:
123,103,131310,1,8,0:0:0:0:
28,78,131460,2,0,B|20:61|-7:52|-7:52|24:54|41:23,1,85,10|0,0:1|0:0,0:0:0:0:
28,78,131760,22,0,P|38:105|44:134,1,59.4999981842042
190,187,131910,38,0,P|180:214|174:243,1,59.4999981842042,8|0,0:0|0:0,0:0:0:0:
101,194,132060,1,8,0:3:0:0:
279,154,132210,22,0,P|267:127|262:98,1,59.4999981842042,8|0,0:0|0:0,0:0:0:0:
101,194,132360,1,8,0:3:0:0:
285,259,132510,6,0,P|274:286|268:315,1,59.4999981842042,8|0,0:0|0:0,0:0:0:0:
195,269,132660,1,8,0:3:0:0:
362,206,132810,22,0,P|367:235|380:263,1,59.4999981842042,8|0,0:0|0:0,0:0:0:0:
291,77,132960,1,8,0:3:0:0:
383,70,133110,38,0,P|370:97|364:126,1,59.4999981842042,8|0,0:0|0:0,0:0:0:0:
291,77,133260,1,10,0:3:0:0:
383,70,133410,21,8,0:3:0:0:
232,6,133560,1,10,0:0:0:0:
362,206,133710,5,8,0:3:0:0:
406,219,133785,1,0,0:0:0:0:
451,205,133860,1,10,0:0:0:0:
479,167,133935,1,0,0:0:0:0:
481,121,134010,1,8,0:3:0:0:
455,81,134085,1,0,0:0:0:0:
440,90,134160,22,0,P|437:112|450:93,1,59.4999981842042,12|0,0:1|0:0,0:0:0:0:
451,108,134459,1,4,0:3:0:0:
451,108,134759,1,4,0:3:0:0:
451,108,135059,1,4,0:3:0:0:
185,356,135360,37,12,0:0:0:0:
384,252,135510,1,8,0:3:0:0:
384,252,135585,1,0,0:0:0:0:
384,252,135660,1,12,0:0:0:0:
67,150,135810,1,8,0:3:0:0:
458,39,135960,6,0,B|459:9|481:0|482:11|502:9|521:-13|521:-13|457:63|435:125|487:186|487:186|491:164|503:149,1,340
496,163,136410,6,0,B|517:148|517:148|512:82|464:29|384:50|384:50|382:88|342:105,1,272,14|8,0:3|0:3,0:0:0:0:
227,175,136785,1,0,0:0:0:0:
227,175,136860,2,0,B|237:169|253:147|253:147|316:163|316:163|318:184|330:197,1,136,8|0,0:0|0:0,0:0:0:0:
203,78,137160,21,10,0:3:0:0:
406,180,137310,1,10,0:3:0:0:
414,212,137385,1,0,0:0:0:0:
397,242,137460,1,8,0:1:0:0:
48,362,137610,38,0,B|81:309|53:248|53:248|154:217|154:217|139:261,1,272,10|8,0:3|0:3,0:0:0:0:
234,377,137985,1,0,0:0:0:0:
234,377,138060,2,0,B|200:363|188:325|188:325|182:361|145:383,1,136,8|0,0:0|0:0,0:0:0:0:
286,246,138360,22,0,B|278:273|278:273|278:269|278:269|268:303,1,68,10|0,0:3|0:0,0:0:0:0:
55,115,138510,6,0,B|68:155,1,42.5,10|0,0:3|0:0,0:0:0:0:
103,49,138660,1,8,0:0:0:0:
56,240,138810,22,0,B|84:222|85:182|85:182|223:150|223:150|244:184|286:184,1,272,14|8,0:3|0:3,0:0:0:0:
274,183,139185,1,0,0:0:0:0:
274,183,139260,1,10,0:1:0:0:
201,240,139410,1,8,0:2:0:0:
512,349,139560,37,10,0:3:0:0:
281,191,139710,1,10,0:3:0:0:
281,191,139785,1,0,0:0:0:0:
281,191,139860,1,8,0:1:0:0:
492,266,140010,22,0,B|356:234|356:234|337:273|290:273,1,204,10|0,0:3|0:0,0:0:0:0:
307,271,140310,2,0,B|340:279|340:279|341:281|341:281|384:291,1,68,10|0,0:3|0:0,0:0:0:0:
438,164,140460,5,10,0:0:0:0:
148,292,140610,1,8,0:1:0:0:
173,299,140685,1,8,0:1:0:0:
200,306,140760,1,8,0:3:0:0:
50,329,140910,21,8,0:3:0:0:
307,271,141060,1,8,0:1:0:0:
14,174,141210,38,0,B|-8:142|19:112|19:112|166:140|166:140|158:167|173:192,1,272,14|8,0:3|0:3,0:0:0:0:
50,329,141585,1,0,0:0:0:0:
50,329,141660,2,0,B|10:299|24:260|24:260|96:226,1,136,10|0,0:1|0:0,0:0:0:0:
250,153,141960,21,10,0:3:0:0:
134,307,142110,1,10,0:3:0:0:
134,307,142185,1,0,0:0:0:0:
134,307,142260,1,8,0:1:0:0:
390,90,142410,6,0,B|382:66|389:24|389:24|310:77|310:77|349:194,1,272,10|8,0:3|0:3,0:0:0:0:
478,238,142785,1,0,0:0:0:0:
478,238,142860,2,0,P|476:167|417:177,1,136,10|0,0:1|0:0,0:0:0:0:
399,251,143160,21,10,0:3:0:0:
211,338,143310,1,10,0:3:0:0:
399,251,143460,1,8,0:1:0:0:
22,108,143610,38,0,B|48:49|48:49|195:26|195:26|209:55|245:70,1,272,14|8,0:3|0:3,0:0:0:0:
164,118,143985,1,0,0:0:0:0:
164,118,144060,1,8,0:1:0:0:
335,286,144210,1,8,0:2:0:0:
252,362,144360,22,0,L|261:320,1,42.5,10|0,0:3|0:0,0:0:0:0:
303,106,144510,6,0,B|311:74|311:74|310:69|310:69|323:19,1,68,10|0,0:3|0:0,0:0:0:0:
235,150,144660,1,8,0:0:0:0:
473,154,144810,22,0,B|516:112|494:53|494:53|415:9|415:9|411:54|391:75,1,272,14|8,0:3|0:3,0:0:0:0:
391,74,145185,1,0,0:0:0:0:
391,74,145260,1,8,0:1:0:0:
512,236,145410,1,8,0:2:0:0:
264,107,145560,37,10,0:3:0:0:
233,131,145635,1,0,0:0:0:0:
218,165,145710,1,10,0:1:0:0:
220,204,145785,1,0,0:0:0:0:
236,238,145860,1,10,0:0:0:0:
51,279,146010,22,0,B|7:258|20:192|20:192|59:131|139:147|139:147|132:172|147:199,1,272,14|8,0:3|0:3,0:0:0:0:
165,376,146385,1,0,0:0:0:0:
165,376,146460,2,0,B|140:349|134:299|134:299|124:329|108:344,1,136,10|0,0:0|0:0,0:0:0:0:
26,359,146760,5,10,0:3:0:0:
224,161,146910,1,10,0:3:0:0:
228,125,146985,1,0,0:0:0:0:
210,96,147060,1,8,0:0:0:0:
433,59,147210,22,0,B|391:28|382:4|382:4|305:22|305:22|309:60|275:82,1,204,14|0,0:3|0:0,0:0:0:0:
291,67,147510,2,0,B|321:78|321:78|325:81|325:81|365:95,1,68,10|0,0:3|0:0,0:0:0:0:
427,140,147660,37,10,0:0:0:0:
165,280,147810,1,8,0:0:0:0:
165,280,147885,1,8,0:0:0:0:
165,280,147960,1,10,0:3:0:0:
322,195,148110,21,10,0:3:0:0:
225,346,148260,1,8,0:1:0:0:
52,255,148410,6,0,B|87:231|95:178|95:178|236:195|236:195|237:220|253:249,1,272,14|8,0:3|0:3,0:0:0:0:
245,233,148785,1,0,0:0:0:0:
245,233,148860,1,10,0:0:0:0:
160,270,149010,1,8,0:2:0:0:
362,57,149160,21,10,0:3:0:0:
251,240,149310,1,10,0:3:0:0:
434,351,149460,1,8,0:0:0:0:
299,110,149610,38,0,B|275:89|279:50|279:50|142:15|142:15|126:47|94:57,1,272,14|8,0:3|0:3,0:0:0:0:
94,56,149985,1,0,0:0:0:0:
94,56,150060,1,8,0:0:0:0:
259,210,150210,1,8,0:2:0:0:
17,273,150360,21,10,0:3:0:0:
191,126,150510,1,10,0:3:0:0:
191,126,150585,1,0,0:0:0:0:
191,126,150660,1,8,0:0:0:0:
463,310,150810,6,0,B|476:345|442:377|442:377|342:343|342:343|308:304|336:259,1,272,14|8,0:3|0:3,0:0:0:0:
476,207,151185,1,0,0:0:0:0:
476,207,151260,2,0,B|462:195|453:161|453:161|443:216|416:236,1,136,8|0,0:0|0:0,0:0:0:0:
504,97,151560,21,10,0:3:0:0:
301,275,151710,1,10,0:3:0:0:
504,97,151860,1,8,0:0:0:0:
167,121,152010,38,0,B|121:84|134:27|134:27|239:-1|239:-1|241:32|268:50,1,272,10|8,0:3|0:3,0:0:0:0:
264,47,152385,1,0,0:0:0:0:
264,47,152460,1,8,0:0:0:0:
133,194,152610,1,0,0:0:0:0:
269,319,152760,21,10,0:3:0:0:
184,341,152910,1,10,0:3:0:0:
269,319,153060,1,8,0:0:0:0:
43,66,153210,5,14,0:3:0:0:
58,44,153285,1,0,0:0:0:0:
82,41,153360,1,8,0:0:0:0:
204,260,153510,1,8,0:3:0:0:
106,118,153660,21,8,0:0:0:0:
54,343,153810,1,8,0:3:0:0:
184,52,153960,37,8,0:0:0:0:
248,332,154110,1,8,0:3:0:0:
433,128,154260,21,8,0:0:0:0:
336,371,154410,1,8,0:3:0:0:
209,251,154560,5,8,3:1:0:0:
178,208,154635,1,0,3:1:0:0:
190,157,154710,1,8,3:3:0:0:
239,139,154785,1,0,3:1:0:0:
285,163,154860,1,8,3:1:0:0:
335,151,154935,1,0,3:1:0:0:
363,108,155010,1,8,3:3:0:0:
347,58,155085,1,0,3:1:0:0:
274,27,155160,21,8,0:1:0:0:
274,27,155235,1,0,0:0:0:0:
274,27,155310,2,0,L|265:66,1,25.4999992218018,8|0,0:1|0:0,0:0:0:0:
316,323,155460,37,8,0:1:0:0:
316,323,155535,1,0,0:0:0:0:
316,323,155610,2,0,B|325:284|325:284|327:284|327:284|334:254,1,72.2500013780594,8|0,0:1|0:0,0:0:0:0:
405,214,155760,21,14,0:1:0:0:
203,170,155910,1,0,1:3:0:0:
358,111,156060,5,10,0:1:0:0:
200,177,156210,1,8,1:3:0:0:
262,97,156360,21,10,0:1:0:0:
159,83,156510,1,0,1:3:0:0:
259,106,156660,37,10,0:1:0:0:
99,173,156810,1,0,1:3:0:0:
246,269,156960,21,14,0:1:0:0:
159,83,157110,1,0,1:3:0:0:
246,269,157260,1,8,0:1:0:0:
133,364,157410,5,10,1:3:0:0:
161,288,157560,1,8,0:1:0:0:
310,203,157710,21,10,1:3:0:0:
159,83,157860,1,8,0:1:0:0:
81,253,158010,1,2,1:3:0:0:
0,110,158160,38,0,P|7:152|12:199,1,85,14|8,0:3|0:3,0:0:0:0:
11,194,158385,1,0,0:0:0:0:
11,194,158460,1,10,0:1:0:0:
83,140,158610,1,0,0:0:0:0:
134,333,158760,5,10,0:3:0:0:
126,308,158835,1,0,0:0:0:0:
137,285,158910,1,8,0:3:0:0:
205,243,159060,1,8,0:1:0:0:
163,176,159210,1,10,0:3:0:0:
310,19,159360,6,0,P|316:60|321:103,1,85,10|8,0:3|0:3,0:0:0:0:
321,103,159585,1,0,0:0:0:0:
321,103,159660,1,8,0:1:0:0:
266,167,159810,1,8,0:3:0:0:
250,197,159885,1,8,0:3:0:0:
266,226,159960,1,10,0:3:0:0:
342,274,160110,5,8,0:3:0:0:
420,239,160260,1,8,0:1:0:0:
342,274,160410,1,8,0:3:0:0:
266,167,160560,5,10,0:1:0:0:
443,98,160710,1,0,1:3:0:0:
156,46,160860,21,10,0:1:0:0:
351,178,161010,1,0,1:3:0:0:
130,183,161160,37,10,0:1:0:0:
235,86,161310,1,0,1:3:0:0:
8,88,161460,21,10,0:1:0:0:
266,166,161610,1,8,1:3:0:0:
205,231,161760,5,10,0:1:0:0:
47,279,161910,1,10,1:3:0:0:
118,342,162060,1,8,1:1:0:0:
266,166,162210,21,10,1:1:0:0:
194,218,162360,1,8,0:1:0:0:
299,292,162510,37,10,1:3:0:0:
101,169,162660,1,8,0:1:0:0:
397,92,162810,1,2,1:3:0:0:
51,0,162960,22,0,P|58:53|61:110,1,85,14|8,0:3|0:3,0:0:0:0:
60,84,163185,1,0,0:0:0:0:
60,84,163260,1,10,0:1:0:0:
187,173,163410,1,0,0:0:0:0:
46,239,163560,5,10,0:3:0:0:
37,267,163635,1,0,0:0:0:0:
54,294,163710,1,8,0:3:0:0:
101,171,163860,1,10,0:1:0:0:
54,294,164010,1,0,0:0:0:0:
419,252,164160,6,0,P|422:203|396:169,1,85,10|8,0:3|0:3,0:0:0:0:
402,173,164385,1,0,0:0:0:0:
403,173,164460,1,8,0:1:0:0:
337,272,164610,5,8,0:3:0:0:
311,235,164685,1,0,0:0:0:0:
321,193,164760,1,10,0:3:0:0:
435,95,164910,1,8,0:3:0:0:
197,201,165060,22,0,B|199:184|199:184|200:182|200:182|203:167,1,34,8|0,0:1|0:0,0:0:0:0:
435,95,165210,38,0,B|430:66|430:66|428:62|428:62|423:36,1,59.4999981842042,8|0,0:1|0:0,0:0:0:0:
296,1,165360,21,14,1:1:0:0:
490,166,165510,1,0,1:3:0:0:
246,306,165660,5,8,1:1:0:0:
335,205,165810,1,0,1:3:0:0:
106,107,165960,21,8,1:1:0:0:
327,196,166110,1,0,1:3:0:0:
138,19,166260,37,10,1:1:0:0:
248,157,166410,1,0,1:3:0:0:
73,259,166560,21,14,1:1:0:0:
292,372,166710,1,2,0:3:0:0:
73,259,166860,1,8,1:1:0:0:
290,378,167010,1,8,0:3:0:0:
213,328,167160,5,8,1:1:0:0:
183,251,167310,1,8,0:3:0:0:
441,108,167460,21,8,1:1:0:0:
463,32,167610,1,12,0:3:0:0:
221,102,167760,38,0,P|236:142|246:196,1,85,10|0,0:3|0:0,0:0:0:0:
354,216,168060,2,0,P|356:174|315:147,1,85,10|0,0:1|0:0,0:0:0:0:
130,275,168360,22,0,P|158:255|192:251,1,59.4999981842042,8|0,0:3|0:0,0:0:0:0:
247,304,168660,2,0,P|299:326|301:380,1,101.999996887207,10|8,0:1|0:3,0:0:0:0:
389,354,168960,6,0,P|399:323|412:298,1,50.9999984436036,2|8,0:3|0:3,0:0:0:0:
41,193,169260,22,0,P|51:211|54:232,1,42.5,8|0,0:1|0:0,0:0:0:0:
414,178,169560,38,0,P|429:124|471:92,1,101.999996887207,2|8,0:3|0:3,0:0:0:0:
138,44,169860,22,0,P|130:19|114:-1,1,50.9999984436036,12|0,0:1|0:0,0:0:0:0:
201,103,170160,6,0,P|177:184|166:269,1,170,14|10,0:3|0:1,0:0:0:0:
86,272,170610,1,0,0:0:0:0:
226,340,170760,1,10,0:3:0:0:
226,340,170835,1,0,0:0:0:0:
226,340,170910,1,8,0:3:0:0:
86,272,171060,1,10,0:1:0:0:
226,340,171210,1,0,0:0:0:0:
369,115,171360,22,0,P|356:74|351:32,1,85,10|8,0:3|0:3,0:0:0:0:
351,32,171585,1,0,0:0:0:0:
351,32,171660,1,8,0:1:0:0:
309,175,171810,1,10,0:3:0:0:
309,175,171885,1,0,0:0:0:0:
309,175,171960,1,8,0:3:0:0:
454,142,172110,37,10,0:3:0:0:
369,115,172260,1,8,0:1:0:0:
454,142,172410,1,2,0:0:0:0:
61,350,172560,22,0,P|55:328|41:301,1,42.5,10|0,0:1|0:0,0:0:0:0:
159,212,172710,2,0,P|139:247|134:285,1,59.4999981842042,10|0,0:1|0:0,0:0:0:0:
59,207,172860,1,10,0:3:0:0:
230,138,173010,6,0,P|238:166|254:191,1,59.4999981842042,8|0,0:1|0:0,0:0:0:0:
59,207,173160,1,8,0:3:0:0:
277,302,173310,22,0,P|254:285|226:275,1,59.4999981842042,8|0,0:1|0:0,0:0:0:0:
105,136,173460,1,8,0:3:0:0:
14,99,173610,38,0,P|40:87|63:68,1,59.4999981842042,8|0,0:1|0:0,0:0:0:0:
349,79,173760,1,10,0:3:0:0:
251,0,173910,22,0,P|261:30|265:60,1,59.4999981842042,8|0,0:1|0:0,0:0:0:0:
454,216,174060,2,0,P|457:187|466:159,1,59.4999981842042,8|0,0:1|0:0,0:0:0:0:
278,303,174210,2,0,P|288:333|292:363,1,59.4999981842042,8|0,0:1|0:0,0:0:0:0:
380,323,174360,5,8,0:3:0:0:
380,323,174435,1,0,0:0:0:0:
380,323,174510,2,0,B|403:319|403:319|407:317|407:317|437:312,1,59.4999981842042,8|0,0:1|0:0,0:0:0:0:
116,243,174660,22,0,B|112:220|112:220|110:216|110:216|105:186,1,59.4999981842042,8|0,0:1|0:0,0:0:0:0:
411,65,174810,2,0,B|435:62|435:62|439:60|439:60|469:55,1,59.4999981842042,8|0,0:1|0:0,0:0:0:0:
200,138,174960,22,0,B|137:132|168:110|112:105|112:105|152:37|234:27|280:99|280:99|356:203|430:142|430:142|392:152|355:124,1,561.000017120362,4|0,0:3|0:0,2:0:0:0:
357,126,176160,6,0,B|375:223|307:325|307:325|344:284|359:317|383:276,1,297.5,4|4,0:2|1:3,2:0:0:0:
378,281,177360,5,2,0:3:0:0:
378,281,177660,1,2,0:3:0:0:
378,281,177960,1,2,0:3:0:0:
378,281,178260,1,2,0:3:0:0:
480,268,178560,1,2,0:3:0:0:
480,268,178860,1,2,0:3:0:0:
480,268,179160,1,2,0:3:0:0:
480,268,179460,1,2,0:3:0:0:
411,313,179760,1,2,0:3:0:0:
411,313,180060,1,2,0:3:0:0:
484,272,180360,1,2,0:3:0:0:
484,272,180660,1,2,0:3:0:0:
415,318,180960,1,2,0:3:0:0:
415,318,181260,1,2,0:3:0:0:
346,384,181560,37,2,0:3:0:0:
276,354,181710,1,2,0:3:0:0:
151,312,181860,21,2,0:3:0:0:
76,334,182010,1,2,0:3:0:0:
276,354,182160,5,8,0:0:0:0:
324,324,182460,1,8,0:0:0:0:
344,273,182760,1,8,0:0:0:0:
324,216,183060,1,8,0:0:0:0:
262,197,183360,1,8,0:0:0:0:
198,139,183660,1,8,0:0:0:0:
202,52,183960,1,8,0:0:0:0:
282,7,184260,21,0,0:0:0:0:
244,369,185610,1,0,0:0:0:0:
133,318,185760,37,8,0:1:0:0:
133,318,185910,1,0,0:0:0:0:
396,228,186060,5,8,0:1:0:0:
396,228,186210,1,0,0:0:0:0:
29,126,186360,5,8,0:3:0:0:
445,19,186510,2,0,B|471:30|452:39|484:55|484:55|452:43|426:55,1,114.749996498108,8|0,0:3|0:0,0:0:0:0:
251,105,186810,6,0,B|246:72|282:55|282:55|398:82|398:82|404:118|434:133,1,237.999992736817,14|8,0:3|0:3,0:0:0:0:
338,236,187185,1,0,0:0:0:0:
338,236,187260,2,0,B|320:198|321:159|321:159|307:188|279:198,1,118.999996368408,10|0,0:1|0:0,0:0:0:0:
258,268,187560,21,10,0:3:0:0:
448,357,187710,1,10,0:3:0:0:
463,338,187785,1,0,0:0:0:0:
460,313,187860,1,8,0:1:0:0:
210,196,188010,38,0,B|176:178|167:143|167:143|54:124|54:124|37:154|5:163,1,237.999992736817,10|8,0:3|0:3,0:0:0:0:
109,230,188385,1,0,0:0:0:0:
109,230,188460,1,8,0:0:0:0:
248,119,188610,1,8,0:2:0:0:
109,230,188760,21,10,0:3:0:0:
143,310,188910,1,10,0:3:0:0:
83,366,189060,1,8,0:0:0:0:
412,215,189210,6,0,B|438:163|414:109|414:109|323:73|323:73|334:89|335:117,1,237.999992736817,14|8,0:3|0:3,0:0:0:0:
219,209,189585,1,0,0:0:0:0:
219,209,189660,2,0,B|253:206|266:185|266:185|296:175|328:190,1,118.999996368408,10|0,0:0|0:0,0:0:0:0:
300,274,189960,21,8,0:0:0:0:
84,20,190110,2,0,B|56:10|64:30|29:20|29:20|62:33|73:59,1,114.749996498108,12|0,0:2|0:0,0:0:0:0:
5,175,190410,38,0,B|17:120|17:120|146:81|146:81|194:118,1,237.999992736817,14|8,0:3|0:3,0:0:0:0:
183,109,190785,1,0,0:0:0:0:
183,109,190860,1,8,0:0:0:0:
109,180,191010,1,8,0:2:0:0:
458,119,191160,21,8,0:0:0:0:
213,28,191310,1,8,0:3:0:0:
458,119,191460,1,8,0:0:0:0:
300,238,191610,6,0,B|256:201|276:144|276:144|316:104|372:118|372:118|370:142|390:160,1,237.999992736817,14|8,0:3|0:3,0:0:0:0:
384,302,191985,1,0,0:0:0:0:
384,302,192060,6,0,P|388:269|396:235,1,68,8|0,0:0|0:0,0:0:0:0:
189,238,192360,38,0,P|182:187|171:138,1,101.999996887207,10|0,0:0|0:0,0:0:0:0:
497,81,192660,22,0,P|500:55|506:31,1,50.9999984436036,8|0,0:0|0:0,0:0:0:0:
481,92,192960,5,8,0:1:0:0:
469,83,193035,1,0,0:0:0:0:
440,72,193110,1,8,0:0:0:0:
394,77,193185,1,0,0:0:0:0:
355,112,193260,1,8,0:1:0:0:
324,140,193335,1,0,0:0:0:0:
279,141,193410,1,8,0:0:0:0:
252,120,193485,1,0,0:0:0:0:
213,43,193560,22,0,B|212:21|243:6|243:6|223:31|222:53,1,101.999996887207,6|0,0:0|0:0,0:0:0:0:
32,155,194010,38,0,B|65:130|64:92|64:92|204:73|204:73|241:128|173:158,1,289.000005512238,14|0,0:3|0:0,0:0:0:0:
143,265,194385,1,0,0:0:0:0:
143,265,194460,2,0,B|120:243|133:195|133:195|103:207|103:207|97:222|105:244,1,144.500002756119,12|0,0:3|0:0,0:0:0:0:
384,314,194760,22,0,B|343:299|326:251|326:251|235:268|235:268|227:331,1,216.750004134178,10|0,0:3|0:0,0:0:0:0:
231,305,195060,2,0,P|250:325|256:350,1,42.5,8|0,0:3|0:0,0:0:0:0:
415,95,195210,6,0,B|412:54|437:68|452:26|452:26|405:247,1,289.000005512238,10|0,0:3|0:0,0:0:0:0:
468,296,195585,1,0,0:0:0:0:
468,296,195660,2,0,B|510:278|509:241|509:241|503:253|494:259,1,93.5000028533936,12|0,0:3|0:0,0:0:0:0:
336,122,195960,21,10,0:3:0:0:
322,101,196035,1,0,0:0:0:0:
319,75,196110,1,2,0:3:0:0:
326,52,196185,1,0,0:0:0:0:
345,34,196260,1,8,0:3:0:0:
151,258,196410,38,0,B|147:299|185:321|185:321|270:275|270:275|295:210|258:163,1,289.000005512238,14|0,0:3|0:0,0:0:0:0:
136,143,196785,1,0,0:0:0:0:
136,143,196860,2,8,B|155:138|168:108|168:108|154:156|182:180,1,127.500004863739,12|0,0:3|0:0,0:3:0:0:
343,354,197160,21,10,0:3:0:0:
370,347,197235,1,0,0:0:0:0:
397,341,197310,1,2,0:3:0:0:
425,336,197385,1,0,0:0:0:0:
452,330,197460,1,8,0:3:0:0:
274,303,197610,6,0,B|244:324|235:354|235:354|63:323|63:323|65:294|43:266,1,289.000005512238,10|0,0:3|0:0,0:0:0:0:
338,215,197985,1,0,0:0:0:0:
338,215,198060,2,0,B|354:217|365:240|365:240|437:225|437:225|435:203|459:183,1,144.500002756119,8|0,0:3|0:0,0:0:0:0:
17,49,198360,21,8,0:3:0:0:
43,30,198435,1,0,0:0:0:0:
72,38,198510,1,8,0:3:0:0:
104,73,198585,1,0,0:0:0:0:
141,96,198660,1,8,0:0:0:0:
171,90,198735,1,0,0:0:0:0:
196,62,198810,38,0,B|190:31|178:17|178:17|282:38|282:38|326:104|278:169,1,289.000005512238,14|0,0:3|0:0,0:0:0:0:
170,231,199185,1,0,0:0:0:0:
170,231,199260,2,0,B|198:146|198:146|142:128,1,144.500002756119,10|0,0:3|0:0,0:0:0:0:
88,192,199560,21,10,0:3:0:0:
506,150,199710,1,2,0:0:0:0:
88,192,199860,1,8,0:3:0:0:
407,328,200010,6,0,B|405:348|431:377|431:377|329:336|329:336|291:263|366:204,1,289.000005512238,10|0,0:3|0:0,0:0:0:0:
447,217,200385,1,0,0:0:0:0:
447,217,200460,2,0,P|449:253|442:217,1,110.499994941712,10|0,0:3|0:0,0:0:0:0:
411,332,200760,21,10,0:3:0:0:
364,0,200910,1,2,0:0:0:0:
411,332,201060,1,8,0:3:0:0:
236,133,201210,38,0,B|217:91|266:66|266:66|421:91|421:91|404:138,1,289.000005512238,14|0,0:3|0:0,0:0:0:0:
331,226,201585,1,0,0:0:0:0:
331,226,201660,2,0,P|325:192|316:159,1,68,10|0,0:3|0:0,0:0:0:0:
322,154,201960,21,10,0:3:0:0:
299,183,202035,1,0,0:0:0:0:
309,216,202110,1,10,0:1:0:0:
348,251,202185,1,0,0:0:0:0:
363,292,202260,1,8,0:1:0:0:
348,316,202335,1,0,0:0:0:0:
271,352,202410,6,0,B|231:339|230:304|230:304|90:272|90:272|136:290|110:301|157:310,1,289.000005512238,14|8,0:3|0:3,0:0:0:0:
155,309,202785,1,0,0:0:0:0:
155,309,202860,1,8,0:1:0:0:
58,350,203010,1,8,0:2:0:0:
169,126,203160,1,2,0:0:0:0:
186,206,203310,22,0,B|194:173|194:173|191:169|191:169|205:119,1,68,10|0,0:3|0:0,0:0:0:0:
13,36,203460,1,8,0:1:0:0:
229,59,203610,38,0,B|243:39|271:34|271:34|122:9|122:9|88:37|98:70,1,272,14|8,0:3|0:3,0:0:0:0:
0,162,203985,1,0,0:0:0:0:
0,162,204060,2,0,B|23:130|57:138|57:138|66:169|107:178,1,118.999996368408,10|0,0:0|0:0,0:0:0:0:
346,118,204360,21,10,0:3:0:0:
318,113,204435,1,0,0:0:0:0:
293,116,204510,1,10,0:3:0:0:
271,131,204585,1,0,0:0:0:0:
254,153,204660,1,8,0:0:0:0:
450,206,204810,6,0,B|484:203|472:224|507:236|507:236|322:197,1,255,10|0,0:3|0:0,0:0:0:0:
323,209,205110,1,8,0:3:0:0:
168,366,205260,21,8,0:0:0:0:
357,287,205410,1,8,0:3:0:0:
180,197,205560,37,10,0:3:0:0:
107,171,205710,1,10,0:3:0:0:
180,197,205860,1,8,0:0:0:0:
421,73,206010,22,0,B|384:47|380:-17|380:-17|303:1|303:1|279:66,1,216.750004134178,14|0,0:3|0:0,0:0:0:0:
290,34,206310,6,0,P|308:66|312:110,1,50.9999984436036,8|0,0:0|0:0,0:0:0:0:
472,262,206460,22,0,P|477:228|494:199,1,68,8|0,0:0|0:0,0:0:0:0:
417,155,206610,1,8,0:3:0:0:
381,299,206760,37,10,0:3:0:0:
340,279,206835,1,0,0:0:0:0:
308,295,206910,1,8,0:1:0:0:
288,326,206985,1,0,0:0:0:0:
255,341,207060,1,10,0:1:0:0:
236,334,207135,1,0,0:0:0:0:
242,259,207210,22,0,B|241:221|267:192|267:192|111:154|111:154|127:218,1,272,14|0,0:3|0:3,0:0:0:0:
129,331,207585,1,0,0:0:0:0:
129,331,207660,2,0,P|138:299|156:270,1,68,8|0,0:0|0:0,0:0:0:0:
151,262,207960,5,8,0:3:0:0:
113,194,208110,1,8,0:3:0:0:
172,137,208260,1,8,0:0:0:0:
98,47,208410,22,0,B|88:20|56:10|56:10|224:29|224:29|261:66|227:125,1,289.000005512238,12|8,0:3|0:3,0:0:0:0:
242,85,208785,1,0,0:0:0:0:
242,85,208860,1,8,0:0:0:0:
32,260,209010,1,8,0:2:0:0:
139,374,209160,37,10,0:3:0:0:
123,287,209310,1,10,0:3:0:0:
139,374,209460,1,8,0:0:0:0:
374,61,209610,22,0,B|365:18|338:39|319:-8|319:-8|355:94|328:192,1,289.000005512238,10|8,0:3|0:3,0:0:0:0:
330,185,209985,1,0,0:0:0:0:
330,185,210060,1,8,0:0:0:0:
190,25,210210,1,8,0:3:0:0:
104,56,210360,5,10,0:3:0:0:
252,95,210510,1,10,0:3:0:0:
104,56,210660,1,8,0:0:0:0:
195,267,210810,22,0,P|217:260|245:254,2,42.5,14|0|0,0:3|0:0|0:0,0:0:0:0:
106,309,211110,1,8,0:3:0:0:
298,384,211260,5,8,0:0:0:0:
106,309,211410,1,8,0:3:0:0:
432,262,211560,5,8,0:0:0:0:
112,217,211710,1,8,0:3:0:0:
399,59,211860,5,8,0:0:0:0:
42,154,212010,1,8,0:3:0:0:
399,59,212160,21,12,0:0:0:0:
414,88,212235,1,0,0:0:0:0:
417,124,212310,1,8,0:3:0:0:
406,157,212385,1,0,0:0:0:0:
384,184,212460,1,8,0:0:0:0:
362,212,212535,1,0,0:0:0:0:
361,247,212610,2,0,B|362:277|387:288|387:288|373:271|372:243,1,85,8|0,0:3|0:0,0:0:0:0:
446,353,212760,37,10,0:1:0:0:
471,306,212835,1,0,0:0:0:0:
462,255,212910,1,8,0:1:0:0:
427,215,212985,1,2,0:0:0:0:
384,184,213060,1,8,0:1:0:0:
344,150,213135,1,0,0:0:0:0:
311,108,213210,1,10,0:1:0:0:
302,57,213285,1,0,0:0:0:0:
326,11,213360,5,12,0:1:0:0:
406,0,213660,1,8,0:2:0:0:
465,58,213960,1,8,0:2:0:0:
440,134,214260,1,8,0:2:0:0:
12,122,214560,5,4,0:2:0:0:
74,61,215160,6,0,B|90:39|82:13|82:13|90:39|116:49,1,102,2|0,0:0|0:0,0:0:0:0:
193,88,215760,38,0,P|196:118|189:89,1,89.2499972763062
143,21,216960,21,10,0:1:0:0:
366,160,217110,1,8,0:3:0:0:
125,279,217260,1,8,0:0:0:0:
173,198,217410,1,8,1:1:0:0:
173,198,217485,1,0,1:0:0:0:
173,198,217560,1,8,1:3:0:0:
98,112,217710,5,10,0:3:0:0:
203,358,217860,1,8,1:1:0:0:
203,358,217935,1,0,1:0:0:0:
203,358,218010,1,8,3:3:0:0:
285,27,218160,21,10,0:1:0:0:
22,172,218310,1,10,0:3:0:0:
284,333,218460,1,8,0:0:0:0:
350,106,218610,1,8,1:1:0:0:
350,106,218685,1,0,1:0:0:0:
350,106,218760,1,8,1:3:0:0:
285,27,218910,37,10,0:3:0:0:
360,254,219060,1,8,1:1:0:0:
360,254,219135,1,0,1:0:0:0:
360,254,219210,1,8,3:3:0:0:
192,45,219360,21,10,0:1:0:0:
502,163,219510,1,10,0:3:0:0:
244,353,219660,1,10,0:0:0:0:
181,284,219810,1,8,1:1:0:0:
181,284,219885,1,0,1:0:0:0:
181,284,219960,1,8,1:3:0:0:
60,347,220110,5,10,0:3:0:0:
360,254,220260,1,8,1:1:0:0:
360,254,220335,1,0,1:0:0:0:
360,254,220410,1,8,3:3:0:0:
43,85,220560,21,10,0:1:0:0:
244,353,220710,1,10,0:3:0:0:
405,92,220860,1,8,0:0:0:0:
155,17,221010,1,8,1:1:0:0:
155,17,221085,1,0,1:0:0:0:
155,17,221160,1,8,1:3:0:0:
0,156,221310,37,10,0:3:0:0:
483,49,221460,1,10,1:1:0:0:
483,49,221535,1,0,1:0:0:0:
483,49,221610,1,8,3:3:0:0:
335,298,221760,21,8,0:1:0:0:
398,13,221910,1,8,0:1:0:0:
335,298,222060,1,8,0:0:0:0:
398,13,222210,1,8,0:1:0:0:
398,13,222510,5,8,0:0:0:0:
335,298,222660,1,8,0:1:0:0:
481,54,222960,21,8,0:1:0:0:
167,109,223110,1,8,0:1:0:0:
481,54,223260,1,8,0:0:0:0:
167,109,223410,1,8,0:1:0:0:
167,109,223710,5,8,0:0:0:0:
481,54,223860,1,8,0:1:0:0:
229,34,224160,21,8,0:1:0:0:
297,360,224310,1,8,0:1:0:0:
229,34,224460,1,8,0:0:0:0:
297,360,224610,1,8,0:1:0:0:
297,360,224910,5,8,0:0:0:0:
229,34,225060,1,8,0:1:0:0:
20,355,225360,21,8,0:1:0:0:
393,254,225510,1,8,0:1:0:0:
20,355,225660,1,8,0:0:0:0:
393,254,225810,1,8,0:1:0:0:
314,280,226110,37,12,0:3:0:0:
464,214,226260,2,0,B|474:222|497:218|497:218|478:228|475:242,1,68,8|0,0:1|0:0,0:0:0:0:
212,338,226560,22,0,P|212:314|231:298,1,50.9999984436036,8|0,0:0|0:0,0:0:0:0:
290,373,226860,2,0,P|309:358|308:333,1,50.9999984436036
124,231,227160,6,0,B|104:227|90:238|90:238|101:222|103:208,1,68,8|0,0:0|0:0,0:0:0:0:
205,202,227460,2,0,B|213:191|231:183|231:183|213:185|198:172,1,68
315,54,227760,22,0,B|306:35|322:17|322:17|315:36|329:60,1,85,8|0,0:0|0:0,0:0:0:0:
418,100,228060,2,0,B|440:93|441:69|441:69|432:88|407:95,1,85
319,242,228360,38,0,P|316:219|323:243,2,68,8|8|8,0:0|0:0|0:0,0:0:0:0:
352,381,228810,1,0,0:0:0:0:
352,381,228885,1,0,0:0:0:0:
352,381,228960,6,0,B|322:360|315:324|315:324|311:344|292:357,1,101.999996887207,10|2,0:0|0:3,0:0:0:0:
299,352,229410,1,0,0:0:0:0:
97,282,229560,6,0,L|251:299,1,136,10|2,0:0|0:3,0:0:0:0:
232,296,230010,1,0,0:0:0:0:
223,210,230160,6,0,L|210:135,1,68,10|2,0:0|0:3,0:0:0:0:
305,138,230760,6,0,L|325:18,1,101.999996887207,10|2,0:0|0:3,0:0:0:0:
322,37,231210,1,4,0:3:0:0:
