osu file format v14

[General]
AudioFilename: audio.mp3
AudioLeadIn: 0
PreviewTime: 47402
Countdown: 0
SampleSet: Normal
StackLeniency: 0.7
Mode: 3
LetterboxInBreaks: 0
SpecialStyle: 0
WidescreenStoryboard: 1

[Editor]
DistanceSpacing: 0.9
BeatDivisor: 4
GridSize: 32
TimelineZoom: 2.799999

[Metadata]
Title:Tokyo Teddy Bear
TitleUnicode:Tokyo Teddy Bear
Artist:Rib
ArtistUnicode:Rib
Creator:AlisceaSparku
Version:EZ
Source:
Tags:
BeatmapID:1566540
BeatmapSetID:742724

[Difficulty]
HPDrainRate:7
CircleSize:4
OverallDifficulty:6.2
ApproachRate:5
SliderMultiplier:1.4
SliderTickRate:1

[Events]
//Background and Video events
0,0,"bg.jpg",0,0
//Break Periods
//Storyboard Layer 0 (Background)
//Storyboard Layer 1 (Fail)
//Storyboard Layer 2 (Pass)
//Storyboard Layer 3 (Foreground)
//Storyboard Sound Samples

[TimingPoints]
1300,294.117647058824,4,1,0,5,1,0
48211,-100,4,1,0,5,0,1
67182,-100,4,1,0,5,0,0
104682,-100,4,1,0,5,0,1
123505,-100,4,1,0,5,0,0
152917,-100,4,1,0,5,0,1
170711,-100,4,1,0,5,0,0

[HitObjects]
320,192,1300,128,0,2329:0:0:0:0:
64,192,2329,128,0,3652:0:0:0:0:
320,192,3652,128,0,4682:0:0:0:0:
448,192,4682,128,0,6005:0:0:0:0:
192,192,6005,128,0,7035:0:0:0:0:
64,192,7035,128,0,8358:0:0:0:0:
448,192,8358,128,0,9388:0:0:0:0:
192,192,9388,128,0,10711:0:0:0:0:
320,192,10711,128,0,11741:0:0:0:0:
192,192,11741,128,0,13064:0:0:0:0:
64,192,13064,128,0,14094:0:0:0:0:
320,192,14094,128,0,15417:0:0:0:0:
448,192,15417,128,0,16447:0:0:0:0:
192,192,16447,128,0,17182:0:0:0:0:
448,192,17770,128,0,18064:0:0:0:0:
64,192,17770,1,0,0:0:0:0:
320,192,18211,128,0,18652:0:0:0:0:
64,192,18211,1,0,0:0:0:0:
192,192,18800,128,0,19388:0:0:0:0:
64,192,18800,1,0,0:0:0:0:
320,192,19535,128,0,20123:0:0:0:0:
448,192,20123,128,0,20417:0:0:0:0:
192,192,20123,1,0,0:0:0:0:
64,192,20417,128,0,20858:0:0:0:0:
320,192,20858,128,0,21152:0:0:0:0:
448,192,21152,128,0,21594:0:0:0:0:
192,192,21152,1,0,0:0:0:0:
192,192,21594,128,0,22035:0:0:0:0:
64,192,22182,128,0,22476:0:0:0:0:
448,192,22476,128,0,23064:0:0:0:0:
320,192,22476,1,0,0:0:0:0:
192,192,23064,128,0,23211:0:0:0:0:
64,192,23211,128,0,23505:0:0:0:0:
320,192,23505,128,0,23800:0:0:0:0:
448,192,23505,1,0,0:0:0:0:
64,192,23800,128,0,23947:0:0:0:0:
320,192,24094,128,0,24241:0:0:0:0:
64,192,24241,128,0,24388:0:0:0:0:
320,192,24535,128,0,24829:0:0:0:0:
448,192,24829,128,0,25417:0:0:0:0:
192,192,24829,1,0,0:0:0:0:
320,192,25417,128,0,25564:0:0:0:0:
64,192,25564,128,0,25858:0:0:0:0:
448,192,25858,128,0,26594:0:0:0:0:
192,192,25858,1,0,0:0:0:0:
192,192,26594,128,0,26741:0:0:0:0:
320,192,26888,128,0,27182:0:0:0:0:
448,192,27182,128,0,27770:0:0:0:0:
64,192,27182,1,0,0:0:0:0:
192,192,27770,128,0,28211:0:0:0:0:
64,192,28211,128,0,28505:0:0:0:0:
320,192,28211,1,0,0:0:0:0:
448,192,28505,128,0,28652:0:0:0:0:
64,192,28800,128,0,28947:0:0:0:0:
448,192,28947,128,0,29094:0:0:0:0:
64,192,29241,128,0,29535:0:0:0:0:
320,192,29535,1,0,0:0:0:0:
448,192,29535,1,0,0:0:0:0:
192,192,29829,1,0,0:0:0:0:
64,192,30417,1,0,0:0:0:0:
320,192,31005,1,0,0:0:0:0:
448,192,31594,1,0,0:0:0:0:
320,192,32182,1,0,0:0:0:0:
448,192,32770,1,0,0:0:0:0:
64,192,33358,1,0,0:0:0:0:
320,192,33947,1,0,0:0:0:0:
448,192,34535,1,0,0:0:0:0:
320,192,35123,1,0,0:0:0:0:
192,192,35711,1,0,0:0:0:0:
64,192,36152,1,0,0:0:0:0:
448,192,36300,1,0,0:0:0:0:
192,192,36447,1,0,0:0:0:0:
320,192,36594,128,0,36888:0:0:0:0:
448,192,36594,1,0,0:0:0:0:
448,192,37035,128,0,37476:0:0:0:0:
64,192,37035,1,0,0:0:0:0:
192,192,37623,128,0,38505:0:0:0:0:
64,192,37623,1,0,0:0:0:0:
448,192,38505,1,0,0:0:0:0:
320,192,38800,128,0,39976:0:0:0:0:
64,192,38800,1,0,0:0:0:0:
64,192,39976,128,0,41152:0:0:0:0:
192,192,41152,128,0,42329:0:0:0:0:
448,192,42329,128,0,43505:0:0:0:0:
192,192,43505,128,0,43947:0:0:0:0:
320,192,43947,1,0,0:0:0:0:
320,192,44535,1,0,0:0:0:0:
64,192,44682,128,0,45123:0:0:0:0:
448,192,45123,1,0,0:0:0:0:
448,192,45711,1,0,0:0:0:0:
64,192,45858,1,0,0:0:0:0:
192,192,45858,128,0,46300:0:0:0:0:
320,192,46300,128,0,46594:0:0:0:0:
448,192,46594,128,0,47035:0:0:0:0:
64,192,47035,128,0,47476:0:0:0:0:
320,192,47476,1,0,0:0:0:0:
64,192,48211,128,0,48652:0:0:0:0:
448,192,48211,1,0,0:0:0:0:
320,192,48652,128,0,48800:0:0:0:0:
320,192,49241,1,0,0:0:0:0:
192,192,49388,128,0,49829:0:0:0:0:
448,192,49829,128,0,49976:0:0:0:0:
448,192,50417,1,0,0:0:0:0:
192,192,50564,128,0,51005:0:0:0:0:
320,192,51005,128,0,51152:0:0:0:0:
320,192,51594,1,0,0:0:0:0:
192,192,51741,128,0,52182:0:0:0:0:
64,192,52182,128,0,52329:0:0:0:0:
64,192,52770,1,0,0:0:0:0:
320,192,52917,128,0,53358:0:0:0:0:
448,192,52917,1,0,0:0:0:0:
192,192,53358,128,0,53505:0:0:0:0:
192,192,53947,1,0,0:0:0:0:
448,192,54094,128,0,54535:0:0:0:0:
320,192,54535,128,0,54682:0:0:0:0:
320,192,55123,1,0,0:0:0:0:
64,192,55270,128,0,55711:0:0:0:0:
192,192,55270,128,0,55711:0:0:0:0:
448,192,55711,1,0,0:0:0:0:
320,192,56005,128,0,56888:0:0:0:0:
64,192,56005,1,0,0:0:0:0:
192,192,56447,128,0,56888:0:0:0:0:
64,192,56447,1,0,0:0:0:0:
448,192,56888,128,0,57623:0:0:0:0:
64,192,57623,128,0,58064:0:0:0:0:
320,192,57623,1,0,0:0:0:0:
192,192,58064,128,0,58211:0:0:0:0:
192,192,58652,1,0,0:0:0:0:
320,192,58800,128,0,59241:0:0:0:0:
448,192,59241,128,0,59388:0:0:0:0:
448,192,59829,1,0,0:0:0:0:
192,192,59976,128,0,60417:0:0:0:0:
320,192,60417,128,0,60564:0:0:0:0:
320,192,61005,1,0,0:0:0:0:
448,192,61152,128,0,61594:0:0:0:0:
64,192,61594,128,0,61741:0:0:0:0:
64,192,62182,1,0,0:0:0:0:
320,192,62329,128,0,62770:0:0:0:0:
448,192,62329,1,0,0:0:0:0:
192,192,62770,128,0,62917:0:0:0:0:
192,192,63358,1,0,0:0:0:0:
448,192,63505,128,0,63947:0:0:0:0:
320,192,63947,128,0,64094:0:0:0:0:
320,192,64535,1,0,0:0:0:0:
64,192,64682,128,0,64976:0:0:0:0:
192,192,64976,1,0,0:0:0:0:
448,192,65123,128,0,65417:0:0:0:0:
192,192,65417,1,0,0:0:0:0:
448,192,65564,128,0,65858:0:0:0:0:
64,192,65858,128,0,67035:0:0:0:0:
320,192,67182,128,0,67476:0:0:0:0:
448,192,67182,1,0,0:0:0:0:
192,192,67476,128,0,67917:0:0:0:0:
320,192,67917,128,0,68211:0:0:0:0:
448,192,68211,128,0,68652:0:0:0:0:
64,192,68211,1,0,0:0:0:0:
192,192,68652,128,0,69094:0:0:0:0:
64,192,69241,128,0,69535:0:0:0:0:
320,192,69535,128,0,70123:0:0:0:0:
448,192,69535,1,0,0:0:0:0:
192,192,70123,128,0,70270:0:0:0:0:
64,192,70270,128,0,70564:0:0:0:0:
448,192,70564,128,0,70858:0:0:0:0:
320,192,70564,1,0,0:0:0:0:
192,192,70858,128,0,71005:0:0:0:0:
448,192,71152,128,0,71300:0:0:0:0:
192,192,71300,128,0,71447:0:0:0:0:
448,192,71594,128,0,71888:0:0:0:0:
64,192,71888,128,0,72476:0:0:0:0:
320,192,71888,1,0,0:0:0:0:
320,192,72476,128,0,72623:0:0:0:0:
192,192,72623,128,0,72917:0:0:0:0:
320,192,72917,128,0,73652:0:0:0:0:
64,192,72917,1,0,0:0:0:0:
64,192,73652,128,0,73800:0:0:0:0:
448,192,73947,128,0,74241:0:0:0:0:
320,192,74241,128,0,74829:0:0:0:0:
192,192,74241,1,0,0:0:0:0:
192,192,74829,128,0,75270:0:0:0:0:
320,192,75270,128,0,75564:0:0:0:0:
448,192,75270,1,0,0:0:0:0:
64,192,75564,128,0,75711:0:0:0:0:
320,192,75858,128,0,76005:0:0:0:0:
64,192,76005,128,0,76152:0:0:0:0:
320,192,76300,128,0,76594:0:0:0:0:
192,192,76594,128,0,77623:0:0:0:0:
64,192,77623,128,0,78947:0:0:0:0:
320,192,78947,128,0,79976:0:0:0:0:
448,192,79976,128,0,81300:0:0:0:0:
192,192,81300,128,0,82329:0:0:0:0:
64,192,82329,128,0,83652:0:0:0:0:
320,192,83652,128,0,84682:0:0:0:0:
64,192,84682,128,0,84976:0:0:0:0:
448,192,84682,128,0,84976:0:0:0:0:
192,192,84976,1,0,0:0:0:0:
320,192,85123,1,0,0:0:0:0:
64,192,85270,1,0,0:0:0:0:
448,192,85417,1,0,0:0:0:0:
192,192,85564,1,0,0:0:0:0:
320,192,85858,128,0,86300:0:0:0:0:
64,192,85858,128,0,86300:0:0:0:0:
448,192,86300,128,0,86594:0:0:0:0:
192,192,86594,128,0,86888:0:0:0:0:
320,192,86888,128,0,87182:0:0:0:0:
64,192,87182,128,0,87476:0:0:0:0:
448,192,87476,128,0,87770:0:0:0:0:
320,192,87770,128,0,88064:0:0:0:0:
192,192,88064,128,0,88358:0:0:0:0:
64,192,88358,128,0,88652:0:0:0:0:
192,192,88652,128,0,88947:0:0:0:0:
320,192,88947,128,0,89241:0:0:0:0:
448,192,89241,128,0,89535:0:0:0:0:
192,192,89535,128,0,89829:0:0:0:0:
320,192,89829,128,0,90123:0:0:0:0:
64,192,90123,128,0,90417:0:0:0:0:
192,192,90564,128,0,91005:0:0:0:0:
448,192,90564,128,0,91005:0:0:0:0:
64,192,91005,128,0,91300:0:0:0:0:
320,192,91300,128,0,91594:0:0:0:0:
448,192,91594,128,0,91888:0:0:0:0:
192,192,91888,128,0,92182:0:0:0:0:
64,192,92182,128,0,92476:0:0:0:0:
192,192,92476,128,0,92770:0:0:0:0:
320,192,92770,128,0,93064:0:0:0:0:
448,192,93064,128,0,93358:0:0:0:0:
320,192,93358,128,0,93652:0:0:0:0:
64,192,93652,128,0,93947:0:0:0:0:
192,192,93947,128,0,94241:0:0:0:0:
448,192,94241,128,0,94535:0:0:0:0:
320,192,94535,128,0,94829:0:0:0:0:
192,192,94829,128,0,95123:0:0:0:0:
448,192,95270,128,0,96447:0:0:0:0:
64,192,95270,1,0,0:0:0:0:
192,192,96447,128,0,97623:0:0:0:0:
64,192,97623,128,0,98800:0:0:0:0:
320,192,98800,128,0,99976:0:0:0:0:
64,192,99976,128,0,100417:0:0:0:0:
192,192,99976,1,0,0:0:0:0:
448,192,100417,1,0,0:0:0:0:
448,192,101005,1,0,0:0:0:0:
192,192,101152,128,0,101594:0:0:0:0:
320,192,101594,1,0,0:0:0:0:
320,192,102182,1,0,0:0:0:0:
64,192,102329,128,0,102770:0:0:0:0:
448,192,102329,1,0,0:0:0:0:
320,192,102770,128,0,103064:0:0:0:0:
448,192,103064,128,0,103505:0:0:0:0:
64,192,103505,128,0,103947:0:0:0:0:
320,192,103947,1,0,0:0:0:0:
64,192,104682,1,0,0:0:0:0:
320,192,104682,128,0,105123:0:0:0:0:
448,192,105123,128,0,105270:0:0:0:0:
448,192,105711,1,0,0:0:0:0:
192,192,105858,128,0,106300:0:0:0:0:
320,192,106300,128,0,106447:0:0:0:0:
320,192,106888,1,0,0:0:0:0:
64,192,107035,128,0,107476:0:0:0:0:
192,192,107476,128,0,107623:0:0:0:0:
192,192,108064,1,0,0:0:0:0:
448,192,108211,128,0,108652:0:0:0:0:
64,192,108652,128,0,108800:0:0:0:0:
64,192,109241,1,0,0:0:0:0:
320,192,109388,1,0,0:0:0:0:
448,192,109388,128,0,109829:0:0:0:0:
192,192,109829,128,0,109976:0:0:0:0:
192,192,110417,1,0,0:0:0:0:
320,192,110564,128,0,111005:0:0:0:0:
64,192,111005,128,0,111152:0:0:0:0:
64,192,111594,1,0,0:0:0:0:
320,192,111741,128,0,112182:0:0:0:0:
448,192,111741,128,0,112182:0:0:0:0:
192,192,112182,1,0,0:0:0:0:
64,192,112476,128,0,113358:0:0:0:0:
320,192,112476,1,0,0:0:0:0:
448,192,112917,128,0,113358:0:0:0:0:
320,192,112917,1,0,0:0:0:0:
192,192,113358,128,0,114094:0:0:0:0:
320,192,114094,1,0,0:0:0:0:
448,192,114094,128,0,114535:0:0:0:0:
64,192,114535,128,0,114682:0:0:0:0:
64,192,115123,1,0,0:0:0:0:
320,192,115270,128,0,115711:0:0:0:0:
192,192,115711,128,0,115858:0:0:0:0:
192,192,116300,1,0,0:0:0:0:
64,192,116447,128,0,116888:0:0:0:0:
320,192,116888,128,0,117035:0:0:0:0:
320,192,117476,1,0,0:0:0:0:
192,192,117623,128,0,118064:0:0:0:0:
448,192,118064,128,0,118211:0:0:0:0:
448,192,118652,1,0,0:0:0:0:
64,192,118800,128,0,119241:0:0:0:0:
192,192,118800,1,0,0:0:0:0:
320,192,119241,128,0,119388:0:0:0:0:
320,192,119829,1,0,0:0:0:0:
448,192,119976,128,0,120417:0:0:0:0:
192,192,120417,128,0,120564:0:0:0:0:
192,192,121005,1,0,0:0:0:0:
320,192,121152,128,0,121447:0:0:0:0:
64,192,121447,1,0,0:0:0:0:
448,192,121594,128,0,121888:0:0:0:0:
64,192,121888,1,0,0:0:0:0:
448,192,122035,128,0,122329:0:0:0:0:
192,192,122329,128,0,123505:0:0:0:0:
320,192,123505,128,0,123947:0:0:0:0:
448,192,123505,1,0,0:0:0:0:
64,192,123947,128,0,124241:0:0:0:0:
448,192,124241,128,0,124535:0:0:0:0:
320,192,124535,1,0,0:0:0:0:
192,192,124682,128,0,125123:0:0:0:0:
64,192,125123,128,0,125417:0:0:0:0:
448,192,125417,128,0,125711:0:0:0:0:
64,192,125711,1,0,0:0:0:0:
320,192,125858,128,0,126300:0:0:0:0:
192,192,126300,128,0,127035:0:0:0:0:
448,192,126594,1,0,0:0:0:0:
320,192,127035,128,0,127329:0:0:0:0:
448,192,127329,128,0,127770:0:0:0:0:
64,192,127770,128,0,128064:0:0:0:0:
192,192,128064,128,0,128211:0:0:0:0:
448,192,128211,1,0,0:0:0:0:
320,192,128211,128,0,128505:0:0:0:0:
448,192,128505,128,0,128652:0:0:0:0:
192,192,128652,128,0,128800:0:0:0:0:
320,192,128800,128,0,128947:0:0:0:0:
64,192,128947,128,0,129094:0:0:0:0:
192,192,129094,128,0,129241:0:0:0:0:
448,192,129241,128,0,129388:0:0:0:0:
320,192,129388,128,0,129535:0:0:0:0:
64,192,129535,128,0,129829:0:0:0:0:
448,192,129829,128,0,130123:0:0:0:0:
64,192,130123,128,0,130270:0:0:0:0:
192,192,130270,128,0,130417:0:0:0:0:
320,192,130417,128,0,130564:0:0:0:0:
448,192,130564,128,0,131005:0:0:0:0:
64,192,130564,1,0,0:0:0:0:
192,192,131005,128,0,131300:0:0:0:0:
320,192,131300,128,0,131741:0:0:0:0:
64,192,131741,128,0,132917:0:0:0:0:
448,192,131741,1,0,0:0:0:0:
448,192,132917,128,0,134094:0:0:0:0:
320,192,134094,128,0,135270:0:0:0:0:
64,192,135270,128,0,136447:0:0:0:0:
192,192,136447,128,0,137623:0:0:0:0:
64,192,137623,128,0,138800:0:0:0:0:
320,192,138800,128,0,139976:0:0:0:0:
448,192,139976,128,0,141152:0:0:0:0:
192,192,141152,128,0,142329:0:0:0:0:
320,192,142329,128,0,142770:0:0:0:0:
64,192,142770,128,0,143064:0:0:0:0:
448,192,143064,128,0,143505:0:0:0:0:
192,192,143505,128,0,143947:0:0:0:0:
64,192,143947,128,0,144241:0:0:0:0:
320,192,144241,128,0,144682:0:0:0:0:
192,192,144682,128,0,145123:0:0:0:0:
448,192,145123,128,0,145417:0:0:0:0:
320,192,145417,128,0,145858:0:0:0:0:
64,192,145858,128,0,146300:0:0:0:0:
448,192,146300,128,0,146594:0:0:0:0:
192,192,146594,128,0,147035:0:0:0:0:
320,192,147035,128,0,147476:0:0:0:0:
64,192,147476,128,0,147770:0:0:0:0:
192,192,147770,128,0,148064:0:0:0:0:
448,192,148064,128,0,149388:0:0:0:0:
64,192,149388,128,0,150564:0:0:0:0:
192,192,149388,1,0,0:0:0:0:
320,192,149829,128,0,150564:0:0:0:0:
448,192,149829,1,0,0:0:0:0:
448,192,150564,128,0,151005:0:0:0:0:
192,192,150564,1,0,0:0:0:0:
64,192,151005,128,0,151300:0:0:0:0:
320,192,151300,128,0,151520:0:0:0:0:
448,192,151300,1,0,0:0:0:0:
192,192,151520,128,0,151741:0:0:0:0:
320,192,151741,128,0,151961:0:0:0:0:
448,192,152182,128,0,152476:0:0:0:0:
192,192,152182,1,0,0:0:0:0:
64,192,152476,128,0,152917:0:0:0:0:
320,192,152476,1,0,0:0:0:0:
192,192,152917,128,0,153358:0:0:0:0:
320,192,152917,1,0,0:0:0:0:
448,192,153358,128,0,153505:0:0:0:0:
448,192,153947,1,0,0:0:0:0:
64,192,154094,128,0,154535:0:0:0:0:
192,192,154535,128,0,154682:0:0:0:0:
192,192,155123,1,0,0:0:0:0:
448,192,155270,128,0,155711:0:0:0:0:
320,192,155711,128,0,155858:0:0:0:0:
320,192,156300,1,0,0:0:0:0:
448,192,156447,1,0,0:0:0:0:
64,192,156447,128,0,156888:0:0:0:0:
320,192,156888,128,0,157035:0:0:0:0:
320,192,157476,1,0,0:0:0:0:
192,192,157623,128,0,158064:0:0:0:0:
448,192,158064,128,0,158211:0:0:0:0:
448,192,158652,1,0,0:0:0:0:
64,192,158800,128,0,159241:0:0:0:0:
320,192,158800,128,0,159241:0:0:0:0:
192,192,159241,1,0,0:0:0:0:
448,192,159535,128,0,160417:0:0:0:0:
320,192,159535,1,0,0:0:0:0:
64,192,159976,128,0,160417:0:0:0:0:
192,192,159976,1,0,0:0:0:0:
320,192,160417,128,0,161152:0:0:0:0:
64,192,161152,1,0,0:0:0:0:
192,192,161152,128,0,161594:0:0:0:0:
320,192,161594,128,0,161888:0:0:0:0:
64,192,161888,128,0,162182:0:0:0:0:
448,192,162182,128,0,162476:0:0:0:0:
320,192,162476,128,0,162770:0:0:0:0:
192,192,162770,128,0,163064:0:0:0:0:
448,192,163064,128,0,163358:0:0:0:0:
192,192,163358,128,0,163652:0:0:0:0:
320,192,163652,128,0,163947:0:0:0:0:
64,192,163947,128,0,164241:0:0:0:0:
320,192,164241,128,0,164535:0:0:0:0:
192,192,164535,1,0,0:0:0:0:
64,192,164682,128,0,165123:0:0:0:0:
448,192,164682,128,0,165123:0:0:0:0:
192,192,165123,128,0,165417:0:0:0:0:
448,192,165417,1,0,0:0:0:0:
64,192,165564,1,0,0:0:0:0:
320,192,165858,1,0,0:0:0:0:
448,192,165858,128,0,166300:0:0:0:0:
192,192,166300,128,0,166447:0:0:0:0:
192,192,166888,1,0,0:0:0:0:
64,192,167035,128,0,167476:0:0:0:0:
448,192,167476,128,0,167623:0:0:0:0:
448,192,168064,1,0,0:0:0:0:
320,192,168211,128,0,168505:0:0:0:0:
64,192,168505,1,0,0:0:0:0:
448,192,168652,128,0,168947:0:0:0:0:
64,192,168947,1,0,0:0:0:0:
448,192,169094,128,0,169388:0:0:0:0:
192,192,169388,128,0,170711:0:0:0:0:
448,192,170711,128,0,171005:0:0:0:0:
320,192,170711,1,0,0:0:0:0:
64,192,171005,128,0,171447:0:0:0:0:
320,192,171447,128,0,171741:0:0:0:0:
448,192,171741,128,0,172182:0:0:0:0:
192,192,171741,1,0,0:0:0:0:
64,192,172182,128,0,172623:0:0:0:0:
320,192,172770,128,0,173064:0:0:0:0:
448,192,173064,128,0,173652:0:0:0:0:
192,192,173064,1,0,0:0:0:0:
192,192,173652,128,0,173800:0:0:0:0:
64,192,173800,128,0,174094:0:0:0:0:
320,192,174094,128,0,174388:0:0:0:0:
448,192,174094,1,0,0:0:0:0:
192,192,174388,128,0,174535:0:0:0:0:
320,192,174682,128,0,174829:0:0:0:0:
192,192,174829,128,0,174976:0:0:0:0:
320,192,175123,128,0,175417:0:0:0:0:
64,192,175417,1,0,0:0:0:0:
448,192,175417,128,0,176005:0:0:0:0:
192,192,176005,128,0,176152:0:0:0:0:
64,192,176152,128,0,176447:0:0:0:0:
320,192,176447,128,0,177182:0:0:0:0:
448,192,176447,1,0,0:0:0:0:
192,192,177182,128,0,177329:0:0:0:0:
448,192,177476,128,0,177770:0:0:0:0:
192,192,177770,128,0,178358:0:0:0:0:
64,192,177770,1,0,0:0:0:0:
320,192,178358,128,0,178800:0:0:0:0:
64,192,178800,128,0,179094:0:0:0:0:
192,192,178800,1,0,0:0:0:0:
448,192,179094,128,0,179241:0:0:0:0:
64,192,179388,128,0,179535:0:0:0:0:
448,192,179535,128,0,179682:0:0:0:0:
64,192,179829,128,0,180123:0:0:0:0:
320,192,180123,128,0,180417:0:0:0:0:
448,192,180123,1,0,0:0:0:0:
192,192,180417,128,0,180858:0:0:0:0:
448,192,180858,128,0,181152:0:0:0:0:
320,192,181152,128,0,181594:0:0:0:0:
64,192,181152,1,0,0:0:0:0:
192,192,181594,128,0,182035:0:0:0:0:
64,192,182182,128,0,182476:0:0:0:0:
448,192,182476,128,0,182917:0:0:0:0:
320,192,182476,1,0,0:0:0:0:
192,192,182917,128,0,183064:0:0:0:0:
64,192,183064,128,0,183505:0:0:0:0:
192,192,183505,128,0,183800:0:0:0:0:
320,192,183505,1,0,0:0:0:0:
448,192,183800,128,0,183947:0:0:0:0:
192,192,184094,128,0,184241:0:0:0:0:
448,192,184241,128,0,184388:0:0:0:0:
192,192,184535,128,0,184829:0:0:0:0:
320,192,184829,128,0,185417:0:0:0:0:
64,192,184829,1,0,0:0:0:0:
192,192,185417,128,0,185564:0:0:0:0:
64,192,185564,128,0,185858:0:0:0:0:
448,192,185858,128,0,186594:0:0:0:0:
320,192,185858,1,0,0:0:0:0:
192,192,186594,128,0,186741:0:0:0:0:
320,192,186888,128,0,187182:0:0:0:0:
448,192,187182,128,0,187476:0:0:0:0:
64,192,187182,1,0,0:0:0:0:
192,192,187476,1,0,0:0:0:0:
320,192,187623,128,0,188064:0:0:0:0:
64,192,187623,1,0,0:0:0:0:
192,192,188064,1,0,0:0:0:0:
64,192,188211,128,0,188947:0:0:0:0:
448,192,188211,128,0,189094:0:0:0:0:
192,192,188947,1,0,0:0:0:0:
320,192,189094,128,0,189388:0:0:0:0:
