osu file format v14

[General]
AudioFilename: audio.mp3
AudioLeadIn: 0
PreviewTime: 195226
Countdown: 0
SampleSet: Soft
StackLeniency: 0.7
Mode: 0
LetterboxInBreaks: 0
WidescreenStoryboard: 0

[Editor]
DistanceSpacing: 0.2
BeatDivisor: 4
GridSize: 4
TimelineZoom: 1.7

[Metadata]
Title:Souzou Forest
TitleUnicode:想像フォレスト
Artist:Rib
ArtistUnicode:りぶ
Creator:Kalibe
Version:Fantasy
Source:メカクシティアクターズ
Tags:Last Note. fantasy utaite cover kagerou project mekakucity actors imagination marry kozakura naotoshi nao tomori irohas mugiwarasekai
BeatmapID:1659594
BeatmapSetID:791006

[Difficulty]
HPDrainRate:6
CircleSize:4
OverallDifficulty:8
ApproachRate:9
SliderMultiplier:1.9
SliderTickRate:1

[Events]
//Background and Video events
0,0,"bgggg.jpg",0,0
//Break Periods
2,218093,226626
//Storyboard Layer 0 (Background)
//Storyboard Layer 1 (Fail)
//Storyboard Layer 2 (Pass)
//Storyboard Layer 3 (Foreground)
//Storyboard Sound Samples

[TimingPoints]
560,333.333333333333,4,2,1,30,1,0
560,-133.333333333333,4,2,1,30,0,0
9726,-250,4,2,1,30,0,0
11226,-250,4,2,1,35,0,0
21393,-250,4,2,1,45,0,0
21893,-125,4,1,1,50,0,0
32393,-111.111111111111,4,1,1,55,0,0
43393,-133.333333333333,4,1,1,60,0,0
59226,-111.111111111111,4,1,1,65,0,0
59893,-100,4,1,1,65,0,0
64559,-100,4,1,2,70,0,0
64643,-100,4,1,1,70,0,0
85726,-125,4,1,1,40,0,0
87226,-125,4,1,1,50,0,0
108393,-111.111111111111,4,1,1,55,0,0
124559,-111.111111111111,4,1,1,60,0,0
129893,-95.2380952380952,4,1,2,70,0,0
129976,-95.2380952380952,4,1,1,70,0,0
149893,-74.0740740740741,4,1,1,65,0,0
150226,-133.333333333333,4,1,1,60,0,0
151226,-125,4,1,1,55,0,0
161893,-111.111111111111,4,1,2,65,0,0
161976,-111.111111111111,4,1,1,65,0,0
172559,-99.9999999999999,4,2,2,70,0,0
172643,-99.9999999999999,4,2,1,70,0,0
179476,-99.9999999999999,4,2,1,5,0,0
179559,-99.9999999999999,4,2,1,70,0,0
186143,-99.9999999999999,4,2,1,5,0,0
186226,-99.9999999999999,4,2,1,70,0,0
192393,-83.3333333333333,4,2,1,70,0,0
194726,-83.3333333333333,4,2,1,50,0,0
195226,-90.9090909090909,4,1,2,70,0,0
195309,-90.9090909090909,4,1,1,70,0,0
217893,-90.9090909090909,4,1,1,40,0,0
227226,-100,4,1,1,60,0,0
239726,-166.666666666667,4,2,1,35,0,0
240893,-200,4,2,1,35,0,0
246059,413.793103448276,4,2,1,35,1,0
246059,-200,4,2,1,35,0,0
246820,382.165605095541,4,2,1,25,1,0
246820,-166.666666666667,4,2,1,25,0,0

[Colours]
Combo1 : 224,119,84
Combo2 : 242,138,154
Combo3 : 216,202,156
Combo4 : 245,198,126

[HitObjects]
20,267,560,5,2,0:0:0:0:
157,230,2559,5,0,0:0:0:0:
157,230,2726,1,0,0:0:0:0:
253,265,3226,5,2,0:0:0:0:
391,231,4559,5,2,0:0:0:0:
397,211,5226,1,2,0:0:0:0:
361,114,5893,5,2,0:0:0:0:
448,65,7143,6,0,L|454:19,1,35.625001358986,2|2,0:0|0:0,0:0:0:0:
512,162,7893,5,2,0:0:0:0:
347,225,8559,5,2,0:0:0:0:
331,299,8726,1,0,0:0:0:0:
320,201,8893,1,2,0:0:0:0:
298,314,9059,1,2,0:0:0:0:
33,241,9393,5,0,0:0:0:0:
132,270,9559,1,2,0:0:0:0:
55,261,9726,2,0,L|38:61,1,190,2|2,0:0|0:3,0:0:0:0:
38,71,11059,1,0,0:0:0:0:
101,26,11226,6,0,L|190:38,1,76,2|0,0:0|0:0,0:0:0:0:
235,92,11726,1,2,0:3:0:0:
235,92,12059,1,0,0:0:0:0:
260,112,12393,2,0,P|276:105|344:92,2,76,2|2|2,0:0|0:3|0:3,0:0:0:0:
81,253,13393,6,0,P|77:234|70:201,2,38,2|0|0,0:0|0:0|0:0,0:0:0:0:
81,253,13893,1,2,0:3:0:0:
154,223,14226,1,2,0:0:0:0:
227,256,14393,2,0,P|231:219|247:134,1,114,2|0,0:3|0:0,0:0:0:0:
192,87,15059,2,0,L|149:95,1,38,2|0,0:0|0:0,0:0:0:0:
83,68,15393,1,2,0:3:0:0:
60,148,15559,1,0,0:0:0:0:
62,73,15726,1,2,0:3:0:0:
244,143,16059,5,2,0:0:0:0:
359,100,16226,1,2,0:3:0:0:
281,81,16393,1,0,0:0:0:0:
354,69,16559,2,0,P|382:78|466:91,1,114,2|2,0:0|0:3,0:0:0:0:
412,171,17226,2,0,P|374:176|338:187,1,76,2|0,0:0|0:0,0:0:0:0:
338,186,17726,1,2,0:0:0:0:
244,143,17893,2,0,P|228:180|221:261,2,114,2|2|2,0:0|0:3|0:3,0:0:0:0:
400,299,19226,5,2,0:3:0:0:
400,299,19726,1,2,0:3:0:0:
400,299,20393,1,2,0:0:0:0:
329,278,20559,1,2,0:3:0:0:
257,307,20726,1,2,0:0:0:0:
237,339,20893,1,2,0:0:0:0:
237,339,21393,5,0,1:0:0:0:
206,167,21559,1,10,1:0:0:0:
137,208,21726,1,2,1:0:0:0:
278,269,21893,1,4,1:0:0:0:
278,269,22226,5,0,0:0:0:0:
353,205,22393,2,0,P|354:181|364:115,1,76,2|0,0:0|0:0,0:0:0:0:
223,181,22726,2,0,P|222:157|212:91,1,76,2|0,0:0|0:0,0:0:0:0:
297,20,23059,5,0,3:0:0:0:
297,20,23393,1,0,0:0:0:0:
221,4,23559,1,0,3:0:0:0:
243,106,23726,2,0,P|178:121|108:176,1,152,2|0,0:0|0:0,0:0:0:0:
50,121,24226,1,0,3:0:0:0:
212,205,24393,5,8,0:0:0:0:
299,248,24559,2,0,P|299:234|317:158,1,76,4|0,0:2|0:0,0:0:0:0:
148,264,24893,1,0,3:0:0:0:
50,310,25059,2,0,P|45:267|23:145,1,152
212,205,25559,1,0,3:0:0:0:
297,169,25726,2,0,P|306:109|326:-12,1,152,2|0,0:0|0:0,0:0:0:0:
231,15,26226,6,0,L|156:21,1,76,0|0,3:0|0:0,0:0:0:0:
42,133,26559,1,0,3:0:0:0:
124,181,26726,1,0,0:0:0:0:
215,122,26893,1,8,3:0:0:0:
364,224,27059,5,8,0:0:0:0:
473,125,27226,2,0,L|449:283,1,152,4|0,0:0|3:0,0:0:0:0:
450,275,27726,1,0,0:0:0:0:
325,374,27893,2,0,P|320:336|312:299,1,76
209,153,28226,5,0,3:0:0:0:
269,206,28393,2,0,P|292:164|271:48,1,152,2|0,0:0|0:0,0:0:0:0:
169,6,28893,1,0,3:0:0:0:
152,78,29059,1,2,0:0:0:0:
339,143,29226,1,0,3:0:0:0:
364,68,29393,1,0,0:0:0:0:
258,81,29559,5,8,3:0:0:0:
237,227,29726,2,0,B|103:205|136:293|19:293,1,228,8|0,0:0|0:0,0:0:0:0:
38,215,30393,1,2,0:0:0:0:
117,155,30559,2,0,P|111:127|105:79,1,76,0|0,3:0|0:0,0:0:0:0:
184,301,30893,2,0,P|178:329|172:377,1,76,0|0,3:0|0:0,0:0:0:0:
173,376,31143,1,2,2:0:0:0:
173,376,31226,1,2,2:0:0:0:
80,336,31393,6,0,L|73:282,2,38,0|0|0,2:0|2:0|3:0,0:0:0:0:
152,224,31726,1,2,0:0:0:0:
225,202,31893,1,0,3:0:0:0:
330,327,32059,1,0,3:0:0:0:
330,327,32143,1,8,3:0:0:0:
330,327,32226,1,8,0:0:0:0:
440,354,32393,5,2,0:0:0:0:
330,209,32559,2,0,P|272:208|213:299,1,170.999994781494,4|0,0:0|0:0,0:0:0:0:
263,372,33059,2,0,P|301:362|366:353,1,85.4999973907472,2|0,0:0|3:0,0:0:0:0:
110,277,33393,2,0,P|120:318|127:360,1,85.4999973907472,2|0,0:0|3:0,0:0:0:0:
248,179,33726,2,0,P|235:103|223:4,1,170.999994781494,2|0,0:0|0:0,0:0:0:0:
368,58,34226,5,0,3:0:0:0:
464,111,34393,2,0,P|471:68|471:11,1,85.4999973907472,2|0,0:0|3:0,0:0:0:0:
270,144,34726,2,0,P|272:186|278:230,1,85.4999973907472,2|0,0:0|3:0,0:0:0:0:
376,171,35059,5,8,0:0:0:0:
190,82,35226,2,0,P|143:112|145:230,1,170.999994781494,4|0,0:2|3:0,0:0:0:0:
294,124,35726,1,2,0:0:0:0:
294,124,35893,2,0,P|309:80|288:32,1,85.4999973907472,0|0,3:0|0:0,0:0:0:0:
155,150,36226,5,0,3:0:0:0:
248,227,36393,2,0,B|357:221|319:260|421:261,1,170.999994781494,2|0,0:0|0:0,0:0:0:0:
206,318,36893,1,0,3:0:0:0:
282,361,37059,2,0,P|333:349|384:351,1,85.4999973907472,2|0,0:0|0:0,0:0:0:0:
395,106,37393,5,0,3:0:0:0:
300,146,37559,1,8,3:0:0:0:
413,260,37726,5,8,0:0:0:0:
317,65,37893,1,4,0:0:0:0:
317,65,38226,1,0,0:0:0:0:
239,16,38393,2,0,P|229:34|220:103,1,85.4999973907472,2|0,0:2|3:0,0:0:0:0:
398,18,38726,2,0,P|408:36|417:105,1,85.4999973907472,2|0,0:2|3:0,0:0:0:0:
313,239,39059,1,2,0:0:0:0:
313,239,39393,5,2,0:2:0:0:
240,206,39559,1,0,3:0:0:0:
365,156,39726,1,2,0:0:0:0:
437,190,39893,1,0,3:0:0:0:
318,335,40059,6,0,P|286:337|212:358,1,85.4999973907472,2|0,0:2|3:0,0:0:0:0:
47,149,40393,6,0,B|189:128|121:235|271:252,1,256.499992172241,10|0,0:0|3:0,0:0:0:0:
280,179,41059,1,2,0:0:0:0:
246,112,41226,1,4,3:2:0:0:
289,21,41393,1,0,3:0:0:0:
245,88,41559,1,0,3:0:0:0:
396,174,41726,5,2,3:0:0:0:
412,95,41893,1,0,3:0:0:0:
428,22,42059,1,8,3:0:0:0:
428,22,42143,1,8,3:0:0:0:
428,22,42226,1,10,0:0:0:0:
370,171,42393,5,8,3:0:0:0:
321,272,42559,5,10,0:0:0:0:
278,119,42726,1,8,3:0:0:0:
131,220,42893,5,10,0:0:0:0:
76,383,43059,1,4,0:0:0:0:
76,383,43393,1,0,3:0:0:0:
16,299,43559,6,0,L|30:218,1,71.2500027179719,8|0,0:0|0:0,0:0:0:0:
43,216,43809,1,0,3:0:0:0:
39,196,43893,1,0,3:0:0:0:
170,157,44059,1,8,3:0:0:0:
97,139,44226,1,8,0:0:0:0:
233,227,44393,2,0,B|305:230|381:264|381:264,1,142.500005435944,4|0,0:2|0:0,0:0:0:0:
441,225,44893,5,8,0:0:0:0:
360,120,45059,1,0,3:0:0:0:
365,145,45143,1,8,3:0:0:0:
371,169,45226,1,0,0:0:0:0:
296,272,45393,1,2,0:0:0:0:
184,128,45559,5,8,0:0:0:0:
44,244,45726,1,2,0:0:0:0:
176,312,45893,2,0,P|127:318|58:335,1,106.875004076958,0|0,3:0|2:0,0:0:0:0:
71,331,46226,1,8,0:0:0:0:
316,296,46476,5,8,3:0:0:0:
316,296,46559,2,0,P|305:339|300:377,1,71.2500027179719,0|2,3:0|0:0,0:0:0:0:
234,207,46893,1,8,0:0:0:0:
295,161,47059,2,0,P|287:118|285:-5,1,142.500005435944,2|0,0:0|0:0,0:0:0:0:
181,102,47559,2,0,P|116:87|51:84,1,106.875004076958,8|8,0:0|3:0,0:0:0:0:
76,83,47893,2,0,P|81:52|88:10,1,71.2500027179719,0|2,3:0|0:0,0:0:0:0:
190,179,48226,5,8,0:0:0:0:
120,253,48393,1,0,3:0:0:0:
120,253,48476,1,0,3:0:0:0:
120,253,48559,2,0,P|69:256|-7:183,2,142.500005435944,4|8|0,0:0|0:0|3:0,0:0:0:0:
225,382,49393,6,0,P|230:346|238:312,1,71.2500027179719,2|8,0:0|0:0,0:0:0:0:
355,354,49726,2,0,P|350:307|336:204,1,142.500005435944,0|2,3:0|0:0,0:0:0:0:
255,70,50226,1,8,0:0:0:0:
237,144,50393,1,0,3:0:0:0:
230,168,50476,1,8,3:0:0:0:
224,192,50559,1,0,0:0:0:0:
255,70,50726,6,0,B|288:53|348:60|348:60,1,71.2500027179719,2|8,0:0|0:0,0:0:0:0:
145,245,51059,2,0,B|63:270|3:210|3:210,1,142.500005435944,2|0,0:0|0:0,0:0:0:0:
74,112,51559,6,0,L|165:101,1,71.2500027179719,8|0,0:0|0:0,0:0:0:0:
166,89,51809,1,8,3:0:0:0:
173,70,51893,1,0,3:0:0:0:
98,13,52059,1,2,0:0:0:0:
0,76,52226,1,8,0:0:0:0:
139,209,52393,2,0,P|199:215|297:234,1,142.500005435944,2|0,0:0|3:0,0:0:0:0:
451,355,52893,5,8,0:0:0:0:
481,285,53059,1,0,3:0:0:0:
481,285,53143,1,8,3:0:0:0:
481,285,53226,1,0,3:0:0:0:
381,227,53393,5,2,0:0:0:0:
501,86,53559,1,8,0:0:0:0:
496,48,53642,1,8,0:0:0:0:
483,6,53726,1,4,0:0:0:0:
398,43,53893,1,2,0:0:0:0:
419,134,54059,1,2,0:0:0:0:
380,68,54226,6,0,P|330:65|271:61,1,106.875004076958,8|0,0:0|3:0,0:0:0:0:
240,41,54559,1,0,3:0:0:0:
195,221,54726,1,2,0:0:0:0:
284,178,54893,1,8,0:0:0:0:
184,110,55059,2,0,P|161:115|104:123,1,71.2500027179719,2|0,0:0|3:0,0:0:0:0:
285,205,55393,2,0,P|320:209|355:217,1,71.2500027179719,0|8,3:0|0:0,0:0:0:0:
132,334,55726,5,0,3:0:0:0:
132,334,55809,1,8,3:0:0:0:
132,334,55893,1,4,3:0:0:0:
238,286,56059,1,2,0:0:0:0:
163,197,56226,1,8,0:0:0:0:
37,246,56393,1,8,0:0:0:0:
208,375,56559,6,0,P|240:369|381:358,1,142.500005435944,2|8,0:0|0:0,0:0:0:0:
512,225,57143,1,8,3:0:0:0:
512,225,57226,2,0,P|461:213|421:207,1,71.2500027179719
302,69,57559,5,8,0:0:0:0:
373,36,57726,2,0,P|414:30|486:110,1,142.500005435944,2|0,0:0|3:0,0:0:0:0:
332,246,58226,1,8,0:0:0:0:
364,176,58393,1,0,3:0:0:0:
370,152,58476,1,8,3:0:0:0:
379,129,58559,1,4,3:0:0:0:
426,227,58726,5,2,0:0:0:0:
279,346,58893,1,10,0:0:0:0:
119,192,59059,1,4,3:0:0:0:
119,192,59143,1,8,0:0:0:0:
119,192,59226,2,0,B|76:104|152:121|116:16,2,170.999994781494,4|8|0,0:0|0:0|0:0,0:0:0:0:
36,67,60059,5,0,3:0:0:0:
193,146,60226,1,8,0:0:0:0:
272,203,60393,5,0,3:0:0:0:
272,203,60476,1,0,3:0:0:0:
272,203,60559,2,0,P|280:158|290:109,1,95,2|0,0:0|0:0,0:0:0:0:
69,265,60893,5,8,0:0:0:0:
184,321,61059,1,0,3:0:0:0:
119,192,61226,5,8,3:0:0:0:
0,325,61393,1,0,3:0:0:0:
201,236,61559,5,8,0:0:0:0:
0,131,61726,1,4,0:0:0:0:
0,131,62059,5,0,3:0:0:0:
14,52,62226,1,10,0:0:0:0:
128,7,62393,5,0,3:0:0:0:
131,39,62476,1,8,3:0:0:0:
136,71,62559,1,0,0:0:0:0:
146,159,62726,1,8,3:0:0:0:
257,243,62893,5,8,0:0:0:0:
288,99,63059,2,0,L|298:39,1,47.5,0|0,0:0|3:0,0:0:0:0:
283,20,63226,1,10,0:0:0:0:
283,20,63559,6,0,B|127:-8|190:131|35:133,1,285,4|0,0:0|2:0,0:0:0:0:
40,132,64143,1,4,3:0:0:0:
40,132,64226,1,8,0:0:0:0:
22,215,64393,1,8,0:0:0:0:
160,378,64559,6,0,P|151:312|143:183,2,190,4|8|0,0:2|0:0|0:0,0:0:0:0:
281,294,65393,1,0,3:0:0:0:
272,218,65559,1,8,0:0:0:0:
393,372,65726,2,0,P|404:333|407:265,1,95,2|0,0:0|0:0,0:0:0:0:
323,76,66059,5,2,0:0:0:0:
284,142,66226,1,8,0:0:0:0:
371,192,66393,1,0,3:0:0:0:
371,192,66476,1,8,3:0:0:0:
371,192,66559,1,2,0:0:0:0:
253,185,66726,5,2,0:0:0:0:
312,45,66893,1,8,0:0:0:0:
463,129,67059,1,0,3:0:0:0:
408,279,67226,1,4,2:0:0:0:
193,95,67559,6,0,B|144:103|80:112|80:112,1,95,10|0,0:0|0:0,0:0:0:0:
66,98,67809,1,8,3:0:0:0:
66,98,67893,1,4,3:0:0:0:
72,192,68059,1,0,3:0:0:0:
131,342,68226,5,8,0:0:0:0:
197,239,68393,1,2,0:0:0:0:
244,174,68559,2,0,B|356:176|312:243|410:258,1,190,4|8,0:2|0:0,0:0:0:0:
474,162,69059,5,0,3:0:0:0:
470,128,69143,1,8,3:0:0:0:
463,95,69226,1,4,3:0:0:0:
363,58,69393,1,0,3:0:0:0:
244,174,69559,1,8,0:0:0:0:
273,289,69726,1,0,3:0:0:0:
282,320,69809,1,0,3:0:0:0:
292,355,69893,2,0,B|196:325|104:384,2,190,4|8|0,0:2|0:0|0:0,0:0:0:0:
383,315,70726,6,0,P|385:282|404:210,1,95,0|8,3:0|0:0,0:0:0:0:
135,102,71059,2,0,P|158:191|156:254,1,142.5,4|0,0:2|2:0,0:0:0:0:
157,241,71393,1,0,3:0:0:0:
253,180,71559,1,8,0:0:0:0:
155,99,71726,1,0,3:0:0:0:
22,187,71893,2,0,P|18:230|0:294,1,95,2|0,0:0|3:0,0:0:0:0:
234,384,72226,5,10,0:0:0:0:
254,307,72393,1,2,0:0:0:0:
152,344,72559,2,0,B|278:320|223:377|354:358,1,190,4|8,0:2|0:0,0:0:0:0:
466,258,73059,5,0,0:0:0:0:
466,258,73143,1,8,3:0:0:0:
466,258,73226,2,0,P|472:214|486:146,1,95,0|0,0:0|3:0,0:0:0:0:
263,125,73559,2,0,P|256:172|247:218,1,95,8|8,0:0|3:0,0:0:0:0:
368,185,73893,1,2,0:0:0:0:
368,185,74226,5,10,0:0:0:0:
335,12,74393,1,0,3:0:0:0:
257,32,74559,1,2,0:0:0:0:
443,152,74726,1,0,3:0:0:0:
180,67,74893,5,8,0:0:0:0:
147,60,74976,1,0,3:0:0:0:
114,68,75059,1,8,0:0:0:0:
80,65,75143,1,8,0:0:0:0:
80,65,75226,2,0,P|42:225|54:262,1,190,4|8,0:0|0:0,0:0:0:0:
247,376,75809,1,8,3:0:0:0:
247,376,75893,2,0,P|260:349|245:255,1,95,2|0,0:0|3:0,0:0:0:0:
147,141,76226,5,8,0:0:0:0:
67,215,76393,2,0,P|39:255|42:363,1,142.5,2|0,0:0|2:0,0:0:0:0:
34,346,76726,1,0,3:0:0:0:
149,295,76893,1,8,0:0:0:0:
325,220,77059,5,0,3:0:0:0:
325,220,77143,1,8,0:0:0:0:
325,220,77226,1,4,3:0:0:0:
221,179,77393,1,2,0:0:0:0:
260,285,77559,5,8,0:0:0:0:
422,199,77726,1,4,3:0:0:0:
239,97,77893,2,0,P|192:99|146:224,2,190,2|8|0,0:0|0:0|3:0,0:0:0:0:
369,120,78726,6,0,P|374:80|394:23,1,95,0|8,3:0|0:0,0:0:0:0:
223,177,79059,2,0,P|240:230|245:377,1,190,4|0,0:2|3:0,0:0:0:0:
398,255,79559,5,8,0:0:0:0:
344,181,79726,5,0,3:0:0:0:
344,181,79809,1,8,0:0:0:0:
344,181,79893,1,4,3:0:0:0:
483,283,80059,1,4,3:0:0:0:
324,332,80226,5,10,0:0:0:0:
480,175,80393,1,8,3:0:0:0:
480,175,80476,1,8,3:0:0:0:
480,175,80559,2,0,P|472:135|463:67,1,95,2|0,0:0|0:0,0:0:0:0:
238,187,80893,2,0,P|246:135|253:23,1,142.5,8|0,0:0|2:0,0:0:0:0:
284,28,81226,5,0,3:0:0:0:
183,2,81393,1,0,3:0:0:0:
360,66,81559,1,8,0:0:0:0:
116,93,81726,6,0,P|79:98|7:117,1,95,4|0,0:2|0:0,0:0:0:0:
85,191,82059,1,0,3:0:0:0:
0,360,82226,2,0,P|45:371|92:378,1,95,8|0,0:0|0:0,0:0:0:0:
114,364,82476,1,8,3:0:0:0:
114,364,82559,5,0,3:0:0:0:
222,320,82726,1,0,3:0:0:0:
346,384,82893,1,8,0:0:0:0:
489,325,83059,1,0,3:0:0:0:
500,308,83143,1,8,3:0:0:0:
508,295,83226,2,0,P|500:241|481:101,1,190,4|8,0:2|0:0,0:0:0:0:
226,16,83809,1,8,3:0:0:0:
226,16,83893,2,0,P|225:56|211:129,1,95,0|0,3:0|3:0,0:0:0:0:
319,177,84226,2,0,P|320:137|334:64,1,95,8|0,0:0|0:0,0:0:0:0:
367,16,84476,1,8,3:0:0:0:
390,37,84559,1,8,0:0:0:0:
390,37,84893,6,0,B|248:18|282:153|117:138,1,285,4|0,0:0|3:0,0:0:0:0:
31,89,85559,1,8,0:0:0:0:
49,15,85726,1,8,0:0:0:0:
49,15,86059,6,0,L|92:8,2,38,0|2|2,2:0|2:0|2:3,2:0:0:0:
87,355,86559,5,2,0:0:0:0:
121,224,86726,5,4,3:0:0:0:
121,224,86809,1,8,3:0:0:0:
121,224,86893,1,10,0:0:0:0:
140,121,87059,5,8,0:0:0:0:
309,248,87226,6,0,P|252:246|190:317,1,152,4|0,0:0|3:0,0:0:0:0:
121,224,87726,2,0,P|126:189|140:150,1,76,2|0,0:0|0:0,0:0:0:0:
200,60,88059,2,0,P|164:47|126:41,1,76,2|0,0:0|3:0,0:0:0:0:
233,173,88393,2,0,P|281:156|392:144,1,152,2|0,0:0|0:0,0:0:0:0:
380,143,88893,1,0,3:0:0:0:
496,41,89059,6,0,P|488:78|485:116,1,76,2|0,0:0|3:0,0:0:0:0:
292,48,89393,2,0,P|299:85|302:123,1,76,2|0,0:0|3:0,0:0:0:0:
391,52,89726,1,8,0:0:0:0:
396,202,89893,6,0,B|381:136|416:115|386:39,1,152,4|0,0:2|3:0,0:0:0:0:
320,18,90393,1,0,0:0:0:0:
251,52,90559,1,0,3:0:0:0:
174,33,90726,1,0,0:0:0:0:
76,66,90893,1,0,3:0:0:0:
18,121,91059,2,0,P|15:168|8:209,1,76,0|4,0:0|3:0,0:0:0:0:
10,196,91559,5,0,3:0:0:0:
118,272,91726,1,2,0:0:0:0:
194,228,91893,2,0,P|197:197|207:134,1,76,2|0,3:2|0:0,0:0:0:0:
109,98,92226,1,8,3:0:0:0:
40,283,92393,5,8,0:0:0:0:
124,357,92559,6,0,B|192:332|275:333|275:333,1,152,4|0,0:0|3:0,0:0:0:0:
347,362,93059,1,2,0:0:0:0:
347,362,93226,2,0,P|359:331|360:280,1,76,2|0,3:2|0:0,0:0:0:0:
417,230,93559,2,0,P|399:196|372:169,1,76,2|0,3:2|0:0,0:0:0:0:
320,88,93893,2,0,P|282:89|246:102,1,76,2|0,3:2|0:0,0:0:0:0:
129,62,94226,2,0,P|102:88|84:122,1,76,0|0,3:0|0:0,0:0:0:0:
0,211,94559,5,2,3:2:0:0:
136,252,94726,1,0,3:0:0:0:
142,331,94893,1,8,3:0:0:0:
340,304,95059,5,8,0:0:0:0:
228,358,95226,2,0,P|281:290|426:296,1,228,4|0,0:2|2:0,0:0:0:0:
434,304,95809,1,2,2:0:0:0:
434,304,95893,2,0,P|441:251|453:200,1,76,2|0,3:0|0:0,0:0:0:0:
315,65,96226,2,0,P|322:102|326:140,1,76,0|2,3:0|0:3,0:0:0:0:
326,140,96726,5,2,0:2:0:0:
324,167,96809,1,2,0:2:0:0:
315,198,96893,1,4,3:0:0:0:
219,164,97059,1,8,3:0:0:0:
149,196,97226,1,0,3:0:0:0:
192,44,97393,5,8,3:0:0:0:
192,44,97476,1,8,3:0:0:0:
192,44,97559,1,8,0:0:0:0:
120,119,97726,5,2,0:0:0:0:
285,68,97893,2,0,P|311:61|366:55,1,76,4|0,0:0|0:0,0:0:0:0:
359,55,98226,1,0,3:0:0:0:
194,45,98393,2,0,P|141:38|45:15,1,152,2|0,0:0|0:0,0:0:0:0:
2,142,98893,5,0,3:0:0:0:
29,240,99059,2,0,P|77:235|147:322,1,152,2|0,0:0|0:0,0:0:0:0:
269,245,99559,1,0,3:0:0:0:
216,184,99726,2,0,P|187:179|115:159,1,76,2|0,0:0|3:0,0:0:0:0:
344,296,100059,2,0,P|350:258|360:221,1,76,2|0,0:0|3:0,0:0:0:0:
145,303,100393,5,8,0:0:0:0:
193,363,100559,2,0,B|259:362|356:388|356:388,1,152,4|0,3:0|3:0,0:0:0:0:
458,299,101059,1,2,0:0:0:0:
407,233,101226,1,0,3:0:0:0:
457,172,101393,1,2,0:2:0:0:
401,98,101559,1,0,3:0:0:0:
489,64,101726,2,0,P|425:57|308:48,1,152,2|0,0:0|0:0,0:0:0:0:
166,149,102226,5,0,3:0:0:0:
76,86,102393,2,0,P|81:49|79:-1,1,76,2|2,0:0|3:2,0:0:0:0:
186,22,102726,5,2,0:0:0:0:
320,148,102893,2,0,P|319:110|324:72,1,76,0|8,3:0|0:0,0:0:0:0:
147,182,103226,2,0,P|87:186|15:254,1,152,4|0,0:0|3:0,0:0:0:0:
0,321,103726,1,2,0:0:0:0:
0,321,103893,2,0,L|89:336,1,76,2|0,3:2|0:0,0:0:0:0:
138,382,104226,2,0,L|212:369,1,76,2|0,3:2|0:0,0:0:0:0:
339,312,104559,6,0,P|363:272|345:165,1,152,0|2,3:0|3:2,0:0:0:0:
408,87,105059,2,0,P|380:83|328:68,1,76,2|0,0:0|3:0,0:0:0:0:
465,225,105393,2,0,P|469:197|484:145,1,76,2|0,0:2|3:0,0:0:0:0:
255,117,105726,5,8,0:0:0:0:
181,191,105893,2,0,P|187:243|195:343,1,152,2|4,0:0|3:0,0:0:0:0:
276,242,106393,1,2,0:0:0:0:
356,288,106559,2,0,P|363:260|364:200,1,76,0|0,3:0|0:0,0:0:0:0:
220,16,106893,2,0,P|218:55|222:91,1,76,0|2,0:0|0:0,0:0:0:0:
88,285,107226,5,0,3:0:0:0:
218,188,107393,1,0,3:0:0:0:
193,175,107476,1,4,3:0:0:0:
162,177,107559,1,8,0:0:0:0:
90,208,107726,1,2,0:0:0:0:
160,328,107893,5,8,0:0:0:0:
153,351,107976,1,8,3:0:0:0:
283,277,108143,1,8,3:0:0:0:
300,291,108226,1,8,0:0:0:0:
186,208,108393,6,0,P|41:185|8:183,1,170.999994781494,4|0,0:0|3:0,0:0:0:0:
118,114,108893,2,0,P|143:110|207:94,1,85.4999973907472,8|0,0:0|0:0,0:0:0:0:
201,95,109143,1,8,3:0:0:0:
201,95,109226,1,0,0:0:0:0:
226,26,109393,1,2,0:0:0:0:
388,93,109559,1,8,0:0:0:0:
394,169,109726,2,0,L|399:309,1,128.249996086121,2|0,0:0|2:0,0:0:0:0:
372,322,110059,5,0,3:0:0:0:
294,251,110226,1,8,0:0:0:0:
403,178,110393,1,0,3:0:0:0:
403,178,110476,1,8,0:0:0:0:
403,178,110559,1,4,3:0:0:0:
311,224,110726,5,2,0:0:0:0:
398,297,110893,1,8,0:0:0:0:
235,382,111059,1,4,0:2:0:0:
235,382,111226,2,0,P|239:358|249:285,1,85.4999973907472,2|0,0:0|3:0,0:0:0:0:
447,381,111559,2,0,P|440:338|434:296,1,85.4999973907472,8|0,0:0|0:0,0:0:0:0:
341,384,111893,5,0,3:0:0:0:
324,283,112059,1,2,0:0:0:0:
365,172,112226,1,8,0:0:0:0:
324,75,112393,2,0,B|232:67|245:111|151:107,1,170.999994781494,4|0,0:2|3:0,0:0:0:0:
287,206,112893,5,8,0:0:0:0:
380,149,113059,1,4,3:0:0:0:
380,149,113143,1,8,0:0:0:0:
380,149,113226,1,0,0:0:0:0:
239,45,113393,2,0,P|184:34|153:21,1,85.4999973907472,2|8,0:0|0:0,0:0:0:0:
289,131,113726,5,0,3:0:0:0:
289,131,113809,1,8,3:0:0:0:
289,131,113893,2,0,P|339:104|461:97,2,170.999994781494,4|8|0,0:0|0:0|3:0,0:0:0:0:
367,291,114726,1,2,0:0:0:0:
462,214,114893,5,8,0:0:0:0:
462,214,115059,2,0,P|394:208|322:195,1,128.249996086121,4|0,0:2|2:0,0:0:0:0:
298,224,115393,1,0,3:0:0:0:
304,366,115559,2,0,P|346:369|405:390,1,85.4999973907472,8|0,0:0|3:0,0:0:0:0:
387,381,115809,1,8,0:0:0:0:
387,381,115893,2,0,L|408:289,1,85.4999973907472,0|2,0:0|0:0,0:0:0:0:
214,174,116226,5,8,0:0:0:0:
114,144,116393,2,0,P|62:180|77:287,1,170.999994781494,4|0,0:2|0:0,0:0:0:0:
145,382,116893,2,0,L|167:295,1,85.4999973907472,8|0,0:0|3:0,0:0:0:0:
165,299,117143,1,8,0:0:0:0:
165,299,117226,1,4,3:0:0:0:
244,205,117393,6,0,B|281:182|337:192|337:192,1,85.4999973907472,2|8,0:0|0:0,0:0:0:0:
512,71,117726,2,0,B|440:11|347:42|347:42,1,170.999994781494,2|0,0:0|3:0,0:0:0:0:
291,281,118226,1,8,0:0:0:0:
411,210,118393,5,0,3:0:0:0:
406,179,118476,1,8,3:0:0:0:
400,144,118559,1,0,3:0:0:0:
328,71,118726,5,2,0:0:0:0:
378,299,118893,1,8,0:0:0:0:
418,314,118976,1,8,0:0:0:0:
462,300,119059,1,4,0:0:0:0:
439,214,119226,5,2,0:0:0:0:
319,165,119393,1,0,3:0:0:0:
165,238,119559,2,0,P|106:243|8:276,1,128.249996086121,8|8,0:0|3:0,0:0:0:0:
39,261,119893,2,0,L|56:162,1,85.4999973907472,0|2,3:0|0:0,0:0:0:0:
270,61,120226,1,8,0:0:0:0:
134,14,120393,6,0,P|146:74|145:104,1,85.4999973907472,4|0,0:2|0:0,0:0:0:0:
262,278,120726,1,0,3:0:0:0:
328,148,120893,2,0,P|261:162|230:174,1,85.4999973907472,8|0,0:0|0:0,0:0:0:0:
222,184,121143,1,8,3:0:0:0:
222,184,121226,1,4,3:0:0:0:
370,279,121393,1,2,0:0:0:0:
400,204,121559,1,8,0:0:0:0:
227,295,121726,5,2,0:0:0:0:
244,373,121893,2,0,P|276:371|374:386,1,128.249996086121,4|0,0:2|2:0,0:0:0:0:
395,367,122226,1,8,0:0:0:0:
492,132,122476,5,8,0:0:0:0:
492,132,122559,1,0,3:0:0:0:
386,194,122726,1,2,0:0:0:0:
276,27,122893,5,8,0:0:0:0:
379,105,123059,2,0,P|390:83|393:12,1,85.4999973907472,4|0,0:2|0:0,0:0:0:0:
116,95,123393,5,2,0:0:0:0:
129,172,123559,1,8,0:0:0:0:
156,275,123726,1,0,3:0:0:0:
156,275,123809,1,8,0:0:0:0:
156,275,123893,1,8,3:0:0:0:
168,349,124059,2,0,P|210:337|263:330,1,85.4999973907472,2|8,0:0|0:0,0:0:0:0:
489,232,124393,2,0,P|456:223|413:220,1,42.7499986953736,8|8,3:0|0:0,0:0:0:0:
374,144,124559,6,0,P|307:150|230:223,1,170.999994781494,4|8,0:0|0:0,0:0:0:0:
451,37,125143,5,8,0:0:0:0:
451,37,125226,2,0,B|485:71|464:122|464:122,1,85.4999973907472,2|0,0:0|3:0,0:0:0:0:
327,285,125559,2,0,B|293:251|314:200|314:200,1,85.4999973907472,8|0,0:0|0:0,0:0:0:0:
267,138,125809,5,8,3:0:0:0:
279,121,125893,2,0,L|369:135,1,85.4999973907472,2|0,0:0|0:0,0:0:0:0:
506,343,126226,2,0,L|416:357,1,85.4999973907472,8|0,0:0|0:0,0:0:0:0:
231,291,126559,5,2,0:0:0:0:
311,205,126726,1,8,3:0:0:0:
289,371,126893,5,8,0:0:0:0:
152,206,127059,1,4,0:0:0:0:
152,206,127393,5,0,3:0:0:0:
88,326,127559,5,8,0:0:0:0:
156,305,127726,1,2,3:0:0:0:
280,138,127893,5,4,3:0:0:0:
188,108,128060,1,2,3:0:0:0:
229,364,128226,5,8,0:0:0:0:
434,299,128393,1,4,3:0:0:0:
443,276,128476,1,4,3:0:0:0:
455,246,128559,2,0,P|449:218|442:142,1,85.4999973907472,8|0,0:0|2:0,0:0:0:0:
170,29,128893,6,0,P|279:45|272:190,1,256.499992172241,4|0,0:0|2:0,0:0:0:0:
235,224,129476,1,8,3:0:0:0:
235,224,129559,2,0,P|228:287|220:329,1,85.4999973907472,8|4,0:0|3:0,0:0:0:0:
214,105,129893,6,0,B|339:93|290:166|407:161,2,199.499993911743,4|8|0,0:2|0:0|3:0,0:0:0:0:
148,64,130726,1,0,3:0:0:0:
207,11,130893,1,8,0:0:0:0:
374,82,131059,1,4,0:2:0:0:
447,49,131226,1,2,0:0:0:0:
380,5,131393,1,0,3:0:0:0:
284,175,131559,1,8,0:0:0:0:
304,252,131726,1,0,3:0:0:0:
304,252,131809,1,8,3:0:0:0:
304,252,131893,1,4,3:0:0:0:
214,288,132059,5,2,0:0:0:0:
375,191,132226,1,8,0:0:0:0:
347,344,132393,5,2,0:0:0:0:
186,190,132559,2,0,P|125:199|44:262,1,149.624995433808,4|0,0:2|2:0,0:0:0:0:
54,248,132893,2,0,P|54:213|34:144,1,99.7499969558717,10|0,0:0|0:0,0:0:0:0:
228,312,133226,2,0,P|193:312|124:332,1,99.7499969558717,2|0,0:0|3:0,0:0:0:0:
263,116,133559,2,0,P|263:151|283:220,1,99.7499969558717,10|4,0:0|0:2,0:0:0:0:
159,167,133893,6,0,P|153:100|141:-15,1,149.624995433808,2|0,0:0|2:0,0:0:0:0:
144,18,134226,1,8,0:0:0:0:
241,46,134393,1,0,3:0:0:0:
374,0,134559,1,2,0:0:0:0:
491,42,134726,1,0,3:0:0:0:
377,160,134893,2,0,P|355:151|281:137,1,99.7499969558717,8|0,0:0|3:0,0:0:0:0:
280,136,135143,5,4,3:0:0:0:
280,136,135226,2,0,P|354:119|472:173,2,199.499993911743,4|8|2,0:2|0:0|0:0,0:0:0:0:
189,199,136059,1,0,3:0:0:0:
179,276,136226,1,8,0:0:0:0:
370,378,136393,1,4,0:2:0:0:
388,302,136559,1,2,0:0:0:0:
291,244,136726,5,0,3:0:0:0:
259,357,136893,1,8,0:0:0:0:
422,314,137059,5,0,3:0:0:0:
422,314,137143,1,8,3:0:0:0:
422,314,137226,2,0,B|411:268|411:268|412:206,1,99.7499969558717,2|0,0:0|0:0,0:0:0:0:
164,305,137559,2,0,B|175:259|175:259|174:197,1,99.7499969558717,8|0,0:0|0:0,0:0:0:0:
286,355,137893,2,0,B|277:286|277:286|304:237|304:237|294:150,1,199.499993911743,2|8,3:1|0:0,0:0:0:0:
424,100,138393,5,0,3:0:0:0:
424,100,138476,1,8,3:0:0:0:
424,100,138559,2,0,P|441:174|436:202,1,99.7499969558717,2|0,0:0|0:0,0:0:0:0:
305,28,138893,2,0,P|307:77|291:124,1,99.7499969558717,8|0,0:0|3:0,0:0:0:0:
22,231,139226,2,0,P|5:157|10:129,1,99.7499969558717,2|0,0:0|3:0,0:0:0:0:
141,303,139560,2,0,P|138:253|154:206,1,99.7499969558717,8|0,0:0|0:0,0:0:0:0:
214,157,139809,5,8,3:0:0:0:
214,157,139893,1,2,0:0:0:0:
187,50,140059,1,4,3:0:0:0:
222,265,140226,5,10,0:0:0:0:
247,349,140393,1,8,0:0:0:0:
247,349,140476,1,8,0:0:0:0:
247,349,140559,2,0,B|365:320|328:398|448:380,2,199.499993911743,4|8|0,0:0|0:0|3:0,0:0:0:0:
388,276,141393,1,4,0:2:0:0:
320,235,141559,1,8,0:0:0:0:
378,69,141726,1,4,0:2:0:0:
441,116,141893,1,2,0:0:0:0:
270,167,142059,1,4,0:2:0:0:
293,93,142226,1,8,0:0:0:0:
385,184,142393,5,4,3:2:0:0:
385,184,142476,1,8,0:0:0:0:
385,184,142559,1,4,3:0:0:0:
408,260,142726,2,0,P|451:253|524:251,1,99.7499969558717,2|8,0:0|0:0,0:0:0:0:
240,153,143059,2,0,P|193:147|150:140,1,49.8749984779358,8|8,3:0|0:0,0:0:0:0:
201,75,143226,2,0,B|103:55|108:144|-21:115,1,199.499993911743,4|8,0:2|0:0,0:0:0:0:
303,255,143809,5,8,0:0:0:0:
303,255,143893,1,2,0:0:0:0:
207,177,144059,1,8,3:0:0:0:
85,251,144226,1,8,0:0:0:0:
185,350,144393,1,4,0:2:0:0:
214,276,144559,2,0,P|209:233|206:167,1,99.7499969558717,2|0,0:3|3:0,0:0:0:0:
469,369,144893,2,0,P|474:326|477:260,1,99.7499969558717,8|0,0:0|3:0,0:0:0:0:
476,269,145143,1,8,3:0:0:0:
476,269,145226,2,0,L|362:285,1,99.7499969558717,2|0,0:0|3:0,0:0:0:0:
89,93,145559,5,10,0:0:0:0:
165,69,145726,1,2,0:0:0:0:
293,268,145893,5,2,0:0:0:0:
188,304,146059,1,2,0:0:0:0:
163,166,146226,6,0,B|276:140|240:208|362:178,1,199.499993911743,8|0,0:0|0:0,0:0:0:0:
451,245,146726,2,0,P|453:209|469:144,1,99.7499969558717,0|8,3:0|0:0,0:0:0:0:
281,44,147059,2,0,P|279:80|263:145,1,99.7499969558717,4|0,0:2|0:0,0:0:0:0:
384,78,147393,1,2,0:0:0:0:
293,268,147559,5,8,0:0:0:0:
205,299,147726,5,0,3:0:0:0:
205,299,147809,1,8,0:0:0:0:
205,299,147893,1,4,3:0:0:0:
354,381,148059,1,4,3:0:0:0:
227,216,148226,5,8,0:0:0:0:
100,329,148393,1,0,3:0:0:0:
69,338,148476,1,8,3:0:0:0:
41,327,148559,2,0,P|29:302|48:123,2,199.499993911743,4|8|0,0:2|0:0|3:0,0:0:0:0:
183,154,149393,5,2,0:0:0:0:
256,65,149559,2,0,P|185:49|134:56,1,99.7499969558717,8|0,0:0|3:0,0:0:0:0:
158,51,149809,5,8,3:0:0:0:
158,51,149893,2,0,B|285:50|248:102|355:105,1,192.375000733852,4|0,1:2|2:0,0:0:0:0:
504,200,150226,6,0,B|382:187|409:271|289:268,1,213.750008153916,4|0,0:0|2:0,0:0:0:0:
308,267,150809,1,8,3:0:0:0:
308,267,150893,1,8,0:0:0:0:
340,144,151059,5,8,0:0:0:0:
357,376,151226,5,4,0:0:0:0:
357,376,151559,1,2,3:0:0:0:
219,347,151726,5,0,3:0:0:0:
215,346,151809,1,0,3:0:0:0:
211,345,151893,2,0,P|220:303|226:248,1,76,10|2,0:0|3:2,0:0:0:0:
430,198,152226,1,2,3:2:0:0:
434,197,152309,1,8,0:0:0:0:
437,196,152393,2,0,P|428:158|423:121,1,76,0|2,0:0|0:3,0:0:0:0:
211,47,152809,5,2,0:3:0:0:
213,44,152893,1,8,0:0:0:0:
288,26,153059,1,2,0:3:0:0:
364,51,153226,1,2,3:3:0:0:
43,160,153476,5,2,0:3:0:0:
41,156,153559,1,8,0:0:0:0:
119,205,153726,1,2,3:0:0:0:
119,205,153893,2,0,P|165:207|266:252,1,152,2|0,0:3|0:0,0:0:0:0:
365,371,154393,5,8,0:3:0:0:
362,373,154476,1,8,0:3:0:0:
348,384,154559,1,8,0:0:0:0:
318,364,154643,1,2,0:0:0:0:
320,318,154726,1,8,3:0:0:0:
354,279,154809,1,12,3:0:0:0:
399,247,154893,1,12,3:0:0:0:
409,202,154976,1,8,0:0:0:0:
384,165,155059,2,0,B|245:151|267:281|111:293,1,304,2|8,0:3|0:0,0:0:0:0:
3,221,155893,5,2,0:0:0:0:
27,111,156059,1,2,0:3:0:0:
35,80,156143,1,4,3:0:0:0:
38,42,156226,1,8,0:0:0:0:
125,135,156393,1,2,0:3:0:0:
264,20,156559,6,0,P|264:72|272:184,1,152,4|0,0:0|3:0,0:0:0:0:
371,329,157059,1,0,3:0:0:0:
377,303,157143,1,8,3:0:0:0:
384,267,157226,1,8,0:0:0:0:
493,135,157393,5,4,3:0:0:0:
472,116,157476,1,8,3:0:0:0:
428,104,157559,1,8,0:0:0:0:
384,124,157643,1,8,0:0:0:0:
352,164,157726,2,0,P|280:196|136:116,1,228,2|8,0:3|0:0,0:0:0:0:
95,39,158393,5,2,0:2:0:0:
95,39,158559,2,0,L|-8:29,1,76,2|0,0:0|0:0,0:0:0:0:
0,31,158809,1,0,3:0:0:0:
0,31,158893,1,8,0:0:0:0:
203,82,159143,5,2,0:3:0:0:
203,82,159226,2,0,B|301:77|263:104|353:109,1,152,2|2,0:0|0:3,0:0:0:0:
380,88,159643,2,0,L|372:131,1,38,2|8,0:3|0:0,0:0:0:0:
442,176,159809,1,8,0:0:0:0:
442,176,159893,2,0,L|453:122,1,38,8|0,0:0|2:0,0:0:0:0:
291,47,160059,5,2,0:3:0:0:
275,81,160143,1,0,3:0:0:0:
280,127,160226,1,2,0:3:0:0:
267,181,160309,1,8,0:3:0:0:
267,181,160393,2,0,P|172:194|107:211,1,152,6|2,0:0|3:3,0:0:0:0:
47,171,160893,5,2,0:3:0:0:
162,115,161059,5,2,0:3:0:0:
83,80,161226,5,6,1:3:0:0:
83,80,161309,1,0,3:0:0:0:
251,161,161476,5,2,0:3:0:0:
251,161,161559,1,8,0:0:0:0:
8,244,161726,5,10,0:0:0:0:
119,384,161893,6,0,L|131:335,1,42.7499986953736,4|0,0:2|2:0,0:0:0:0:
192,256,162059,1,2,0:3:0:0:
192,256,162143,1,2,0:3:0:0:
192,256,162226,2,0,B|92:237,1,85.4999973907472,10|0,0:0|3:0,0:0:0:0:
274,239,162559,5,2,0:0:0:0:
304,384,162726,1,0,3:1:0:0:
437,282,162893,5,8,0:0:0:0:
384,72,163059,2,0,P|325:80|243:158,1,170.999994781494,2|0,0:0|0:0,0:0:0:0:
340,300,163559,2,0,L|358:215,1,85.4999973907472,10|0,0:0|0:0,0:0:0:0:
367,187,163809,1,8,3:0:0:0:
367,187,163893,1,0,3:0:0:0:
384,72,164059,1,8,3:0:0:0:
192,256,164226,5,10,0:0:0:0:
275,361,164393,1,0,3:0:0:0:
275,361,164476,1,0,3:0:0:0:
275,361,164559,2,0,P|310:337|458:327,2,170.999994781494,2|8|0,0:0|0:0|0:0,0:0:0:0:
320,232,165393,6,0,P|360:220|411:223,1,85.4999973907472,2|8,0:0|0:0,0:0:0:0:
191,302,165726,2,0,P|130:292|128:193,1,170.999994781494,2|0,0:0|3:0,0:0:0:0:
308,85,166226,1,8,0:0:0:0:
292,165,166393,5,0,3:0:0:0:
292,165,166476,1,8,0:0:0:0:
292,165,166559,1,2,0:0:0:0:
187,114,166726,1,0,0:0:0:0:
290,7,166893,1,10,0:0:0:0:
437,71,167059,1,8,0:0:0:0:
437,71,167143,1,8,0:0:0:0:
437,71,167226,6,0,P|421:152|406:249,1,170.999994781494,4|8,0:0|0:0,0:0:0:0:
308,85,167726,1,2,0:0:0:0:
196,198,167893,2,0,P|193:155|186:113,1,85.4999973907472,0|0,3:0|0:0,0:0:0:0:
308,201,168226,2,0,L|299:260,1,42.7499986953736,8|0,0:0|2:0,0:0:0:0:
251,384,168393,5,2,0:0:0:0:
218,286,168559,1,2,0:0:0:0:
411,216,168726,5,2,0:0:0:0:
456,84,168893,1,10,0:0:0:0:
239,58,169059,5,0,3:0:0:0:
235,31,169143,1,8,3:0:0:0:
229,6,169226,1,4,3:0:0:0:
347,24,169393,5,2,0:0:0:0:
300,218,169559,1,10,0:0:0:0:
184,210,169726,5,2,0:0:0:0:
184,210,169809,1,2,0:0:0:0:
184,210,169893,2,0,B|315:190|271:308|413:322,1,256.499992172241,4|2,0:0|0:0,0:0:0:0:
408,326,170476,1,2,0:0:0:0:
408,326,170559,2,0,L|397:221,1,85.4999973907472,2|0,3:2|0:0,0:0:0:0:
214,21,170893,2,0,L|222:94,1,42.7499986953736,8|0,0:0|2:0,0:0:0:0:
218,63,171059,6,0,P|92:41|16:37,1,170.999994781494,6|0,0:0|3:0,0:0:0:0:
299,153,171559,2,0,P|330:145|414:141,1,85.4999973907472,8|0,0:0|3:0,0:0:0:0:
461,144,171809,1,8,3:0:0:0:
461,144,171893,1,2,0:0:0:0:
328,60,172059,1,2,0:0:0:0:
168,166,172226,1,8,0:0:0:0:
151,200,172309,1,8,0:0:0:0:
164,242,172393,1,8,0:0:0:0:
147,283,172476,1,8,0:0:0:0:
147,283,172559,6,0,P|190:275|264:388,1,190,4|0,0:0|1:0,0:0:0:0:
432,259,173059,1,2,0:0:0:0:
361,185,173226,2,0,P|343:220|331:297,1,95,0|0,1:0|3:0,0:0:0:0:
483,379,173559,2,0,P|501:344|513:267,1,95,0|0,1:0|3:0,0:0:0:0:
246,158,173893,6,0,B|153:156|67:214,1,190,2|0,1:0|1:0,0:0:0:0:
0,171,174393,1,2,0:0:0:0:
146,16,174559,1,0,1:0:0:0:
162,87,174726,1,0,3:0:0:0:
66,127,174893,1,0,1:0:0:0:
43,54,175059,1,0,3:0:0:0:
238,11,175226,6,0,L|408:28,1,142.5,2|0,1:0|2:0,0:0:0:0:
379,25,175559,2,0,P|371:44|363:128,1,95,0|0,1:0|3:0,0:0:0:0:
169,202,175893,2,0,P|188:210|272:218,1,95,0|0,1:0|3:0,0:0:0:0:
392,384,176226,2,0,P|400:365|408:281,1,95,0|0,1:0|3:0,0:0:0:0:
497,177,176559,5,2,1:0:0:0:
361,117,176726,1,2,0:0:0:0:
261,219,176893,1,0,1:0:0:0:
409,291,177059,1,2,0:0:0:0:
382,202,177226,5,2,1:0:0:0:
444,104,177393,1,0,3:0:0:0:
319,280,177559,5,2,1:0:0:0:
392,384,177726,1,0,3:0:0:0:
289,147,177893,6,0,L|81:111,1,190,4|0,1:0|1:0,0:0:0:0:
297,61,178393,1,2,0:0:0:0:
198,15,178559,2,0,P|156:21|96:32,1,95,2|0,1:0|0:0,0:0:0:0:
189,262,178893,2,0,P|147:256|87:245,1,95,2|0,1:0|0:0,0:0:0:0:
201,156,179226,6,0,P|133:143|31:131,1,142.5,2|0,1:0|2:0,0:0:0:0:
22,149,179559,1,0,1:0:0:0:
80,47,179726,1,2,0:0:0:0:
109,226,179893,1,0,1:0:0:0:
7,284,180060,1,0,3:0:0:0:
139,106,180226,1,0,1:0:0:0:
234,173,180393,1,0,3:0:0:0:
322,129,180559,6,0,P|326:164|328:235,1,95,2|0,1:0|0:0,0:0:0:0:
456,42,180893,2,0,P|454:89|449:136,1,95,2|0,1:0|3:0,0:0:0:0:
240,267,181226,6,0,P|236:232|234:161,1,95,2|0,1:0|3:0,0:0:0:0:
106,354,181560,2,0,P|107:306|112:259,1,95,2|0,1:0|3:0,0:0:0:0:
322,129,181893,5,0,1:0:0:0:
332,202,182059,1,2,0:0:0:0:
164,125,182226,5,0,1:0:0:0:
184,39,182393,1,0,3:0:0:0:
399,153,182559,5,0,1:0:0:0:
422,257,182726,1,0,3:0:0:0:
422,257,182809,1,4,3:0:0:0:
422,257,182893,1,8,1:0:0:0:
205,376,183059,6,0,L|194:302,1,47.5,0|2,0:0|0:0,0:0:0:0:
198,329,183226,2,0,B|261:290|329:310|351:379,1,190,4|0,0:1|1:0,0:0:0:0:
409,272,183726,1,2,0:0:0:0:
276,145,183893,6,0,B|254:185|254:185|256:239,1,95,2|0,1:0|3:0,0:0:0:0:
474,91,184226,2,0,B|496:131|496:131|494:185,1,95,2|0,1:0|3:0,0:0:0:0:
390,267,184559,6,0,L|377:152,1,95,2|0,1:0|0:0,0:0:0:0:
356,0,184893,2,0,L|369:115,1,95,2|0,1:0|3:0,0:0:0:0:
182,300,185226,5,0,1:0:0:0:
195,221,185393,1,0,3:0:0:0:
375,271,185559,1,0,1:0:0:0:
360,348,185726,1,0,3:0:0:0:
276,289,185893,6,0,P|287:223|299:109,1,142.5,2|0,1:0|2:0,0:0:0:0:
284,114,186226,1,0,1:0:0:0:
169,52,186393,1,0,3:0:0:0:
39,129,186559,1,0,1:0:0:0:
148,214,186726,1,0,3:0:0:0:
162,137,186893,5,0,1:0:0:0:
162,137,187059,1,0,3:0:0:0:
76,46,187226,5,2,1:2:0:0:
122,232,187393,1,8,3:0:0:0:
284,114,187559,5,2,1:2:0:0:
258,206,187726,1,8,3:0:0:0:
34,235,187893,5,2,1:2:0:0:
51,307,188059,1,8,3:0:0:0:
273,314,188226,5,12,0:0:0:0:
270,351,188393,1,2,3:2:0:0:
270,351,188559,6,0,B|366:321|459:321|459:321,1,190,4|0,1:0|1:0,0:0:0:0:
258,206,189059,1,2,0:0:0:0:
363,87,189226,2,0,P|318:70|278:45,1,95,0|0,1:0|3:0,0:0:0:0:
353,301,189559,2,0,P|370:256|395:216,1,95,0|0,1:0|3:0,0:0:0:0:
131,169,189893,2,0,P|150:212|161:258,1,95,0|0,1:0|3:0,0:0:0:0:
363,87,190226,5,0,1:0:0:0:
278,45,190393,1,2,0:0:0:0:
353,301,190559,5,0,1:0:0:0:
394,216,190726,1,2,0:2:0:0:
131,169,190893,5,0,1:0:0:0:
161,258,191059,1,2,0:2:0:0:
278,45,191226,5,4,1:2:0:0:
278,45,191559,1,8,0:0:0:0:
352,27,191726,1,0,3:0:0:0:
204,116,191893,5,8,0:0:0:0:
84,150,192059,1,8,3:0:0:0:
84,150,192143,1,8,3:0:0:0:
84,150,192226,1,8,0:0:0:0:
204,116,192393,6,0,B|143:75|143:75|108:238,1,227.999993041992,4|0,0:1|0:0,0:0:0:0:
97,302,192809,1,8,3:0:0:0:
97,302,192893,1,2,1:0:0:0:
80,384,193059,1,0,1:0:0:0:
110,226,193226,5,10,0:0:0:0:
143,75,193393,5,10,0:0:0:0:
97,302,193559,5,10,1:0:0:0:
80,384,193726,5,4,1:2:0:0:
80,384,194893,5,8,3:0:0:0:
109,9,195226,6,0,B|235:4|184:79|304:88,2,209.000006378174,4|8|2,0:2|0:0|0:0,0:0:0:0:
138,146,196059,1,0,3:0:0:0:
328,5,196226,5,8,0:0:0:0:
230,34,196393,2,0,P|184:76|191:227,1,209.000006378174,4|0,0:2|3:0,0:0:0:0:
326,374,196893,5,8,0:0:0:0:
391,140,197059,5,0,3:0:0:0:
391,140,197143,1,8,0:0:0:0:
391,140,197226,1,4,3:0:0:0:
266,213,197393,1,0,3:0:0:0:
384,309,197559,1,8,0:0:0:0:
512,224,197726,2,0,P|507:192|506:165,1,52.2500015945435,0|8,3:0|0:0,0:0:0:0:
393,56,197893,6,0,B|286:27|298:128|165:104,2,209.000006378174,4|8|0,0:2|0:0|3:0,0:0:0:0:
361,149,198726,1,0,3:0:0:0:
368,229,198893,1,8,0:0:0:0:
199,370,199059,2,0,P|206:291|212:203,1,156.750004783631,4|0,0:2|2:0,0:0:0:0:
211,213,199393,1,0,3:0:0:0:
80,325,199559,2,0,B|64:275|64:275|72:213,1,104.500003189087,8|0,0:0|0:0,0:0:0:0:
318,328,199893,2,0,B|334:278|334:278|326:216,1,104.500003189087,0|0,0:0|3:0,0:0:0:0:
169,24,200226,5,8,0:0:0:0:
143,138,200393,1,0,3:0:0:0:
143,138,200476,1,8,0:0:0:0:
143,138,200559,2,0,P|205:154|304:54,1,209.000006378174,4|8,0:2|0:0,0:0:0:0:
512,168,201059,1,2,0:0:0:0:
411,232,201226,6,0,P|408:177|393:118,1,104.500003189087,0|8,3:0|3:0,0:0:0:0:
155,328,201559,1,10,0:0:0:0:
244,379,201726,2,0,B|241:274|282:166,1,209.000006378174,4|0,0:2|3:0,0:0:0:0:
456,302,202226,5,8,0:0:0:0:
383,316,202393,1,2,0:2:0:0:
322,106,202559,1,2,0:0:0:0:
396,129,202726,1,2,0:2:0:0:
248,305,202893,1,8,0:0:0:0:
226,235,203059,1,2,0:2:0:0:
487,176,203226,5,2,0:0:0:0:
487,176,203559,2,0,P|497:123|498:65,1,104.500003189087,8|0,0:0|0:0,0:0:0:0:
210,182,203893,2,0,P|200:129|199:71,1,104.500003189087,2|0,0:0|3:0,0:0:0:0:
352,107,204226,1,8,0:0:0:0:
356,230,204393,5,4,0:2:0:0:
305,30,204559,5,2,0:0:0:0:
230,53,204726,1,2,3:0:0:0:
411,158,204893,5,10,0:0:0:0:
507,189,205059,1,2,3:0:0:0:
266,274,205226,5,2,0:0:0:0:
138,322,205393,1,2,3:0:0:0:
429,251,205559,5,10,0:0:0:0:
488,343,205726,1,2,0:3:0:0:
488,343,205809,1,8,0:0:0:0:
488,343,205893,6,0,P|519:310|493:160,2,209.000006378174,4|8|0,0:0|0:0|0:0,0:0:0:0:
389,260,206726,2,0,P|376:212|384:149,1,104.500003189087,0|8,3:0|0:0,0:0:0:0:
184,356,207059,2,0,P|205:285|199:201,1,156.750004783631,4|0,0:2|2:0,0:0:0:0:
183,169,207393,1,0,3:0:0:0:
285,235,207559,1,8,0:0:0:0:
391,168,207726,1,0,3:0:0:0:
391,168,207809,1,8,0:0:0:0:
391,168,207893,1,4,3:0:0:0:
164,281,208059,5,2,0:0:0:0:
290,116,208226,1,8,0:0:0:0:
415,250,208393,5,2,0:0:0:0:
460,368,208559,2,0,P|398:383|296:270,1,209.000006378174,4|8,0:2|0:0,0:0:0:0:
380,97,209059,1,0,3:0:0:0:
391,132,209143,1,8,3:0:0:0:
391,168,209226,1,2,0:0:0:0:
268,141,209393,6,0,B|261:92|261:92|281:27,1,104.500003189087,0|8,3:0|0:0,0:0:0:0:
497,159,209726,2,0,B|513:106|513:106|506:57,1,104.500003189087,2|0,0:0|0:0,0:0:0:0:
384,120,210059,5,2,0:2:0:0:
295,32,210226,5,8,0:0:0:0:
484,139,210393,1,0,3:0:0:0:
470,62,210559,1,2,0:0:0:0:
256,155,210726,1,8,3:0:0:0:
368,99,210893,5,8,0:0:0:0:
110,56,211059,5,8,0:0:0:0:
110,56,211143,1,8,0:0:0:0:
110,56,211226,2,0,P|21:46|-28:31,1,104.500003189087,4|0,0:0|0:0,0:0:0:0:
331,206,211559,2,0,P|420:216|469:231,1,104.500003189087,8|0,0:0|3:0,0:0:0:0:
434,219,211809,1,8,3:0:0:0:
434,219,211893,2,0,L|417:327,1,104.500003189087,2|4,0:0|0:2,0:0:0:0:
118,219,212226,5,8,0:0:0:0:
206,311,212393,2,0,B|295:203|201:114|201:114,1,209.000006378174,2|0,0:0|3:0,0:0:0:0:
14,165,212893,2,0,P|1:213|13:282,1,104.500003189087,8|0,0:0|0:0,0:0:0:0:
34,303,213143,1,8,3:0:0:0:
34,303,213226,1,0,3:0:0:0:
150,213,213393,1,2,0:0:0:0:
233,384,213559,5,8,0:0:0:0:
131,316,213726,1,0,3:0:0:0:
131,316,213809,1,0,3:0:0:0:
131,316,213893,2,0,B|268:301|219:374|333:379,1,209.000006378174,4|8,0:2|0:0,0:0:0:0:
477,324,214393,6,0,P|471:298|469:272,2,52.2500015945435,0|0|2,0:0|3:0|3:2,0:0:0:0:
253,207,214726,2,0,P|246:251|231:310,1,104.500003189087,2|8,0:0|0:0,0:0:0:0:
372,134,215059,6,0,L|384:55,1,52.2500015945435,0|0,0:0|3:0,0:0:0:0:
362,37,215226,1,8,0:0:0:0:
362,37,215559,6,0,P|266:25|144:185,1,313.500009567261,4|0,0:0|3:0,0:0:0:0:
143,180,216143,1,0,0:0:0:0:
143,180,216226,5,8,0:0:0:0:
280,220,216393,5,8,0:0:0:0:
496,268,216559,5,6,0:0:0:0:
256,192,216643,12,0,217893,0:0:0:0:
106,39,227226,5,4,0:0:0:0:
240,74,227559,1,10,0:0:0:0:
464,52,227809,5,8,0:0:0:0:
463,47,227893,1,2,0:0:0:0:
389,30,228059,1,4,0:2:0:0:
332,221,228226,5,8,0:0:0:0:
433,285,228393,2,0,B|472:245|448:187|448:187,1,95,2|0,0:0|2:0,0:0:0:0:
240,75,228726,5,2,0:0:0:0:
142,156,228893,1,8,0:0:0:0:
142,156,229059,2,0,B|38:236|107:325|107:325,1,190,2|2,0:0|3:2,0:0:0:0:
237,383,229559,1,8,0:0:0:0:
272,262,229726,5,8,3:0:0:0:
276,247,229809,1,8,3:0:0:0:
281,235,229893,2,0,P|334:228|456:295,2,190,2|8|2,0:0|0:0|0:0,0:0:0:0:
188,300,230726,1,0,3:0:0:0:
197,379,230893,1,8,0:0:0:0:
230,171,231059,5,4,0:2:0:0:
249,94,231226,1,2,0:0:0:0:
277,260,231393,5,4,3:0:0:0:
126,191,231559,1,8,0:0:0:0:
96,266,231726,1,4,3:0:0:0:
323,191,231893,1,4,0:2:0:0:
162,111,232059,5,2,0:0:0:0:
75,67,232226,1,10,0:0:0:0:
141,127,232393,1,0,0:0:0:0:
141,127,232476,1,0,0:0:0:0:
141,127,232559,2,0,B|288:139|243:14|408:37,1,285,2|0,0:0|2:0,0:0:0:0:
404,44,233143,1,8,0:0:0:0:
404,44,233226,2,0,P|403:102|409:161,1,95,4|2,3:0|0:0,0:0:0:0:
266,379,233559,5,8,0:0:0:0:
205,340,233726,2,0,B|221:255|222:147|222:147,1,190,2|0,0:0|0:0,0:0:0:0:
339,310,234226,2,0,P|330:267|325:208,1,95,8|0,0:0|0:0,0:0:0:0:
80,293,234559,2,0,P|89:246|93:199,1,95,2|0,0:0|3:0,0:0:0:0:
205,340,234893,1,8,0:0:0:0:
54,122,235143,5,8,3:0:0:0:
54,122,235226,2,0,P|102:160|244:135,1,190,4|8,0:2|0:0,0:0:0:0:
418,253,235726,1,2,0:0:0:0:
430,213,235809,1,8,3:0:0:0:
430,169,235893,1,4,3:0:0:0:
359,103,236059,6,0,P|315:239|320:287,1,190,2|0,0:0|2:0,0:0:0:0:
361,350,236476,1,0,0:0:0:0:
386,322,236559,1,8,0:0:0:0:
386,322,236893,6,0,B|247:275|264:396|104:363,1,285,4|4,0:0|3:0,0:0:0:0:
42,304,237559,5,8,3:0:0:0:
116,236,237726,1,0,3:0:0:0:
36,124,237893,5,4,3:2:0:0:
189,91,239726,6,0,L|256:99,1,56.9999982604981,0|2,0:0|0:0,0:0:0:0:
245,97,240059,1,2,0:0:0:0:
150,303,240559,5,2,0:0:0:0:
214,257,240726,1,0,0:0:0:0:
197,230,240893,6,0,L|208:170,1,47.5,2|0,0:0|0:0,0:0:0:0:
34,110,242559,5,2,0:0:0:0:
482,212,243226,5,2,0:0:0:0:
482,212,244559,1,2,0:0:0:0:
136,99,245893,5,2,0:0:0:0:
229,29,246059,6,0,P|235:54|238:80,1,47.5,2|2,0:0|0:0,0:0:0:0:
295,173,246472,1,0,0:0:0:0:
346,109,246820,6,0,P|338:148|334:179,2,56.9999982604981,0|2|2,0:0|0:0|0:0,0:0:0:0:
