osu file format v14

[General]
AudioFilename: audio.mp3
AudioLeadIn: 0
PreviewTime: -1
Countdown: 1
SampleSet: Soft
StackLeniency: 0.7
Mode: 0
LetterboxInBreaks: 0
WidescreenStoryboard: 0

[Editor]
Bookmarks: 9697,14141,16808,23919,37030,38141,51252,55919,63030,70141,80808
DistanceSpacing: 0.5
BeatDivisor: 4
GridSize: 32
TimelineZoom: 1.9

[Metadata]
Title:Sarishinohara
TitleUnicode:サリシノハラ
Artist:Rib
ArtistUnicode:りぶ
Creator:miradzin
Version:Painful Love
Source:
Tags:
BeatmapID:1372209
BeatmapSetID:647644

[Difficulty]
HPDrainRate:6
CircleSize:4
OverallDifficulty:7
ApproachRate:8.1
SliderMultiplier:1.4
SliderTickRate:1

[Events]
//Background and Video events
0,0,"sarishinohara.jpg",0,0
//Break Periods
//Storyboard Layer 0 (Background)
//Storyboard Layer 1 (Fail)
//Storyboard Layer 2 (Pass)
//Storyboard Layer 3 (Foreground)
//Storyboard Sound Samples

[TimingPoints]
2586,444.444444444444,4,2,1,65,1,0
9697,-86.9565217391304,4,2,1,80,0,0
16808,-111.111111111111,4,2,1,50,0,0
23919,-111.111111111111,4,2,1,65,0,0
51252,-111.111111111111,4,2,1,75,0,0
55919,-83.3333333333333,4,2,1,85,0,1
80808,-86.9565217391304,4,1,0,100,0,0
87919,-100,4,1,0,100,0,0

[Colours]
Combo1 : 157,157,206
Combo2 : 228,92,92
Combo3 : 255,255,128

[HitObjects]
143,192,2363,6,0,L|146:237,1,35,2|0,0:0|0:0,0:0:0:0:
202,130,2586,2,0,P|132:107|76:140,2,140,2|2|2,0:0|0:0|0:0,0:0:0:0:
202,130,3919,2,0,P|210:91|205:49,1,70,2|0,0:0|0:0,0:0:0:0:
337,129,4363,6,0,P|359:96|397:157,1,140,2|0,0:0|0:0,0:0:0:0:
312,223,5030,1,2,0:0:0:0:
400,153,5252,1,2,0:0:0:0:
366,295,5474,1,0,0:0:0:0:
400,153,5697,1,2,0:0:0:0:
447,328,5919,1,0,0:0:0:0:
484,137,6141,6,0,P|463:95|371:72,2,140,2|2|2,0:0|0:0|0:0,0:0:0:0:
484,137,7474,2,0,P|494:79|487:50,1,70,2|0,0:0|0:0,0:0:0:0:
376,158,7919,6,0,P|358:259|370:309,1,140,2|0,0:0|0:0,0:0:0:0:
250,202,8585,1,6,0:0:0:0:
200,303,8808,1,2,0:0:0:0:
175,158,9030,1,2,0:0:0:0:
283,304,9252,1,8,0:0:0:0:
301,123,9474,1,8,0:0:0:0:
301,123,9585,1,8,0:0:0:0:
301,123,9697,6,0,B|359:120|359:120|399:147,1,80.5000015354157,6|0,0:0|0:0,0:0:0:0:
440,270,10141,2,0,B|382:273|382:273|342:246,1,80.5000015354157,8|0,0:0|0:0,0:0:0:0:
469,113,10585,2,0,L|478:195,1,80.5000015354157,2|0,0:0|0:0,0:0:0:0:
309,203,11030,2,0,L|300:121,1,80.5000015354157,8|0,0:0|0:0,0:0:0:0:
440,270,11474,6,0,B|364:262|364:262|276:309,1,161.000003070831,2|8,0:0|0:0,0:0:0:0:
182,203,12141,1,2,0:0:0:0:
140,341,12363,1,2,0:3:0:0:
25,224,12585,1,2,0:0:0:0:
25,224,12697,1,0,0:0:0:0:
25,224,12808,1,8,0:0:0:0:
182,203,13030,1,0,0:0:0:0:
97,85,13252,6,0,P|92:129|96:170,1,80.5000015354157,2|0,0:0|0:0,0:0:0:0:
230,112,13697,2,0,P|235:68|231:27,1,80.5000015354157,8|2,0:0|0:0,0:0:0:0:
182,203,14141,2,0,P|177:247|181:288,1,80.5000015354157,2|0,0:0|0:0,0:0:0:0:
315,230,14585,2,0,P|320:186|316:145,1,80.5000015354157,8|0,0:0|0:0,0:0:0:0:
249,343,15030,6,0,P|314:342|423:307,1,161.000003070831,6|8,0:0|0:0,0:0:0:0:
470,185,15697,1,0,0:0:0:0:
315,230,15919,1,0,0:0:0:0:
394,79,16141,1,2,0:0:0:0:
394,79,16252,1,8,0:0:0:0:
394,79,16363,2,0,L|394:174,1,80.5000015354157,8|0,0:0|0:0,0:0:0:0:
261,99,16808,6,0,P|194:85|136:118,2,125.999996154785,2|2|8,0:0|0:0|0:0,0:0:0:0:
210,179,17919,1,8,0:0:0:0:
288,231,18141,2,0,L|364:226,1,62.9999980773926,2|0,0:0|0:0,0:0:0:0:
433,149,18585,6,0,P|428:96|417:71,2,62.9999980773926,2|8|2,0:0|0:0|0:0,0:0:0:0:
350,226,19252,1,0,0:0:0:0:
350,226,19474,2,0,P|349:180|340:138,1,62.9999980773926,10|0,0:0|0:0,0:0:0:0:
253,181,19919,2,0,P|243:239|268:284,1,94.499997116089,2|0,0:0|0:0,0:0:0:0:
288,304,20363,6,0,L|137:299,1,125.999996154785,2|2,0:0|0:0,0:0:0:0:
86,242,21030,1,0,0:0:0:0:
86,242,21252,2,0,L|88:160,1,62.9999980773926,10|0,0:0|0:0,0:0:0:0:
100,169,21585,1,8,0:0:0:0:
111,158,21697,2,0,L|113:76,1,62.9999980773926,2|0,0:0|0:0,0:0:0:0:
252,224,22141,6,0,P|219:209|164:209,2,62.9999980773926,2|8|10,0:0|0:0|0:0,0:0:0:0:
321,288,22808,1,0,0:0:0:0:
429,175,23030,1,4,0:0:0:0:
429,175,23474,2,8,L|427:121,2,31.4999990386963
344,118,23919,6,0,P|297:91|221:109,1,125.999996154785,4|8,0:0|0:0,0:0:0:0:
158,207,24585,1,0,0:0:0:0:
158,207,24808,2,0,L|237:200,1,62.9999980773926,2|2,0:0|0:0,0:0:0:0:
125,119,25252,2,0,P|128:69|119:28,1,62.9999980773926,8|0,0:0|0:0,0:0:0:0:
67,194,25697,6,0,P|39:162|34:128,2,62.9999980773926,2|2|8,0:0|0:0|0:0,0:0:0:0:
220,201,26363,2,0,L|213:287,1,62.9999980773926,2|0,0:0|0:0,0:0:0:0:
84,346,26808,1,2,0:0:0:0:
135,231,27030,1,8,0:0:0:0:
84,346,27252,1,0,0:0:0:0:
273,312,27474,6,0,B|300:284|300:284|299:169,1,125.999996154785,2|8,0:0|0:0,0:0:0:0:
364,88,28141,1,0,0:0:0:0:
364,88,28363,2,0,L|364:176,1,62.9999980773926,2|2,0:0|0:0,0:0:0:0:
439,252,28808,2,0,L|439:164,1,62.9999980773926,8|0,0:0|0:0,0:0:0:0:
368,327,29252,5,2,0:0:0:0:
299,196,29474,1,2,0:0:0:0:
439,252,29697,1,8,0:0:0:0:
273,312,29919,1,2,0:0:0:0:
273,312,30363,1,2,0:0:0:0:
308,158,30585,1,8,0:0:0:0:
273,312,30808,1,2,0:0:0:0:
112,186,31030,6,0,L|118:325,1,125.999996154785,2|8,0:0|0:0,0:0:0:0:
218,236,31697,1,0,0:0:0:0:
218,236,31919,2,0,L|215:166,1,62.9999980773926,2|2,0:0|0:0,0:0:0:0:
312,253,32363,2,0,L|309:322,1,62.9999980773926,8|0,0:0|0:0,0:0:0:0:
415,185,32808,5,2,0:0:0:0:
307,119,33030,1,2,0:0:0:0:
415,185,33252,1,8,0:0:0:0:
233,314,33474,1,2,0:0:0:0:
314,217,33697,1,0,0:0:0:0:
233,314,33919,1,2,0:0:0:0:
388,287,34141,1,8,0:0:0:0:
233,314,34363,1,0,0:0:0:0:
110,182,34585,6,0,P|150:146|237:155,1,125.999996154785,2|8,0:0|0:0,0:0:0:0:
334,196,35252,1,0,0:0:0:0:
334,196,35474,2,0,P|337:144|331:115,1,62.9999980773926,2|2,0:0|0:0,0:0:0:0:
234,251,35919,2,0,P|231:303|237:332,1,62.9999980773926,8|0,0:0|0:0,0:0:0:0:
377,268,36363,5,2,0:0:0:0:
234,251,36585,1,2,0:0:0:0:
335,133,36808,1,8,0:0:0:0:
335,342,37030,1,6,0:0:0:0:
335,342,37474,1,0,0:0:0:0:
234,219,37697,1,8,0:0:0:0:
234,219,37808,1,8,0:0:0:0:
234,219,37919,2,0,L|234:263,1,31.4999990386963,8|8,0:0|0:0,0:0:0:0:
335,259,38141,6,0,P|377:258|412:248,1,62.9999980773926,2|2,0:0|0:0,0:0:0:0:
360,133,38585,2,0,P|402:134|437:144,1,62.9999980773926,8|0,0:0|0:0,0:0:0:0:
234,219,39030,2,0,P|227:188|228:156,1,62.9999980773926,2|2,0:0|0:0,0:0:0:0:
335,259,39474,1,8,0:0:0:0:
360,133,39697,1,0,0:0:0:0:
228,156,39919,5,2,0:0:0:0:
227,30,40141,1,2,0:0:0:0:
140,121,40363,1,8,0:0:0:0:
304,71,40585,2,0,P|310:125|308:163,1,62.9999980773926,2|2,0:0|0:3,0:0:0:0:
255,247,41030,1,2,0:0:0:0:
377,216,41252,1,8,0:0:0:0:
255,247,41474,1,2,0:0:0:0:
422,299,41697,6,0,P|454:272|467:242,1,62.9999980773926,2|2,0:0|0:0,0:0:0:0:
477,128,42141,2,0,P|450:96|420:83,1,62.9999980773926,8|0,0:0|0:0,0:0:0:0:
329,160,42585,2,0,L|338:242,1,62.9999980773926,2|2,0:3|0:0,0:0:0:0:
205,140,43030,1,8,0:0:0:0:
306,66,43252,1,0,0:0:0:0:
335,222,43474,6,0,P|286:212|263:202,2,62.9999980773926,2|2|8,0:0|0:0|0:0,0:0:0:0:
449,168,44141,2,0,P|453:115|442:84,1,62.9999980773926,2|2,0:0|0:3,0:0:0:0:
306,66,44585,1,2,0:0:0:0:
451,105,44808,1,8,0:0:0:0:
335,222,45030,1,0,0:0:0:0:
451,105,45252,6,0,P|455:52|444:21,1,62.9999980773926,2|2,0:0|0:0,0:0:0:0:
306,66,45697,2,0,P|301:118|312:149,1,62.9999980773926,8|0,0:0|0:0,0:0:0:0:
427,194,46141,2,0,B|452:198|452:198|508:173,1,62.9999980773926,2|2,0:0|0:0,0:0:0:0:
303,128,46585,2,0,B|278:124|278:124|222:149,1,62.9999980773926,8|0,0:0|0:0,0:0:0:0:
173,312,47030,5,2,0:0:0:0:
115,200,47252,1,2,0:0:0:0:
60,313,47474,1,8,0:0:0:0:
194,229,47697,1,2,0:0:0:0:
124,98,47919,1,2,0:3:0:0:
194,229,48141,1,2,0:0:0:0:
31,179,48363,1,8,0:0:0:0:
194,229,48585,1,0,0:0:0:0:
124,98,48808,6,0,L|124:176,1,62.9999980773926,2|2,0:0|0:0,0:0:0:0:
37,262,49252,2,0,L|37:340,1,62.9999980773926,8|0,0:0|0:0,0:0:0:0:
194,229,49697,2,0,P|163:252|121:258,1,62.9999980773926,2|2,0:3|0:0,0:0:0:0:
0,124,50141,2,0,P|39:94|93:86,1,94.499997116089
124,98,50585,5,2,0:0:0:0:
50,237,50808,1,2,0:0:0:0:
124,98,51030,1,8,0:0:0:0:
151,284,51252,1,6,0:0:0:0:
151,284,51697,5,8,0:0:0:0:
336,249,51919,1,8,0:0:0:0:
313,61,52141,1,8,0:0:0:0:
225,186,52363,6,0,L|255:338,1,125.999996154785,4|2,0:0|0:0,0:0:0:0:
336,249,53030,2,0,L|328:211,2,31.4999990386963,0|8|8,0:0|0:0|0:0,0:0:0:0:
403,157,53474,1,8,0:3:0:0:
402,62,53697,1,4,0:3:0:0:
406,251,54141,5,4,0:0:0:0:
406,251,55697,2,0,L|406:299,1,31.4999990386963
326,201,55919,6,0,L|314:106,1,83.9999974365235
479,154,56363,2,0,L|491:249,1,83.9999974365235
319,304,56808,1,0,0:0:0:0:
489,237,57030,1,0,0:0:0:0:
315,117,57252,1,0,0:0:0:0:
489,237,57474,1,0,0:0:0:0:
246,173,57697,6,0,B|205:96|205:96|276:27,1,167.999994873047
427,71,58363,1,0,0:0:0:0:
427,71,58474,1,0,0:0:0:0:
427,71,58585,1,0,0:0:0:0:
344,218,58808,1,0,0:0:0:0:
501,160,59030,1,0,0:0:0:0:
336,125,59252,1,0,0:0:0:0:
449,323,59474,6,0,B|454:262|454:262|435:232,1,83.9999974365235
266,184,59919,2,0,B|261:245|261:245|280:275,1,83.9999974365235
290,276,60252,1,0,0:0:0:0:
309,283,60363,1,0,0:0:0:0:
336,125,60585,1,0,0:0:0:0:
328,290,60808,1,0,0:0:0:0:
454,155,61030,1,0,0:0:0:0:
266,184,61252,6,0,L|85:158,1,167.999994873047
224,273,61919,1,0,0:0:0:0:
264,282,62030,1,0,0:0:0:0:
305,274,62141,1,0,0:0:0:0:
338,249,62252,1,0,0:0:0:0:
358,212,62363,1,0,0:0:0:0:
252,82,62585,1,0,0:0:0:0:
459,117,62808,1,0,0:0:0:0:
459,117,62919,1,0,0:0:0:0:
459,117,63030,6,0,P|472:163|459:311,1,167.999994873047
324,193,63697,1,0,0:0:0:0:
324,193,63808,1,0,0:0:0:0:
324,193,63919,2,0,P|267:188|235:188,1,83.9999974365235
95,272,64363,2,0,L|114:356,1,83.9999974365235
154,194,64808,6,0,P|113:175|59:182,2,83.9999974365235
271,314,65474,1,0,0:0:0:0:
271,314,65585,1,0,0:0:0:0:
271,314,65697,1,0,0:0:0:0:
398,205,65919,1,0,0:0:0:0:
232,234,66141,1,0,0:0:0:0:
226,66,66363,1,0,0:0:0:0:
398,205,66585,6,0,P|370:160|329:125,1,83.9999974365235
232,234,67030,1,0,0:0:0:0:
478,236,67252,2,0,P|476:183|458:132,1,83.9999974365235
316,302,67697,2,0,P|368:300|419:282,1,83.9999974365235
467,153,68141,6,0,P|378:120|281:116,1,167.999994873047
171,157,68808,1,0,0:0:0:0:
295,31,69030,2,0,L|306:123,1,83.9999974365235
332,277,69474,1,0,0:0:0:0:
293,292,69585,1,0,0:0:0:0:
250,293,69697,1,0,0:0:0:0:
209,281,69808,1,0,0:0:0:0:
179,250,69919,1,0,0:0:0:0:
165,210,70030,1,0,0:0:0:0:
171,157,70141,5,0,0:0:0:0:
335,187,70363,1,0,0:0:0:0:
209,281,70585,2,0,L|111:269,1,83.9999974365235
248,154,71030,1,0,0:0:0:0:
367,259,71252,1,0,0:0:0:0:
236,370,71474,2,0,L|138:358,1,83.9999974365235
325,310,71919,6,0,B|366:258|366:258|349:153,1,167.999994873047
192,97,72585,1,0,0:0:0:0:
192,97,72697,1,0,0:0:0:0:
192,97,72808,2,0,L|204:188,1,83.9999974365235
325,310,73252,2,0,L|313:219,1,83.9999974365235
130,237,73697,6,0,B|165:265|165:265|231:266,1,83.9999974365235
280,116,74141,1,0,0:0:0:0:
117,72,74363,1,0,0:0:0:0:
117,72,74474,1,0,0:0:0:0:
117,72,74585,1,0,0:0:0:0:
130,237,74808,1,0,0:0:0:0:
88,57,75030,1,0,0:0:0:0:
227,194,75252,1,0,0:0:0:0:
227,194,75363,1,0,0:0:0:0:
227,194,75474,6,0,B|311:202|311:202|380:138,1,167.999994873047
245,34,76141,1,0,0:0:0:0:
245,34,76252,1,0,0:0:0:0:
245,34,76363,2,0,P|305:33|352:26,1,83.9999974365235
475,113,76808,1,0,0:0:0:0:
472,154,76919,1,0,0:0:0:0:
457,193,77030,1,0,0:0:0:0:
433,227,77141,1,0,0:0:0:0:
395,246,77252,6,0,P|337:219|248:275,1,167.999994873047
203,104,77919,1,0,0:0:0:0:
203,104,78030,1,0,0:0:0:0:
203,104,78141,1,0,0:0:0:0:
121,250,78363,1,0,0:0:0:0:
72,89,78585,1,0,0:0:0:0:
121,250,78808,1,0,0:0:0:0:
269,154,79030,6,0,P|282:85|215:22,1,167.999994873047
366,98,79697,2,0,L|370:230,1,125.999996154785
371,265,80141,1,0,0:0:0:0:
146,98,80585,2,0,L|144:163,1,41.9999987182618
143,182,80808,1,0,0:0:0:0:
256,192,80919,12,0,82363,0:0:0:0:
303,266,82585,6,0,P|270:201|257:142,1,120.750002303124
262,114,83030,1,0,0:0:0:0:
406,184,83252,1,0,0:0:0:0:
396,23,83474,1,0,0:0:0:0:
211,104,83697,1,0,0:0:0:0:
406,184,83919,1,0,0:0:0:0:
411,203,84030,1,0,0:0:0:0:
416,222,84141,1,0,0:0:0:0:
422,241,84252,1,0,0:0:0:0:
427,260,84363,6,0,L|327:254,1,80.5000015354157
191,298,84808,2,0,L|291:292,1,80.5000015354157
427,260,85252,2,0,P|438:311|436:346,1,80.5000015354157
271,293,85697,2,0,P|260:242|262:207,1,80.5000015354157
344,76,86141,6,0,P|299:114|201:68,1,161.000003070831
137,233,86808,1,0,0:0:0:0:
300,196,87030,1,0,0:0:0:0:
122,130,87252,1,0,0:0:0:0:
122,130,87363,1,0,0:0:0:0:
122,130,87474,2,0,L|117:67,1,40.2500007677078
209,168,87697,2,0,L|214:231,1,40.2500007677078
209,84,87919,6,0,L|378:77,2,140
296,165,89030,1,0,0:0:0:0:
392,234,89252,2,0,L|483:229,1,70
461,89,89697,5,0,0:0:0:0:
461,230,89919,1,0,0:0:0:0:
380,149,90141,1,0,0:0:0:0:
414,322,90363,1,0,0:0:0:0:
