osu file format v14

[General]
AudioFilename: Sarishinohara.mp3
AudioLeadIn: 0
PreviewTime: 53913
Countdown: 0
SampleSet: Soft
StackLeniency: 0.4
Mode: 0
LetterboxInBreaks: 0
WidescreenStoryboard: 0

[Editor]
Bookmarks: 85690,160579,219468
DistanceSpacing: 1
BeatDivisor: 2
GridSize: 4
TimelineZoom: 1

[Metadata]
Title:Sarishinohara
TitleUnicode:サリシノハラ
Artist:Rib
ArtistUnicode:りぶ
Creator:Lobelia
Version:kanor's Easy
Source:
Tags:Rib on mikitop みきとp Kanor Sandrew
BeatmapID:1593265
BeatmapSetID:757350

[Difficulty]
HPDrainRate:2
CircleSize:3
OverallDifficulty:2
ApproachRate:3
SliderMultiplier:0.899999999999999
SliderTickRate:1

[Events]
//Background and Video events
0,0,"sarishinohara.jpg",0,0
Video,-1298,"Sarishi.flv"
//Break Periods
2,81001,84250
2,146778,155806
//Storyboard Layer 0 (Background)
//Storyboard Layer 1 (Fail)
//Storyboard Layer 2 (Pass)
//Storyboard Layer 3 (Foreground)
//Storyboard Sound Samples

[TimingPoints]
802,444.444444444444,4,2,1,65,1,0
15024,-100,4,2,1,30,0,0
21690,-100,4,2,1,50,0,0
54135,-100,4,2,1,70,0,1
80801,-100,4,2,1,70,0,0
85690,-100,4,2,1,50,0,0
98579,-100,4,2,1,40,0,0
100357,-100,4,2,1,50,0,0
107468,-100,4,2,1,40,0,0
110357,-100,4,2,1,60,0,0
111024,-100,4,2,1,50,0,0
118135,-100,4,2,1,70,0,1
144913,-100,4,2,1,5,0,0
145690,-100,4,2,1,70,0,0
160801,-100,4,2,1,50,0,0
175024,-100,4,2,1,70,0,0
187024,-100,4,2,1,75,0,0
187913,-100,4,2,1,80,0,0
189246,-100,4,2,1,85,0,0
191690,-100,4,2,1,70,0,0
194579,-100,4,2,1,50,0,0
208801,-100,4,2,1,70,0,1
240801,-100,4,2,1,60,0,0
262135,-100,4,2,1,30,0,0
264135,-100,4,2,1,15,0,0

[Colours]
Combo1 : 253,243,70
Combo2 : 0,128,255
Combo3 : 128,255,128
Combo4 : 255,128,128

[HitObjects]
464,288,7913,6,0,P|428:320|368:324,1,89.9999999999999,6|8,0:0|0:0,0:0:0:0:
384,236,8801,2,0,P|335:233|290:193,1,89.9999999999999,2|8,0:0|0:0,0:0:0:0:
252,136,9690,2,0,P|220:172|216:232,2,89.9999999999999,2|8|2,0:0|0:0|0:0,0:0:0:0:
304,64,11024,1,8,0:0:0:0:
392,64,11468,6,0,P|424:100|428:160,1,89.9999999999999,2|8,0:0|0:0,0:0:0:0:
340,144,12356,2,0,P|337:192|297:237,1,89.9999999999999,2|10,0:0|0:0,0:0:0:0:
236,272,13246,2,0,P|284:311|364:299,2,135,6|4|8,0:0|0:0|0:0,0:0:0:0:
256,192,15024,12,2,18579,0:0:0:0:
26,145,21690,5,8,0:0:0:0:
72,68,22135,6,0,L|168:116,1,89.9999999999999,4|8,0:0|0:0,0:0:0:0:
217,171,23024,2,0,P|241:124|229:68,1,89.9999999999999,0|8,0:0|0:0,0:0:0:0:
327,78,23913,2,0,P|310:28|262:-2,2,89.9999999999999,0|8|0,0:0|0:0|0:0,0:0:0:0:
332,168,25246,1,8,0:0:0:0:
332,168,25690,6,0,L|428:216,1,89.9999999999999,4|8,0:0|0:0,0:0:0:0:
500,188,26579,2,0,P|501:233|480:272,1,89.9999999999999,0|8,0:0|0:0,0:0:0:0:
393,297,27468,2,0,P|409:346|457:377,2,89.9999999999999,0|8|0,0:0|0:0|0:0,0:0:0:0:
412,208,28801,1,10,0:0:0:0:
432,120,29246,6,0,P|388:96|324:96,1,89.9999999999999,4|8,0:0|0:0,0:0:0:0:
272,44,30135,2,0,P|228:68|164:68,1,89.9999999999999,0|8,0:0|0:0,0:0:0:0:
128,140,31024,2,0,P|166:162|211:168,2,89.9999999999999,0|8|0,0:0|0:0|0:0,0:0:0:0:
44,104,32357,1,10,0:0:0:0:
44,104,32801,6,0,P|43:157|61:197,1,89.9999999999999,4|8,0:0|0:0,0:0:0:0:
99,270,33690,2,0,P|133:241|147:197,1,89.9999999999999,0|8,0:0|0:0,0:0:0:0:
176,113,34579,2,0,P|248:97|296:157,1,135,0|4,0:0|0:0,0:0:0:0:
254,265,35913,1,8,0:0:0:0:
296,344,36357,6,0,P|344:360|412:332,1,89.9999999999999,4|8,0:0|0:0,0:0:0:0:
432,280,37246,2,0,P|421:230|363:185,1,89.9999999999999,0|8,0:0|0:0,0:0:0:0:
308,196,38135,2,0,P|270:229|260:302,2,89.9999999999999,0|8|0,0:0|0:0|0:0,0:0:0:0:
360,124,39468,1,8,0:0:0:0:
360,124,39913,6,0,P|325:96|281:88,1,89.9999999999999,4|8,0:0|0:0,0:0:0:0:
200,52,40801,2,0,P|193:96|209:137,1,89.9999999999999,0|8,0:0|0:0,0:0:0:0:
216,228,41690,2,0,P|257:211|285:177,2,89.9999999999999,0|8|0,0:0|0:0|0:0,0:0:0:0:
132,192,43024,1,10,0:0:0:0:
132,192,43468,6,0,L|116:296,1,89.9999999999999,4|8,0:0|0:0,0:0:0:0:
202,316,44357,2,0,L|218:212,1,89.9999999999999,0|8,0:0|0:0,0:0:0:0:
289,175,45246,2,0,P|337:171|398:203,2,89.9999999999999,0|8|0,0:0|0:0|0:0,0:0:0:0:
324,258,46579,1,10,0:0:0:0:
324,258,47024,6,0,P|366:272|410:267,1,89.9999999999999,4|8,0:0|0:0,0:0:0:0:
430,355,47913,2,0,P|470:335|498:300,1,89.9999999999999,0|8,0:0|0:0,0:0:0:0:
483,212,48801,2,0,B|495:169|481:144|464:112|487:61,2,135,0|4|8,0:0|0:0|0:0,0:0:0:0:
256,192,50579,12,0,52357,0:0:0:0:
303,45,54135,6,0,P|353:34|421:62,1,89.9999999999999,6|8,0:0|0:0,0:0:0:0:
348,122,55024,2,0,P|391:149|419:217,1,89.9999999999999,2|8,0:0|0:0,0:0:0:0:
327,213,55913,2,0,P|338:263|310:331,2,89.9999999999999,2|8|2,0:0|0:0|0:0,0:0:0:0:
250,261,57246,1,8,0:0:0:0:
167,297,57690,6,0,P|117:308|49:280,1,89.9999999999999,4|8,0:0|0:0,0:0:0:0:
122,220,58579,2,0,P|78:192|50:124,1,89.9999999999999,2|8,0:0|0:0,0:0:0:0:
143,129,59468,2,0,P|132:79|160:11,2,89.9999999999999,2|8|2,0:0|0:0|0:0,0:0:0:0:
219,81,60801,1,8,0:0:0:0:
297,36,61246,6,0,P|349:41|393:80,1,89.9999999999999,6|8,0:0|0:0,0:0:0:0:
414,144,62135,2,0,L|405:248,1,89.9999999999999,2|8,0:0|1:2,0:0:0:0:
422,322,63024,2,0,P|366:318|326:278,1,89.9999999999999,2|8,0:0|0:0,0:0:0:0:
250,289,63913,2,0,P|212:312|167:311,1,89.9999999999999,2|8,0:0|0:0,0:0:0:0:
77,304,64801,6,0,L|69:214,1,89.9999999999999,6|8,0:0|0:0,0:0:0:0:
5,150,65690,2,0,P|42:126|87:127,1,89.9999999999999,2|8,0:0|0:0,0:0:0:0:
156,185,66579,2,0,B|197:210|229:188|267:159|313:201,2,135,2|6|8,0:0|0:0|1:2,0:0:0:0:
196,104,68357,6,0,P|179:59|186:1,1,89.9999999999999,6|8,0:0|0:0,0:0:0:0:
92,0,69246,2,0,P|61:37|8:60,1,89.9999999999999,2|8,0:0|0:0,0:0:0:0:
56,140,70135,2,0,P|103:147|150:182,2,89.9999999999999,2|8|2,0:0|0:0|0:0,0:0:0:0:
19,222,71468,1,8,0:0:0:0:
68,296,71913,6,0,P|107:324|164:332,1,89.9999999999999,6|8,0:0|0:0,0:0:0:0:
231,365,72801,2,0,P|235:317|214:262,1,89.9999999999999,2|8,0:0|1:2,0:0:0:0:
214,187,73690,2,0,P|170:206|134:252,2,89.9999999999999,2|8|2,0:0|0:0|0:0,0:0:0:0:
302,169,75024,1,8,1:2:0:0:
386,199,75468,6,0,L|462:104,1,89.9999999999999,6|8,0:2|0:0,0:0:0:0:
503,195,76357,2,0,L|427:290,1,89.9999999999999,2|8,0:0|0:0,0:0:0:0:
361,290,77246,2,0,B|319:311|292:289|272:267|197:291,1,135,2|4,0:0|0:0,0:0:0:0:
154,332,78357,2,0,P|139:290|147:237,1,89.9999999999999,8|0,0:0|0:0,0:0:0:0:
256,192,79024,12,6,80801,0:0:0:0:
157,343,85690,5,10,0:0:0:0:
69,320,86135,6,0,L|41:209,1,89.9999999999999,4|8,0:0|0:0,0:0:0:0:
137,230,87024,2,0,L|183:133,1,89.9999999999999,0|8,0:0|0:0,0:0:0:0:
265,144,87913,2,0,L|219:47,2,89.9999999999999,0|8|2,0:0|0:0|0:0,0:0:0:0:
344,100,89246,1,8,0:0:0:0:
344,100,89690,6,0,L|466:112,1,89.9999999999999,0|8,0:0|0:0,0:0:0:0:
458,195,90579,2,0,L|336:207,1,89.9999999999999,0|8,0:0|0:0,0:0:0:0:
336,287,91468,2,0,L|458:299,2,89.9999999999999,0|8|2,0:0|0:0|0:0,0:0:0:0:
253,323,92801,1,10,0:0:0:0:
253,323,93246,6,0,P|241:268|279:218,1,89.9999999999999,0|8,0:0|0:0,0:0:0:0:
166,217,94135,2,0,P|196:169|258:161,1,89.9999999999999,0|8,0:0|0:0,0:0:0:0:
184,78,95024,2,0,P|239:66|289:103,2,89.9999999999999,0|8|2,0:0|0:0|0:0,0:0:0:0:
138,155,96357,1,8,0:0:0:0:
138,155,96801,6,0,P|180:168|222:154,1,89.9999999999999,0|8,0:0|0:0,0:0:0:0:
250,239,97690,2,0,P|289:218|308:178,1,89.9999999999999,0|8,0:0|0:0,0:0:0:0:
390,217,98579,2,0,B|421:259|421:259|448:213|521:234,1,135,2|2,0:0|0:0,0:0:0:0:
507,362,99913,1,2,0:0:0:0:
419,355,100357,6,0,L|298:343,1,89.9999999999999,4|0,0:0|0:0,0:0:0:0:
307,258,101246,2,0,L|186:270,1,89.9999999999999,0|8,1:0|0:0,0:0:0:0:
167,342,102135,2,0,L|46:330,2,89.9999999999999,0|0|0,1:0|0:0|0:0,0:0:0:0:
217,266,103468,1,10,0:0:0:0:
217,266,103913,6,0,L|198:163,1,89.9999999999999,0|0,0:0|0:0,0:0:0:0:
124,129,104801,2,0,L|105:232,1,89.9999999999999,0|8,1:0|0:0,0:0:0:0:
32,267,105690,2,0,L|13:164,2,89.9999999999999,0|0|10,1:0|0:0|1:2,0:0:0:0:
111,310,107024,1,10,0:0:0:0:
111,310,107468,6,0,B|177:340|231:300|231:300|296:348|401:297,1,270,4|2,0:0|0:0,0:0:0:0:
449,273,109246,2,0,P|318:247|381:149,1,270,2|0,0:0|0:0,0:0:0:0:
409,83,111024,6,0,P|358:63|292:88,1,89.9999999999999,6|0,0:0|0:0,0:0:0:0:
240,34,111913,2,0,L|237:160,1,89.9999999999999,0|0,1:0|0:0,0:0:0:0:
152,152,112801,2,0,L|156:15,2,135,0|4|10,0:0|0:0|0:0,0:0:0:0:
256,192,114579,12,6,116357,0:0:0:0:
59,166,118135,6,0,P|104:175|166:149,1,89.9999999999999,6|8,0:0|0:0,0:0:0:0:
199,236,119024,2,0,P|168:270|160:337,1,89.9999999999999,2|8,0:0|0:0,0:0:0:0:
67,319,119913,2,0,P|52:275|-1:234,2,89.9999999999999,2|8|2,0:0|0:0|0:0,0:0:0:0:
157,312,121246,1,8,1:2:0:0:
204,235,121690,6,0,P|234:268|246:312,1,89.9999999999999,6|8,0:0|0:0,0:0:0:0:
336,318,122579,2,0,P|350:276|382:245,1,89.9999999999999,2|8,0:0|0:0,0:0:0:0:
344,165,123468,2,0,P|301:174|258:163,2,89.9999999999999,2|8|2,0:0|0:0|0:0,0:0:0:0:
421,117,124801,1,8,0:0:0:0:
436,28,125246,6,0,P|398:16|318:41,1,89.9999999999999,6|8,0:0|0:0,0:0:0:0:
259,13,126135,2,0,P|265:56|329:108,1,89.9999999999999,2|8,0:0|0:0,0:0:0:0:
229,150,127024,2,0,P|262:171|346:167,1,89.9999999999999,2|8,0:0|0:0,0:0:0:0:
304,267,127913,2,0,P|342:258|399:196,1,89.9999999999999,2|8,0:0|0:0,0:0:0:0:
464,192,128801,6,0,P|437:162|355:144,1,89.9999999999999,0|2,1:0|0:0,0:0:0:0:
421,58,129690,2,0,P|381:56|310:101,1,89.9999999999999,2|2,0:0|0:0,0:0:0:0:
282,2,130579,2,0,P|251:35|275:140,2,135,2|6|8,0:0|0:0|1:2,0:0:0:0:
335,75,132357,6,0,P|380:75|421:117,1,89.9999999999999,6|8,0:0|0:0,0:0:0:0:
426,191,133246,2,0,P|402:229|346:244,1,89.9999999999999,2|8,0:0|0:0,0:0:0:0:
277,215,134135,2,0,P|254:175|270:119,2,89.9999999999999,2|8|2,0:0|0:0|0:0,0:0:0:0:
289,304,135468,1,8,0:0:0:0:
203,275,135913,6,0,P|179:313|123:328,1,89.9999999999999,6|8,0:0|0:0,0:0:0:0:
53,299,136801,2,0,P|30:259|46:203,1,89.9999999999999,2|8,0:0|0:0,0:0:0:0:
105,159,137690,2,0,P|150:159|191:201,2,89.9999999999999,2|8|2,0:0|0:0|0:0,0:0:0:0:
19,128,139024,1,8,1:2:0:0:
88,70,139468,6,0,P|139:51|201:77,1,89.9999999999999,6|8,0:0|0:0,0:0:0:0:
261,69,140357,2,0,L|244:179,1,89.9999999999999,2|0,0:0|0:0,0:0:0:0:
243,247,141246,2,0,P|318:261|384:201,1,135,2|4,1:2|0:0,0:0:0:0:
432,172,142357,2,0,P|453:126|452:78,1,89.9999999999999,8|0,0:0|0:0,0:0:0:0:
465,43,143024,6,0,B|380:17|333:70|312:119|184:39,1,270,0|0,0:0|0:0,0:0:0:0:
118,44,144801,2,0,P|71:167|238:140,1,360,10|10,0:0|0:0,0:0:0:0:
256,192,157246,12,0,159024,0:0:0:0:
95,58,160801,6,0,L|74:160,1,89.9999999999999,4|0,0:0|0:0,0:0:0:0:
160,179,161690,2,0,L|178:90,1,89.9999999999999,8|0,0:0|0:0,0:0:0:0:
261,57,162579,2,0,B|307:25|345:88|422:35,2,135,0|0|8,0:0|0:0|0:0,0:0:0:0:
273,146,164357,6,0,P|261:198|276:243,1,89.9999999999999,6|0,0:0|0:0,0:0:0:0:
348,277,165246,2,0,P|360:225|345:180,1,89.9999999999999,8|0,0:0|0:0,0:0:0:0:
358,100,166135,2,0,B|407:95|407:95|514:110,2,135,0|2|10,0:0|0:0|0:0,0:0:0:0:
273,146,167913,6,0,P|261:198|276:243,1,89.9999999999999,6|0,0:0|0:0,0:0:0:0:
182,253,168801,2,0,P|210:298|252:319,1,89.9999999999999,8|0,0:0|0:0,0:0:0:0:
329,299,169690,2,0,B|378:304|378:304|485:289,2,135,0|2|10,0:0|0:0|0:0,0:0:0:0:
270,232,171468,6,0,P|220:219|161:237,1,89.9999999999999,6|0,0:0|0:0,0:0:0:0:
159,138,172357,2,0,P|114:164|85:218,1,89.9999999999999,8|0,0:0|0:0,0:0:0:0:
17,146,173246,2,0,P|4:196|49:270,2,135,0|2|10,0:0|0:0|0:0,0:0:0:0:
67,71,175024,6,0,B|111:51|111:51|173:77,1,89.9999999999999,4|10,0:0|0:0,0:0:0:0:
182,150,175913,2,0,B|226:170|226:170|288:144,1,89.9999999999999,0|10,0:0|0:0,0:0:0:0:
343,111,176801,2,0,B|363:155|363:155|337:217,1,89.9999999999999,0|10,0:0|0:0,0:0:0:0:
264,153,177690,2,0,B|248:192|248:192|268:236,1,89.9999999999999,2|8,0:0|0:0,0:0:0:0:
321,308,178579,6,0,P|276:323|210:289,1,89.9999999999999,6|8,0:0|0:0,0:0:0:0:
149,288,179468,2,0,L|130:192,1,89.9999999999999,0|8,0:0|0:0,0:0:0:0:
120,110,180357,2,0,P|165:95|231:129,1,89.9999999999999,0|10,0:0|0:0,0:0:0:0:
292,130,181246,2,0,L|311:226,1,89.9999999999999,0|10,0:0|0:0,0:0:0:0:
383,269,182135,6,0,P|432:282|492:252,2,89.9999999999999,4|8|0,1:2|0:0|1:0,0:0:0:0:
427,191,183468,1,8,0:0:0:0:
389,110,183913,2,0,P|432:99|474:113,2,89.9999999999999,4|8|0,1:2|0:0|1:0,0:0:0:0:
300,126,185246,1,8,0:0:0:0:
265,42,185690,6,0,P|228:67|211:108,1,89.9999999999999,4|0,1:2|1:0,0:0:0:0:
137,56,186579,2,0,P|120:104|128:145,1,89.9999999999999,0|0,1:0|1:0,0:0:0:0:
37,131,187468,2,0,P|43:179|71:212,1,89.9999999999999,0|0,1:0|1:0,0:0:0:0:
15,282,188357,2,0,P|54:299|98:294,1,89.9999999999999,0|0,1:0|1:0,0:0:0:0:
137,375,189246,6,0,P|174:353|192:309,1,89.9999999999999,4|0,1:2|1:0,0:0:0:0:
275,345,190135,2,0,P|282:298|266:255,1,89.9999999999999,0|0,1:0|1:0,0:0:0:0:
352,226,191024,2,0,P|327:188|287:168,1,89.9999999999999,0|8,1:0|1:2,0:0:0:0:
243,166,191690,2,0,L|146:165,1,89.9999999999999,4|0,0:0|1:0,0:0:0:0:
83,107,192579,6,0,P|103:230|-2:175,1,270,0|0,1:0|0:0,0:0:0:0:
4,69,194579,2,0,P|39:32|82:23,1,89.9999999999999,4|8,1:2|0:0,0:0:0:0:
160,53,195468,2,0,P|199:71|249:64,1,89.9999999999999,0|8,1:0|0:0,0:0:0:0:
332,44,196357,6,0,P|335:90|311:129,2,89.9999999999999,0|8|6,1:0|0:0|0:0,0:0:0:0:
244,65,197690,1,2,0:0:0:0:
163,25,198134,2,0,P|150:72|167:117,1,89.9999999999999,8|10,0:0|0:0,0:0:0:0:
386,260,199913,6,0,L|390:170,1,89.9999999999999,4|8,0:0|0:0,0:0:0:0:
327,106,200801,1,8,0:0:0:0:
237,106,201245,1,8,0:0:0:0:
151,132,201690,6,0,P|144:176|154:223,1,89.9999999999999,4|8,0:0|0:0,0:0:0:0:
86,280,202579,2,0,P|126:306|175:303,1,89.9999999999999,2|10,0:0|0:0,0:0:0:0:
255,289,203468,2,0,L|255:199,1,89.9999999999999,2|8,0:0|0:0,0:0:0:0:
310,127,204357,2,0,P|354:154|427:143,1,89.9999999999999,0|8,0:0|0:0,0:0:0:0:
459,214,205246,6,0,P|505:185|476:117,1,135,4|4,0:0|0:0,0:0:0:0:
405,69,206357,1,8,0:0:0:0:
321,36,206801,2,0,P|255:60|180:26,1,135,4|8,0:0|0:0,0:0:0:0:
124,95,207913,2,0,P|142:147|108:197,1,89.9999999999999,8|10,0:0|0:0,0:0:0:0:
120,267,208801,6,0,P|170:278|238:250,1,89.9999999999999,6|8,0:0|0:0,0:0:0:0:
170,187,209690,2,0,P|213:160|241:92,1,89.9999999999999,2|8,0:0|0:0,0:0:0:0:
314,166,210579,2,0,P|305:209|316:253,2,89.9999999999999,2|8|2,0:0|0:0|0:0,0:0:0:0:
360,88,211912,1,8,0:0:0:0:
440,48,212356,6,0,P|451:98|423:166,1,89.9999999999999,6|8,0:0|0:0,0:0:0:0:
397,212,213246,2,0,P|441:240|469:308,1,89.9999999999999,2|8,0:0|1:2,0:0:0:0:
375,299,214135,2,0,P|325:310|257:282,2,89.9999999999999,2|8|2,0:0|0:0|0:0,0:0:0:0:
397,212,215467,1,8,0:0:0:0:
417,124,215913,6,0,L|308:122,1,89.9999999999999,6|8,0:0|0:0,0:0:0:0:
249,76,216801,2,0,P|235:125|271:185,1,89.9999999999999,2|8,0:0|0:0,0:0:0:0:
266,248,217690,2,0,L|157:246,1,89.9999999999999,2|8,0:0|0:0,0:0:0:0:
96,204,218579,2,0,P|82:253|118:313,1,89.9999999999999,2|8,1:2|0:0,0:0:0:0:
168,338,219468,6,0,B|215:337|236:318|236:318|290:353|352:317|352:317|382:346|440:339,1,270,4|0,1:2|1:0,0:0:0:0:
412,250,221246,2,0,P|425:208|414:155,1,89.9999999999999,6|0,1:2|1:0,0:0:0:0:
506,146,222135,2,0,P|485:107|440:77,1,89.9999999999999,0|0,1:0|1:0,0:0:0:0:
364,48,223024,6,0,P|296:33|285:183,1,270,4|8,1:2|0:0,0:0:0:0:
354,238,224801,1,4,1:2:0:0:
325,323,225246,1,0,1:0:0:0:
234,319,225690,1,0,1:0:0:0:
209,233,226135,1,8,0:0:0:0:
284,184,226579,6,0,P|297:136|284:94,1,89.9999999999999,6|8,0:0|0:0,0:0:0:0:
219,37,227468,2,0,P|167:18|110:47,1,89.9999999999999,2|8,1:2|0:0,0:0:0:0:
85,101,228357,2,0,P|66:153|95:210,1,89.9999999999999,6|8,0:0|0:0,0:0:0:0:
143,243,229246,2,0,P|195:262|252:233,1,89.9999999999999,2|8,0:0|0:0,0:0:0:0:
304,207,230135,6,0,P|353:197|410:228,2,89.9999999999999,2|10|2,1:2|0:0|0:0,0:0:0:0:
227,253,231468,1,8,0:0:0:0:
306,295,231913,2,0,P|347:322|366:384,2,89.9999999999999,0|8|2,0:0|0:0|1:2,0:0:0:0:
227,253,233246,1,8,1:2:0:0:
227,342,233690,6,0,P|170:357|113:322,1,89.9999999999999,6|8,0:0|0:0,0:0:0:0:
116,261,234579,2,0,P|65:232|49:166,1,89.9999999999999,2|8,0:0|0:0,0:0:0:0:
135,174,235468,2,0,P|119:117|155:60,1,89.9999999999999,4|8,0:0|0:0,0:0:0:0:
155,53,236135,2,0,P|195:44|268:54,2,89.9999999999999,4|12|0,0:0|0:0|0:0,0:0:0:0:
256,192,237246,12,6,240801,0:0:0:0:
453,66,242579,6,0,B|431:127|456:155|492:195|409:267,1,180,2|2,0:0|0:0,0:0:0:0:
364,184,243913,1,8,0:0:0:0:
353,273,244357,6,0,L|239:273,1,89.9999999999999,2|8,0:0|0:0,0:0:0:0:
181,235,245246,2,0,P|171:283|206:338,1,89.9999999999999,2|8,0:0|0:0,0:0:0:0:
263,273,246135,2,0,P|270:208|202:148,2,135,6|6|8,0:0|0:0|0:0,0:0:0:0:
181,235,247913,6,0,L|55:216,1,89.9999999999999,6|8,0:0|0:0,0:0:0:0:
47,143,248801,2,0,L|173:124,1,89.9999999999999,2|8,0:0|0:0,0:0:0:0:
183,53,249690,2,0,L|57:34,2,89.9999999999999,2|8|2,0:0|0:0|0:0,0:0:0:0:
273,45,251024,1,8,0:0:0:0:
362,35,251468,6,0,L|488:54,1,89.9999999999999,2|8,0:0|0:0,0:0:0:0:
496,127,252356,2,0,L|370:146,1,89.9999999999999,2|8,0:0|0:0,0:0:0:0:
360,217,253246,2,0,L|456:233,2,89.9999999999999,6|8|2,0:0|0:0|0:0,0:0:0:0:
270,225,254579,1,10,0:0:0:0:
194,175,255024,6,0,P|180:242|215:295,2,135,6|6|8,0:0|0:0|0:0,0:0:0:0:
245,101,256801,2,0,P|180:87|122:119,2,135,6|6|8,0:0|0:0|0:0,0:0:0:0:
318,157,258579,2,0,P|337:93|307:33,1,135,8|14,0:0|0:0,0:0:0:0:
256,192,259690,12,0,264135,0:0:0:0:
