osu file format v14

[General]
AudioFilename: Sarishinohara.mp3
AudioLeadIn: 0
PreviewTime: 53913
Countdown: 0
SampleSet: Soft
StackLeniency: 0.7
Mode: 0
LetterboxInBreaks: 0
WidescreenStoryboard: 0

[Editor]
Bookmarks: 85690,160579,219468
DistanceSpacing: 1
BeatDivisor: 4
GridSize: 4
TimelineZoom: 1

[Metadata]
Title:Sarishinohara
TitleUnicode:サリシノハラ
Artist:Rib
ArtistUnicode:りぶ
Creator:Lobelia
Version:Hard
Source:
Tags:Rib on mikitop みきとp Kanor Sandrew
BeatmapID:1593263
BeatmapSetID:757350

[Difficulty]
HPDrainRate:5
CircleSize:4
OverallDifficulty:6
ApproachRate:7.5
SliderMultiplier:1.6
SliderTickRate:1

[Events]
//Background and Video events
0,0,"sarishinohara.jpg",0,0
Video,-1298,"Sarishi.flv"
//Break Periods
2,146779,159754
//Storyboard Layer 0 (Background)
//Storyboard Layer 1 (Fail)
//Storyboard Layer 2 (Pass)
//Storyboard Layer 3 (Foreground)
//Storyboard Sound Samples

[TimingPoints]
802,444.444444444444,4,2,1,45,1,0
7913,-100,4,2,1,65,0,0
15024,-100,4,2,1,30,0,0
21690,-100,4,2,1,50,0,0
54135,-100,4,2,1,70,0,1
79024,-200,4,2,1,70,0,1
80801,-100,4,2,1,70,0,0
85690,-100,4,2,1,50,0,0
98579,-100,4,2,1,40,0,0
100357,-100,4,2,1,50,0,0
107468,-100,4,2,1,40,0,0
110357,-100,4,2,1,60,0,0
111024,-100,4,2,1,50,0,0
118135,-100,4,2,1,70,0,1
139468,-100,4,2,1,70,0,1
144913,-100,4,2,1,5,0,1
145468,-100,4,2,1,40,0,1
145690,-100,4,2,1,70,0,1
146579,-100,4,2,1,70,0,0
160801,-100,4,2,1,50,0,0
175024,-100,4,2,1,70,0,0
187024,-100,4,2,1,75,0,0
187913,-100,4,2,1,80,0,0
189246,-100,4,2,1,85,0,0
191690,-100,4,2,1,70,0,0
193246,-100,4,2,1,5,0,0
194357,-100,4,2,1,70,0,0
194579,-100,4,2,1,50,0,0
208801,-100,4,2,1,70,0,1
240801,-100,4,2,1,60,0,0
262135,-100,4,2,1,30,0,0
264135,-100,4,2,1,15,0,0

[Colours]
Combo1 : 253,243,70
Combo2 : 0,128,255
Combo3 : 128,255,128
Combo4 : 255,128,128

[HitObjects]
98,61,802,6,0,P|122:103|117:215,1,160,6|0,0:0|0:0,0:0:0:0:
55,260,1468,1,0,0:0:0:0:
55,260,1690,2,0,L|224:248,1,160,2|0,0:0|0:0,0:0:0:0:
267,309,2357,1,0,0:0:0:0:
267,309,2579,6,0,P|258:242|332:242,1,160,2|0,0:0|0:1,0:0:0:0:
351,319,3246,1,0,0:0:0:0:
351,319,3468,2,0,P|386:304|407:267,1,80,2|0,0:0|0:0,0:0:0:0:
318,162,3913,2,0,L|333:248,1,80,0|0,0:1|0:0,0:0:0:0:
485,250,4357,6,0,L|496:87,1,160,2|0,0:0|0:1,0:0:0:0:
434,38,5024,1,0,0:0:0:0:
434,38,5246,2,0,B|407:71|413:114|413:114|380:136|336:126,1,160,2|0,0:0|0:1,0:0:0:0:
261,101,5913,1,0,0:0:0:0:
261,101,6135,6,0,P|253:65|246:17,1,80,4|2,0:0|0:0,0:0:0:0:
87,32,6801,1,4,0:0:0:0:
87,32,7024,2,0,P|91:84|88:122,1,80
44,178,7468,2,0,P|39:218|41:261,1,80,10|0,0:0|1:0,0:0:0:0:
60,291,7801,1,0,1:0:0:0:
60,291,7913,6,0,B|145:265|124:332|215:306,1,160,6|8,1:2|0:0,0:0:0:0:
180,233,8579,1,0,0:0:0:0:
232,172,8801,2,0,P|259:244|213:306,1,160,2|8,0:0|0:0,0:0:0:0:
180,233,9468,1,0,0:0:0:0:
291,252,9690,6,0,B|354:248|354:248|376:272|376:272|440:269,1,160,2|8,0:0|0:0,0:0:0:0:
406,192,10357,1,0,0:0:0:0:
464,134,10579,2,0,B|494:210|494:210|440:268,1,160,2|8,0:0|0:0,0:0:0:0:
406,192,11246,1,0,0:0:0:0:
493,63,11468,6,0,P|446:80|336:63,1,160,2|8,0:0|0:0,0:0:0:0:
278,12,12135,1,0,0:0:0:0:
339,64,12357,2,0,L|328:158,1,80,2|0,0:0|0:0,0:0:0:0:
198,126,12801,2,0,L|207:45,1,80,10|0,0:0|0:0,0:0:0:0:
258,184,13246,5,6,0:0:0:0:
258,184,13468,2,0,P|182:151|120:198,1,160,2|4,0:0|0:0,0:0:0:0:
193,229,14135,2,0,P|193:278|218:314,1,80,2|0,0:0|1:0,0:0:0:0:
241,324,14468,1,0,1:0:0:0:
241,324,14579,2,0,L|330:315,1,80,8|0,1:2|1:0,0:0:0:0:
383,366,15024,6,0,P|372:305|389:194,1,160,6|2,0:0|0:0,0:0:0:0:
478,78,15913,2,0,L|391:78,1,80,2|2,0:0|0:0,0:0:0:0:
358,76,16246,1,2,0:0:0:0:
358,76,16357,2,0,L|255:76,1,80,2|0,0:0|0:0,0:0:0:0:
222,133,16801,6,0,P|215:180|220:224,2,80,2|2|2,0:0|0:0|0:0,0:0:0:0:
83,52,17690,2,0,P|100:123|84:208,1,160,2|2,0:0|0:0,0:0:0:0:
27,263,18357,1,0,0:0:0:0:
27,263,18579,6,0,P|93:257|142:329,1,160,2|2,0:0|0:0,0:0:0:0:
302,333,19468,2,0,L|393:326,1,80,2|2,0:0|0:0,0:0:0:0:
421,323,19801,1,2,0:0:0:0:
421,323,19913,2,0,L|435:234,1,80,2|0,0:0|0:0,0:0:0:0:
449,165,20357,5,2,0:0:0:0:
449,165,20579,1,2,0:0:0:0:
382,121,20801,1,2,0:0:0:0:
323,175,21024,1,2,0:0:0:0:
355,248,21246,1,6,0:0:0:0:
382,121,21690,6,0,L|382:70,2,40,8|8|8,0:0|0:0|0:0,0:0:0:0:
323,175,22135,6,0,L|146:160,1,160,4|8,0:0|0:0,0:0:0:0:
100,210,22801,1,0,0:0:0:0:
75,286,23024,2,0,P|81:332|95:380,2,80,0|0|8,0:0|0:0|0:0,0:0:0:0:
163,161,23913,5,0,0:0:0:0:
100,210,24135,1,0,0:0:0:0:
33,165,24357,1,8,0:0:0:0:
33,165,24579,2,0,L|40:81,1,80,0|0,0:0|0:0,0:0:0:0:
105,40,25024,1,0,0:0:0:0:
177,74,25246,2,0,P|216:90|260:93,1,80,8|0,0:0|0:0,0:0:0:0:
308,35,25690,6,0,P|314:107|387:143,1,160,4|8,0:0|0:0,0:0:0:0:
381,64,26357,1,0,0:0:0:0:
460,74,26579,2,0,P|454:31|430:1,2,80,0|0|8,0:0|0:0|0:0,0:0:0:0:
394,226,27468,5,0,0:0:0:0:
319,255,27690,1,0,0:0:0:0:
251,212,27913,1,8,0:0:0:0:
251,212,28135,2,0,P|205:199|165:201,1,80,0|0,0:0|0:0,0:0:0:0:
122,261,28579,1,2,0:0:0:0:
119,141,28801,2,0,P|82:134|27:141,1,80,10|0,0:0|0:0,0:0:0:0:
173,199,29246,6,0,P|161:133|180:34,1,160,4|8,0:0|0:0,0:0:0:0:
253,20,29913,1,0,0:0:0:0:
327,48,30135,2,0,P|370:57|422:50,2,80,0|0|8,0:0|0:0|0:0,0:0:0:0:
468,114,31024,5,0,0:0:0:0:
422,179,31246,1,0,0:0:0:0:
469,243,31468,1,8,0:0:0:0:
469,243,31690,2,0,L|458:341,1,80,0|0,0:0|0:0,0:0:0:0:
325,329,32135,1,2,0:0:0:0:
286,242,32357,2,0,P|331:236|370:245,1,80,10|0,0:0|0:0,0:0:0:0:
238,315,32801,6,0,P|162:335|82:312,1,160,4|8,0:0|0:0,0:0:0:0:
40,247,33468,1,0,0:0:0:0:
188,159,33690,2,0,B|197:241|197:241|167:267|126:238,1,160,0|8,0:0|0:0,0:0:0:0:
79,172,34357,1,0,0:0:0:0:
180,79,34579,6,0,L|187:158,1,80,0|0,0:0|0:0,0:0:0:0:
86,82,35024,1,8,0:0:0:0:
86,82,35246,1,4,0:0:0:0:
252,27,35690,2,0,P|289:43|344:43,1,80,2|8,0:0|0:0,0:0:0:0:
406,26,36135,1,0,1:0:0:0:
406,26,36246,1,0,1:0:0:0:
406,26,36357,6,0,L|394:197,1,160,4|8,1:2|0:0,0:0:0:0:
388,265,37024,1,0,0:0:0:0:
322,310,37246,2,0,P|289:317|237:304,1,80,0|0,0:0|0:0,0:0:0:0:
201,240,37690,2,0,L|211:153,1,80,8|0,0:0|0:0,0:0:0:0:
159,98,38135,5,0,0:0:0:0:
159,98,38357,1,0,0:0:0:0:
99,151,38579,1,8,0:0:0:0:
99,151,38801,2,0,L|102:244,1,80,0|0,0:0|0:0,0:0:0:0:
145,298,39246,1,0,0:0:0:0:
201,240,39468,2,0,L|295:233,1,80,8|0,0:0|0:0,0:0:0:0:
352,198,39913,6,0,B|381:272|322:281|355:356,1,160,4|8,0:0|0:0,0:0:0:0:
423,314,40579,1,0,0:0:0:0:
495,346,40801,2,0,P|500:304|484:266,1,80,0|0,0:0|0:0,0:0:0:0:
437,206,41246,2,0,L|451:122,1,80,8|0,0:0|0:0,0:0:0:0:
415,55,41690,5,0,0:0:0:0:
415,55,41913,1,0,0:0:0:0:
347,97,42135,1,8,0:0:0:0:
347,97,42357,2,0,P|304:106|256:107,1,80,0|0,0:0|0:0,0:0:0:0:
176,25,42801,1,2,0:0:0:0:
268,107,43024,2,0,L|255:201,1,80,10|0,0:0|0:0,0:0:0:0:
243,264,43468,5,4,0:0:0:0:
243,264,43690,1,0,0:0:0:0:
183,208,43913,2,0,P|216:187|256:185,1,80,8|0,0:0|0:0,0:0:0:0:
243,264,44357,2,0,B|169:233|168:291|85:258,1,160,0|8,0:0|0:0,0:0:0:0:
302,324,45246,6,0,P|344:333|384:323,1,80,0|0,0:0|0:0,0:0:0:0:
450,288,45690,1,8,0:0:0:0:
450,288,45913,2,0,L|460:196,1,80,0|0,0:0|0:0,0:0:0:0:
353,131,46357,1,2,0:0:0:0:
457,208,46579,2,0,L|466:128,1,80,10|0,0:0|0:0,0:0:0:0:
406,74,47024,6,0,P|334:56|277:114,1,160,4|8,0:0|0:0,0:0:0:0:
353,131,47690,1,0,0:0:0:0:
290,37,47913,2,0,P|218:63|211:146,1,160,0|8,0:0|0:0,0:0:0:0:
293,272,48801,5,0,0:0:0:0:
285,192,49024,1,0,0:0:0:0:
223,317,49246,1,8,0:0:0:0:
223,317,49468,2,0,B|137:338|160:280|66:301,1,160,4|8,0:0|0:0,0:0:0:0:
191,237,50135,1,8,0:0:0:0:
74,172,50357,1,8,0:0:0:0:
191,237,50579,6,0,L|201:67,1,160,4|8,0:0|0:0,0:0:0:0:
311,30,51357,1,0,1:0:0:0:
311,30,51468,2,0,P|355:40|400:40,2,80,2|2|10,1:2|1:2|0:0,0:0:0:0:
453,93,52357,5,0,0:0:0:0:
453,93,52579,1,0,0:0:0:0:
406,157,52801,2,0,P|396:189|402:243,1,80,0|0,0:0|0:0,0:0:0:0:
462,284,53246,2,0,P|410:260|386:346,1,160,0|0,0:0|0:0,0:0:0:0:
288,293,53913,2,0,L|237:292,1,40,0|0,0:0|0:0,0:0:0:0:
218,318,54135,6,0,L|223:141,1,160,6|8,0:0|0:0,0:0:0:0:
112,109,54801,1,0,1:0:0:0:
112,109,54913,1,0,1:0:0:0:
112,109,55024,2,0,L|97:196,1,80,2|0,1:2|0:0,0:0:0:0:
173,216,55468,1,8,0:0:0:0:
222,158,55690,1,0,0:0:0:0:
190,84,55913,6,0,B|112:103|112:50|33:68,1,160,2|8,0:0|0:0,0:0:0:0:
17,156,56579,1,0,1:0:0:0:
17,156,56690,1,0,1:0:0:0:
17,156,56801,2,0,L|18:206,2,40,2|0|0,1:2|0:0|0:0,0:0:0:0:
98,187,57246,2,0,P|112:229|153:259,1,80,8|0,0:0|0:0,0:0:0:0:
257,206,57690,5,4,0:0:0:0:
180,181,57913,1,0,0:0:0:0:
192,315,58135,2,0,L|276:302,1,80,8|0,0:0|1:0,0:0:0:0:
310,296,58468,1,0,1:0:0:0:
310,296,58579,2,0,P|351:303|385:327,1,80,2|0,1:2|0:0,0:0:0:0:
439,381,59024,1,8,0:0:0:0:
463,304,59246,1,0,0:0:0:0:
406,247,59468,6,0,B|392:207|413:170|413:170|389:205|346:206,1,160,2|8,0:0|0:0,0:0:0:0:
343,126,60135,1,0,1:0:0:0:
343,126,60246,1,0,1:0:0:0:
343,126,60357,2,0,P|308:108|269:112,1,80,2|0,1:2|0:0,0:0:0:0:
205,166,60801,2,0,P|171:188|123:185,1,80,8|0,0:0|0:0,0:0:0:0:
97,12,61246,6,0,B|143:43|148:110|148:110|127:97|121:70,1,160,6|8,0:0|0:0,0:0:0:0:
58,143,61913,1,0,1:0:0:0:
58,143,62024,1,0,1:0:0:0:
58,143,62135,2,0,L|50:191,2,40,2|0|0,1:2|0:0|0:0,0:0:0:0:
132,188,62579,2,0,P|136:228|166:263,1,80,8|0,0:0|1:0,0:0:0:0:
213,198,63024,6,0,B|301:179|282:232|370:216,1,160,2|8,0:0|0:0,0:0:0:0:
344,138,63690,1,0,1:0:0:0:
344,138,63801,1,0,1:0:0:0:
344,138,63913,2,0,P|368:107|406:98,2,80,2|0|8,1:2|0:0|0:0,0:0:0:0:
478,183,64579,1,0,0:0:0:0:
367,216,64801,6,0,P|363:273|373:342,1,120,6|0,0:0|0:0,0:0:0:0:
401,362,65246,1,8,0:0:0:0:
287,320,65468,1,0,1:0:0:0:
287,320,65579,1,0,0:0:0:0:
287,320,65690,2,0,L|198:316,1,80,2|0,1:2|0:0,0:0:0:0:
66,349,66135,1,8,0:0:0:0:
129,300,66357,1,0,0:0:0:0:
54,189,66579,5,2,0:0:0:0:
54,189,66801,2,0,P|98:194|139:189,1,80,2|10,0:0|0:0,0:0:0:0:
171,119,67246,2,0,P|183:176|276:191,1,160,6|0,0:0|0:0,0:0:0:0:
340,150,67913,2,0,L|339:98,2,40,8|0|0,1:2|1:2|1:2,0:0:0:0:
467,222,68357,5,6,0:0:0:0:
422,155,68579,1,0,0:0:0:0:
345,230,68801,2,0,L|345:311,1,80,8|0,0:0|1:0,0:0:0:0:
346,350,69135,1,0,1:0:0:0:
346,350,69246,2,0,P|384:350|427:327,1,80,2|0,1:2|0:0,0:0:0:0:
267,314,69690,1,8,0:0:0:0:
194,349,69913,1,0,0:0:0:0:
267,314,70135,6,0,P|200:268|129:301,1,160,2|8,0:0|0:0,0:0:0:0:
62,240,70801,1,0,1:0:0:0:
62,240,70913,1,0,1:0:0:0:
62,240,71024,2,0,L|57:188,2,40,2|0|0,1:2|0:0|0:0,0:0:0:0:
141,195,71468,2,0,P|182:185|231:189,1,80,8|0,0:0|0:0,0:0:0:0:
277,241,71913,6,0,P|342:222|287:176,1,160,6|8,0:0|0:0,0:0:0:0:
392,245,72579,1,0,1:0:0:0:
392,245,72690,1,0,1:0:0:0:
392,245,72801,2,0,P|433:244|471:216,1,80,2|0,1:2|1:0,0:0:0:0:
416,84,73246,2,0,L|404:175,1,80,8|0,1:2|0:0,0:0:0:0:
341,43,73690,6,0,B|298:62|298:62|185:40,1,160,2|8,0:0|0:0,0:0:0:0:
98,73,74357,1,0,1:0:0:0:
98,73,74468,1,0,0:0:0:0:
98,73,74579,2,0,P|111:115|114:159,1,80,2|0,1:2|0:0,0:0:0:0:
45,272,75024,2,0,L|35:322,2,40,8|0|0,1:2|1:2|1:2,0:0:0:0:
83,261,75357,1,0,1:2:0:0:
83,261,75468,6,0,B|171:244|154:299|239:283,1,160,6|8,0:2|0:0,0:0:0:0:
311,232,76135,1,0,1:0:0:0:
311,232,76246,1,0,1:0:0:0:
311,232,76357,2,0,L|302:138,1,80,0|0,1:0|0:0,0:0:0:0:
420,100,76801,1,8,0:0:0:0:
384,172,77024,1,0,0:0:0:0:
293,73,77246,6,0,B|249:81|227:118|227:118|193:136|150:124,1,160,2|8,1:2|0:0,0:0:0:0:
106,58,77913,2,0,L|114:247,2,160,4|10|2,0:0|0:0|0:0,0:0:0:0:
54,122,79024,6,0,B|25:104|21:53|21:53|13:254,1,280,2|0,0:0|0:0,0:0:0:0:
85,286,80801,6,0,P|161:309|240:283,1,160,6|8,0:0|0:0,0:0:0:0:
286,222,81468,1,0,0:0:0:0:
258,146,81690,2,0,L|248:63,1,80,2|0,0:0|0:0,0:0:0:0:
355,44,82135,2,0,L|312:39,3,40,8|8|8|8,0:0|0:0|0:0|0:0,0:0:0:0:
394,43,82579,6,0,L|374:203,1,160,6|8,0:0|0:0,0:0:0:0:
363,281,83246,1,0,0:0:0:0:
354,360,83468,2,0,P|391:357|425:330,1,80,2|0,0:0|0:0,0:0:0:0:
374,201,83913,2,0,P|331:205|295:237,1,80,8|0,0:0|0:0,0:0:0:0:
224,343,84357,5,2,0:0:0:0:
224,343,84579,2,0,L|215:256,1,80,2|8,0:0|0:0,0:0:0:0:
177,193,85024,5,6,0:0:0:0:
143,328,85246,2,0,P|93:331|58:321,1,80,2|2,0:0|1:2,0:0:0:0:
40,299,85579,1,2,1:2:0:0:
40,299,85690,2,0,P|29:251|35:215,1,80,10|0,1:2|0:0,0:0:0:0:
90,165,86135,6,0,P|41:180|58:100,1,160,4|8,0:0|0:0,0:0:0:0:
196,44,87024,1,0,0:0:0:0:
132,91,87246,1,0,0:0:0:0:
196,44,87468,2,0,L|288:56,1,80,8|0,0:0|0:0,0:0:0:0:
289,133,87913,5,0,0:0:0:0:
349,80,88135,1,0,0:0:0:0:
425,103,88357,1,8,0:0:0:0:
425,103,88579,2,0,L|441:184,1,80,2|2,0:0|0:0,0:0:0:0:
410,255,89024,1,2,0:0:0:0:
339,293,89246,2,0,P|292:301|249:293,1,80,8|0,0:0|0:0,0:0:0:0:
210,234,89690,6,0,P|209:305|138:349,1,160,0|8,0:0|0:0,0:0:0:0:
137,268,90357,1,0,0:0:0:0:
65,303,90579,2,0,P|56:264|70:224,1,80,0|0,0:0|0:0,0:0:0:0:
137,268,91024,1,8,0:0:0:0:
23,155,91468,6,0,L|35:70,1,80,0|0,0:0|0:0,0:0:0:0:
99,28,91913,1,8,0:0:0:0:
164,73,92135,1,0,0:0:0:0:
238,44,92357,2,0,P|274:35|322:37,1,80,2|2,0:0|0:0,0:0:0:0:
452,106,92801,2,0,P|410:106|370:90,1,80,10|0,0:0|0:0,0:0:0:0:
316,36,93246,6,0,P|328:126|311:211,1,160,0|8,0:0|0:0,0:0:0:0:
275,262,93913,1,0,0:0:0:0:
200,232,94135,2,0,P|171:201|160:165,1,80,0|0,0:0|0:0,0:0:0:0:
275,262,94579,2,0,P|254:295|213:310,1,80,8|0,0:0|0:0,0:0:0:0:
200,232,95024,5,0,0:0:0:0:
141,286,95246,1,0,0:0:0:0:
68,253,95468,1,8,0:0:0:0:
68,253,95690,2,0,L|55:170,1,80,2|2,0:0|0:0,0:0:0:0:
154,99,96135,1,2,0:0:0:0:
55,173,96357,2,0,L|43:93,1,80,8|0,0:0|0:0,0:0:0:0:
101,39,96801,6,0,P|168:21|230:78,1,160,0|8,0:0|0:0,0:0:0:0:
154,99,97468,1,0,0:0:0:0:
311,72,97690,2,0,P|298:120|265:147,1,80,0|0,0:0|0:0,0:0:0:0:
154,99,98135,1,8,0:0:0:0:
229,77,98357,1,8,0:0:0:0:
277,140,98579,6,0,L|266:223,1,80,2|0,0:0|0:0,0:0:0:0:
253,298,99024,1,2,0:0:0:0:
253,298,99246,2,0,B|182:296|200:208|126:208,1,160,2|0,0:0|0:0,0:0:0:0:
115,286,99913,2,0,P|74:268|53:221,1,80,2|0,0:0|0:0,0:0:0:0:
137,101,100357,6,0,B|130:208|130:208|119:176|77:161,1,160,4|0,0:0|0:0,0:0:0:0:
56,239,101024,1,0,1:0:0:0:
195,258,101246,2,0,L|188:349,1,80,0|0,1:0|0:0,0:0:0:0:
267,349,101690,2,0,L|347:353,1,80,8|0,0:0|0:0,0:0:0:0:
423,329,102135,5,0,1:0:0:0:
433,249,102357,1,0,0:0:0:0:
368,202,102579,1,0,0:0:0:0:
509,230,102801,2,0,P|509:182|496:141,1,80,2|0,1:2|0:0,0:0:0:0:
377,124,103246,1,2,0:0:0:0:
425,60,103468,2,0,P|385:46|342:52,1,80,10|0,0:0|0:0,0:0:0:0:
295,110,103913,6,0,B|252:126|219:101|219:101|180:126|139:111,1,160,0|0,0:0|0:0,0:0:0:0:
168,36,104579,1,0,1:0:0:0:
142,112,104801,2,0,P|107:91|90:57,1,80,0|0,1:0|0:0,0:0:0:0:
219,101,105246,1,8,0:0:0:0:
192,176,105468,1,0,0:0:0:0:
270,162,105690,6,0,P|289:197|290:243,1,80,0|0,1:0|0:0,0:0:0:0:
246,303,106135,2,0,L|159:294,1,80,0|2,0:0|1:2,0:0:0:0:
126,288,106468,1,2,1:2:0:0:
126,288,106579,1,10,1:2:0:0:
37,353,106801,1,10,0:0:0:0:
126,288,107024,2,0,L|117:200,1,80,10|0,0:0|0:0,0:0:0:0:
108,129,107468,5,4,0:0:0:0:
108,129,107690,1,0,0:0:0:0:
108,129,107913,2,0,P|69:141|44:173,1,80,0|0,0:0|0:0,0:0:0:0:
117,208,108357,2,0,P|198:221|282:206,1,160,2|2,0:0|0:0,0:0:0:0:
370,80,109246,6,0,L|366:170,1,80,2|0,0:0|0:0,0:0:0:0:
362,239,109690,1,2,0:0:0:0:
362,239,109913,2,0,P|402:232|429:206,1,80,2|0,0:0|0:0,0:0:0:0:
346,82,110357,2,0,L|367:165,1,80,6|0,0:0|0:0,0:0:0:0:
498,160,110801,1,0,1:0:0:0:
498,160,110913,1,0,1:0:0:0:
498,160,111024,6,0,P|451:214|438:306,1,160,6|0,1:2|0:0,0:0:0:0:
476,368,111690,1,0,1:0:0:0:
436,299,111913,2,0,P|387:284|276:309,1,160,0|0,1:0|0:0,0:0:0:0:
222,357,112579,1,0,0:0:0:0:
282,304,112801,6,0,L|285:208,1,80,0|0,0:0|0:0,0:0:0:0:
196,155,113246,1,8,0:0:0:0:
53,236,113468,2,0,B|88:260|88:260|215:247,1,160,4|2,0:0|0:0,0:0:0:0:
119,94,114135,2,0,L|108:192,1,80,10|0,0:0|0:0,0:0:0:0:
191,48,114579,5,6,0:0:0:0:
191,48,114801,2,0,P|234:59|281:58,1,80,2|8,0:0|0:0,0:0:0:0:
348,45,115246,1,2,0:0:0:0:
426,27,115468,1,6,0:0:0:0:
426,27,115690,2,0,L|430:115,1,80,2|8,0:0|0:0,0:0:0:0:
433,187,116135,1,2,0:0:0:0:
439,266,116357,5,6,0:0:0:0:
371,308,116579,1,8,0:0:0:0:
309,257,116801,2,0,P|264:246|220:257,1,80,8|8,0:0|0:0,0:0:0:0:
198,275,117135,1,0,1:0:0:0:
184,312,117246,2,0,L|192:358,3,40,8|0|0|0,0:0|0:0|1:0|0:0,0:0:0:0:
154,368,117690,2,0,L|107:376,3,40,2|2|10|0,1:2|0:0|0:0|0:0,0:0:0:0:
74,379,118135,5,6,0:0:0:0:
42,305,118357,1,0,0:0:0:0:
105,256,118579,2,0,P|114:210|115:168,1,80,8|0,0:0|1:0,0:0:0:0:
111,136,118913,1,0,1:0:0:0:
111,136,119024,2,0,P|72:128|15:133,1,80,2|0,1:2|0:0,0:0:0:0:
181,92,119468,2,0,P|222:100|270:93,1,80,8|0,0:0|0:0,0:0:0:0:
323,47,119913,6,0,B|304:90|317:125|317:125|357:104|399:124,1,160,2|8,0:0|0:0,0:0:0:0:
365,203,120579,1,0,1:0:0:0:
365,203,120690,1,0,1:0:0:0:
365,203,120801,2,0,P|388:235|424:251,1,80,2|0,1:2|0:0,0:0:0:0:
452,93,121246,2,0,L|437:188,1,80,8|0,0:0|1:2,0:0:0:0:
499,275,121690,5,6,0:0:0:0:
424,251,121913,1,0,0:0:0:0:
351,274,122135,2,0,P|304:282|257:278,1,80,8|0,0:0|1:0,0:0:0:0:
234,265,122468,1,0,1:0:0:0:
234,265,122579,2,0,P|191:255|148:254,1,80,2|0,1:2|0:0,0:0:0:0:
41,333,123024,1,8,0:0:0:0:
78,262,123246,1,0,0:0:0:0:
26,201,123468,6,0,P|23:153|109:98,1,160,2|8,0:0|0:0,0:0:0:0:
190,154,124135,1,0,1:0:0:0:
190,154,124246,1,0,1:0:0:0:
190,154,124357,2,0,L|241:158,2,40,2|0|0,1:2|0:0|0:0,0:0:0:0:
189,64,124801,2,0,L|285:50,1,80,8|0,0:0|1:0,0:0:0:0:
307,45,125135,1,2,1:2:0:0:
307,45,125246,6,0,B|371:99|394:38|454:92,1,160,6|8,1:2|0:0,0:0:0:0:
400,157,125913,1,0,1:0:0:0:
399,156,126024,1,0,1:0:0:0:
399,156,126135,2,0,P|415:192|446:216,1,80,2|0,1:2|0:0,0:0:0:0:
505,283,126579,2,2,L|501:331,2,40,8|0|0,0:0|0:0|0:0,0:0:0:0:
394,291,127024,6,0,P|368:324|258:310,1,160,2|8,0:0|0:0,0:0:0:0:
200,250,127690,1,0,1:0:0:0:
200,250,127801,1,0,1:0:0:0:
200,250,127913,2,0,L|208:197,2,40,2|0|0,1:2|0:0|0:0,0:0:0:0:
110,279,128357,1,8,0:0:0:0:
62,178,128579,2,0,L|58:136,1,40,0|0,1:0|1:0,0:0:0:0:
56,98,128801,6,0,P|99:86|228:101,1,160,0|2,1:0|0:0,0:0:0:0:
322,144,129468,1,0,0:0:0:0:
322,144,129579,1,2,0:0:0:0:
322,144,129690,2,0,P|336:108|331:59,1,80,2|2,0:0|0:0,0:0:0:0:
262,30,130135,1,2,0:0:0:0:
246,170,130357,6,0,L|417:156,1,160,4|2,0:0|0:0,0:0:0:0:
462,213,131024,1,10,0:0:0:0:
419,358,131246,2,0,L|431:237,1,120,6|0,0:0|0:0,0:0:0:0:
462,213,131690,1,0,1:0:0:0:
340,272,131913,2,0,L|343:228,2,40,8|0|0,1:2|1:2|1:2,0:0:0:0:
336,311,132246,1,0,1:2:0:0:
336,311,132357,6,0,P|293:324|174:309,1,160,6|8,1:2|0:0,0:0:0:0:
122,244,133024,1,0,1:0:0:0:
122,244,133135,1,0,1:0:0:0:
122,244,133246,2,0,L|126:157,1,80,2|0,1:2|0:0,0:0:0:0:
217,59,133690,1,8,0:0:0:0:
209,139,133913,1,0,0:0:0:0:
217,59,134135,6,0,B|306:64|260:134|345:140,1,160,2|8,0:0|0:0,0:0:0:0:
407,71,134801,1,0,1:0:0:0:
407,71,134913,1,0,1:0:0:0:
407,71,135024,2,0,L|412:20,2,40,2|0|0,1:2|0:0|0:0,0:0:0:0:
433,149,135468,2,0,L|445:252,1,80,8|0,0:0|0:0,0:0:0:0:
461,319,135913,5,6,0:0:0:0:
442,228,136135,1,0,0:0:0:0:
338,327,136357,2,0,P|299:344|255:342,1,80,8|0,0:0|1:0,0:0:0:0:
227,323,136690,1,0,1:0:0:0:
227,323,136801,2,0,L|235:233,1,80,2|0,1:2|0:0,0:0:0:0:
184,180,137246,1,8,0:0:0:0:
115,220,137468,1,0,0:0:0:0:
184,180,137690,6,0,B|192:67|192:67|222:67|245:109,1,160,2|8,0:0|0:0,0:0:0:0:
315,145,138357,1,0,1:0:0:0:
315,145,138468,1,0,1:0:0:0:
315,145,138579,2,0,L|357:143,2,40,2|0|0,1:2|1:2|0:0,0:0:0:0:
387,246,139024,2,0,L|436:251,3,40,8|0|0|0,1:2|1:2|1:2|1:2,0:0:0:0:
378,279,139468,6,0,B|303:304|303:253|221:278,1,160,6|8,0:0|0:0,0:0:0:0:
147,309,140135,2,0,P|112:316|96:315,1,40,0|0,1:0|1:0,0:0:0:0:
68,313,140357,2,0,L|72:226,1,80,2|8,1:2|0:0,0:0:0:0:
147,151,140801,2,0,P|157:190|159:235,1,80,0|0,0:0|0:0,0:0:0:0:
86,93,141246,6,0,P|161:71|227:119,1,160,2|8,1:2|0:0,0:0:0:0:
147,151,141913,2,0,L|314:122,1,160,4|8,0:0|0:0,0:0:0:0:
444,80,142579,1,0,0:0:0:0:
415,154,142801,1,0,0:0:0:0:
402,233,143024,6,0,P|393:272|409:317,1,80,0|0,0:0|0:0,0:0:0:0:
477,269,143468,1,2,0:0:0:0:
402,233,143690,1,0,0:0:0:0:
329,267,143913,2,0,P|293:274|247:272,1,80,8|0,0:0|0:0,0:0:0:0:
226,239,144246,2,0,P|184:232|136:233,1,80,8|0,0:0|0:0,0:0:0:0:
118,260,144579,1,8,0:0:0:0:
118,260,144690,1,8,0:0:0:0:
118,260,144801,6,0,P|23:195|84:87,1,240,10|0,0:0|1:0,0:0:0:0:
103,92,145579,1,0,1:0:0:0:
103,92,145690,2,0,P|147:107|199:109,1,80,8|8,0:0|0:0,0:0:0:0:
255,82,146135,2,0,L|252:35,4,40,8|8|8|8|10,0:0|0:0|0:0|0:0|0:0,0:0:0:0:
373,54,160579,5,0,1:0:0:0:
373,54,160690,1,0,1:0:0:0:
373,54,160801,6,0,B|343:127|397:139|361:215,1,160,4|0,1:2|0:0,0:0:0:0:
296,166,161468,1,0,0:0:0:0:
224,201,161690,2,0,P|216:158|258:95,1,120,8|0,0:0|0:0,0:0:0:0:
255,96,162135,2,0,L|171:104,1,80,0|0,1:0|0:0,0:0:0:0:
95,107,162579,5,0,0:0:0:0:
57,177,162801,1,0,1:0:0:0:
71,256,163024,2,0,P|72:301|84:341,1,80,0|0,1:0|0:0,0:0:0:0:
159,316,163468,2,0,P|195:309|241:316,1,80,2|2,0:0|1:2,0:0:0:0:
273,332,163801,1,0,1:0:0:0:
273,332,163913,2,0,P|319:344|363:339,1,80,8|0,1:2|0:0,0:0:0:0:
397,224,164357,5,6,0:0:0:0:
397,224,164579,2,0,L|387:136,1,80,2|0,0:0|0:0,0:0:0:0:
320,101,165024,1,0,0:0:0:0:
249,138,165246,2,0,P|192:153|129:132,1,120,8|0,0:0|0:0,0:0:0:0:
134,135,165690,2,0,L|140:47,1,80,0|0,1:0|0:0,0:0:0:0:
61,35,166135,5,0,0:0:0:0:
21,104,166357,1,0,1:0:0:0:
33,182,166579,2,0,P|39:222|50:265,1,80,0|2,1:0|0:0,0:0:0:0:
116,303,167024,2,0,P|157:293|200:298,1,80,2|2,0:0|1:2,0:0:0:0:
232,307,167357,1,0,1:0:0:0:
232,307,167468,2,0,P|291:325|359:319,1,120,10|0,1:2|0:0,0:0:0:0:
387,302,167913,6,0,B|398:221|349:229|362:148,1,160,6|0,0:0|0:0,0:0:0:0:
437,173,168579,1,0,0:0:0:0:
362,147,168801,2,0,P|398:104|464:100,1,120,8|0,0:0|0:0,0:0:0:0:
458,98,169246,2,0,P|420:76|399:40,1,80,0|0,1:0|0:0,0:0:0:0:
328,13,169690,5,0,0:0:0:0:
261,58,169913,1,0,1:0:0:0:
262,137,170135,1,0,1:0:0:0:
261,58,170357,2,0,B|221:38|183:50|183:50|160:82|111:80,1,160,2|2,0:0|1:2,0:0:0:0:
75,65,170913,1,0,1:0:0:0:
75,65,171024,2,0,P|75:105|72:155,1,80,10|0,1:2|0:0,0:0:0:0:
72,224,171468,5,6,0:0:0:0:
72,224,171690,1,2,0:0:0:0:
119,288,171913,2,0,P|152:294|203:290,1,80,0|0,0:0|0:0,0:0:0:0:
248,228,172357,2,0,P|244:182|310:165,1,120,8|0,0:0|0:0,0:0:0:0:
304,162,172801,2,0,P|346:172|395:164,1,80,0|0,1:0|0:0,0:0:0:0:
471,115,173246,5,0,0:0:0:0:
349,72,173468,1,10,0:0:0:0:
402,192,173690,2,0,L|395:275,1,80,0|2,1:0|0:0,0:0:0:0:
240,328,174135,2,0,L|156:318,1,80,8|2,0:0|1:2,0:0:0:0:
121,310,174468,1,0,1:0:0:0:
121,310,174579,1,10,1:2:0:0:
207,229,174801,1,8,0:0:0:0:
70,230,175024,6,0,B|45:147|97:161|74:72,1,160,4|10,0:0|0:0,0:0:0:0:
170,53,175690,1,0,1:0:0:0:
170,53,175801,1,0,1:0:0:0:
170,53,175913,2,0,P|190:93|227:116,2,80,0|2|10,2:0|0:0|0:0,0:0:0:0:
266,23,176579,6,0,P|330:41|423:37,1,160,0|2,0:0|0:0,0:0:0:0:
464,105,177246,2,0,P|454:148|456:195,1,80,10|0,0:0|1:0,0:0:0:0:
462,222,177579,1,0,1:0:0:0:
462,222,177690,2,0,P|467:267|458:312,1,80,2|2,1:2|0:0,0:0:0:0:
337,297,178135,2,0,L|387:290,2,40,8|0|0,0:0|0:0|0:0,0:0:0:0:
273,346,178579,5,6,0:0:0:0:
202,307,178801,1,0,0:0:0:0:
224,229,179024,1,8,0:0:0:0:
303,224,179246,2,0,L|314:178,2,40,2|0|0,1:2|1:0|1:0,0:0:0:0:
224,229,179690,1,2,0:0:0:0:
144,219,179913,2,0,P|137:179|136:133,1,80,8|2,0:0|0:0,0:0:0:0:
224,34,180357,6,0,P|219:74|209:125,2,80,0|0|10,0:0|0:0|0:0,0:0:0:0:
81,73,181024,1,2,1:2:0:0:
81,73,181135,1,0,1:0:0:0:
81,73,181246,1,0,1:0:0:0:
211,113,181468,1,2,0:0:0:0:
45,152,181690,2,0,P|43:200|55:245,1,80,10|0,0:0|1:0,0:0:0:0:
68,266,182024,1,0,1:0:0:0:
68,266,182135,6,0,L|165:254,1,80,4|0,1:2|1:0,0:0:0:0:
252,327,182579,1,8,0:0:0:0:
147,256,182801,1,0,0:0:0:0:
266,209,183024,2,0,P|315:198|373:202,1,80,0|0,1:0|0:0,0:0:0:0:
426,295,183468,5,8,0:0:0:0:
344,197,183690,1,0,0:0:0:0:
471,185,183913,2,0,P|485:141|485:98,1,80,4|0,1:2|1:0,0:0:0:0:
366,67,184357,5,8,0:0:0:0:
490,92,184579,1,0,1:0:0:0:
490,92,184690,1,0,1:0:0:0:
490,92,184801,2,0,P|439:40|365:68,1,160,0|8,1:0|0:0,0:0:0:0:
232,153,185690,6,0,P|218:115|213:72,1,80,4|0,1:2|0:0,0:0:0:0:
133,66,186135,2,0,P|115:103|76:134,1,80,0|0,1:0|0:0,0:0:0:0:
87,208,186579,2,0,P|103:247|106:290,1,80,0|0,1:0|0:0,0:0:0:0:
185,300,187024,2,0,P|198:262|226:227,1,80,0|0,1:0|0:0,0:0:0:0:
301,227,187468,6,0,P|330:253|351:290,1,80,0|0,1:0|0:0,0:0:0:0:
185,300,187913,2,0,P|198:262|226:227,1,80,0|0,1:0|0:0,0:0:0:0:
347,162,188357,2,0,P|328:198|290:234,1,80,0|0,1:0|0:0,0:0:0:0:
172,168,188801,2,0,P|192:202|221:230,1,80,0|0,1:0|0:0,0:0:0:0:
380,83,189246,5,4,1:2:0:0:
380,83,189468,1,0,0:0:0:0:
244,41,189690,1,0,1:0:0:0:
244,41,189913,1,0,0:0:0:0:
137,133,190135,1,0,1:0:0:0:
137,133,190357,1,0,0:0:0:0:
278,189,190579,2,0,L|270:275,1,80,0|0,1:0|1:0,0:0:0:0:
268,308,190913,1,0,1:0:0:0:
268,308,191024,6,0,L|219:310,4,40,0|0|0|0|8,1:0|1:0|1:0|1:0|1:2,0:0:0:0:
423,348,191690,2,0,B|410:317|430:276|430:276|418:276|418:276|432:239|422:201,1,160,4|0,0:0|1:0,0:0:0:0:
352,93,192357,2,0,L|393:90,1,40,0|0,1:0|1:0,0:0:0:0:
431,85,192579,6,0,B|424:25|369:-6|313:8|285:47|285:47|161:56|161:56|121:43|121:43|160:150|81:130|68:261|163:285,1,640,0|0,1:0|0:0,0:0:0:0:
264,213,194579,6,0,L|173:204,1,80,4|0,1:2|0:0,0:0:0:0:
162,284,195024,2,0,L|322:299,1,160,8|0,0:0|1:0,0:0:0:0:
400,310,195690,1,0,0:0:0:0:
471,346,195913,2,0,P|479:307|464:264,1,80,8|0,0:0|1:0,0:0:0:0:
441,238,196246,1,0,1:0:0:0:
441,238,196357,6,0,P|436:192|448:149,2,80,0|0|8,1:0|0:0|0:0,0:0:0:0:
400,310,197024,1,0,0:0:0:0:
321,298,197246,2,0,P|302:221|238:178,1,160,6|2,0:0|0:0,0:0:0:0:
162,203,197913,1,0,1:0:0:0:
162,203,198024,1,0,1:0:0:0:
162,203,198135,6,0,P|153:244|160:287,1,80,8|0,0:0|0:0,0:0:0:0:
237,177,198579,2,0,P|243:136|233:92,1,80,10|0,0:0|0:0,0:0:0:0:
235,100,199913,6,0,B|281:104|307:77|307:77|332:110|381:105,1,160,4|8,0:0|0:0,0:0:0:0:
372,25,200579,1,8,0:0:0:0:
372,25,200690,1,8,0:0:0:0:
372,25,200801,2,0,L|419:22,3,40,8|0|0|0,0:0|0:0|0:0|0:0,0:0:0:0:
446,42,201246,2,0,P|468:79|468:124,1,80,8|0,0:0|1:0,0:0:0:0:
455,152,201579,1,0,1:0:0:0:
455,152,201690,6,0,P|427:235|454:314,1,160,4|8,1:2|0:0,0:0:0:0:
374,337,202357,1,2,1:2:0:0:
374,337,202468,1,0,1:0:0:0:
374,337,202579,2,0,P|330:330|287:333,1,80,2|2,1:2|0:0,0:0:0:0:
236,276,203024,2,0,P|195:283|150:280,1,80,10|0,0:0|0:0,0:0:0:0:
96,333,203468,6,0,L|115:172,1,160,2|8,0:0|0:0,0:0:0:0:
123,94,204135,1,2,1:2:0:0:
123,94,204246,1,0,1:0:0:0:
123,94,204357,2,0,L|129:45,2,40,0|0|2,1:0|0:0|0:0,0:0:0:0:
186,143,204801,2,0,L|271:134,1,80,8|2,0:0|0:0,0:0:0:0:
357,93,205246,6,0,B|379:173|334:177|355:253,1,160,4|8,0:0|0:0,0:0:0:0:
512,219,205913,2,0,P|476:182|477:251,1,160,4|8,0:0|0:0,0:0:0:0:
291,132,206801,1,4,0:0:0:0:
291,132,207246,5,4,0:0:0:0:
370,93,207468,1,8,0:0:0:0:
224,69,207690,1,10,0:0:0:0:
279,217,207913,2,0,L|273:260,3,40,8|0|10|0,0:0|0:0|0:0|0:0,0:0:0:0:
246,286,208357,2,0,P|210:295|146:287,1,80,10|10,0:0|0:0,0:0:0:0:
128,285,208690,1,8,0:0:0:0:
128,285,208801,6,0,L|116:198,1,80,6|0,0:0|0:0,0:0:0:0:
55,86,209246,2,0,P|96:98|150:92,1,80,8|0,0:0|1:0,0:0:0:0:
170,84,209579,1,0,1:0:0:0:
170,84,209690,2,0,P|222:67|260:68,1,80,2|0,1:2|0:0,0:0:0:0:
344,172,210135,1,8,0:0:0:0:
325,94,210357,1,0,0:0:0:0:
426,189,210579,6,0,P|421:237|398:353,1,160,2|8,0:0|0:0,0:0:0:0:
307,293,211246,1,0,1:0:0:0:
307,293,211357,1,0,1:0:0:0:
307,293,211468,2,0,L|268:286,2,40,2|0|0,1:2|0:0|0:0,0:0:0:0:
206,343,211913,2,0,P|162:351|113:348,1,80,8|0,0:0|0:0,0:0:0:0:
70,216,212357,6,0,P|151:202|240:209,1,160,6|8,0:0|0:0,0:0:0:0:
164,157,213024,1,0,1:0:0:0:
164,157,213135,1,0,1:0:0:0:
164,157,213246,2,0,P|161:101|166:67,1,80,2|0,1:2|0:0,0:0:0:0:
322,103,213690,1,8,1:2:0:0:
394,64,213913,1,0,1:2:0:0:
455,176,214135,6,0,B|411:176|392:149|392:149|417:108|394:63,1,160,2|8,0:0|0:0,0:0:0:0:
251,137,214801,1,0,1:0:0:0:
251,137,214913,1,0,1:0:0:0:
251,137,215024,2,0,P|263:161|281:177,2,40,2|0|0,1:2|0:0|0:0,0:0:0:0:
248,53,215468,2,0,P|208:61|177:92,1,80,8|0,0:0|1:0,0:0:0:0:
165,124,215801,1,2,1:2:0:0:
165,124,215913,6,0,B|120:133|88:115|88:115|113:144|101:192,1,160,6|8,1:2|0:0,0:0:0:0:
59,277,216579,1,0,1:0:0:0:
59,277,216690,1,0,1:0:0:0:
59,277,216801,2,0,L|150:269,1,80,2|0,1:2|0:0,0:0:0:0:
239,375,217246,1,8,0:0:0:0:
216,298,217468,1,0,0:0:0:0:
268,235,217690,6,0,L|268:187,2,40,2|0|0,0:0|0:0|0:0,0:0:0:0:
356,335,218135,2,0,P|395:323|449:317,1,80,8|8,0:0|0:0,0:0:0:0:
473,320,218468,1,8,0:0:0:0:
473,320,218579,2,0,P|463:280|465:238,1,80,2|8,1:2|0:0,0:0:0:0:
468,201,218913,1,8,0:0:0:0:
468,201,219024,2,0,P|472:154|469:110,1,80,8|8,0:0|0:0,0:0:0:0:
462,82,219357,1,8,0:0:0:0:
462,82,219468,6,0,B|412:59|412:59|293:67,1,160,4|0,1:2|1:0,0:0:0:0:
262,132,220135,1,0,0:0:0:0:
346,221,220357,2,0,P|348:181|335:136,1,80,0|0,1:0|0:0,0:0:0:0:
195,168,220801,2,0,P|201:210|220:244,1,80,0|0,1:0|1:0,0:0:0:0:
250,267,221135,1,0,1:0:0:0:
250,267,221246,6,0,P|197:290|96:280,1,160,6|0,1:2|1:0,0:0:0:0:
49,216,221913,1,0,1:0:0:0:
49,216,222024,1,0,1:0:0:0:
49,216,222135,2,0,L|51:132,1,80,0|0,1:2|0:0,0:0:0:0:
94,61,222579,2,0,P|133:66|173:59,1,80,0|0,1:0|1:0,0:0:0:0:
211,47,222913,1,0,1:0:0:0:
248,32,223024,6,0,B|339:15|313:75|403:62,1,160,4|0,1:2|1:0,0:0:0:0:
475,33,223690,1,0,0:0:0:0:
414,142,223913,1,0,1:0:0:0:
399,62,224135,1,0,0:0:0:0:
344,190,224357,1,8,0:0:0:0:
491,175,224579,1,8,0:0:0:0:
262,163,224801,6,0,P|183:143|127:204,1,160,4|0,1:2|1:0,0:0:0:0:
205,220,225468,1,0,1:0:0:0:
54,166,225690,2,0,P|54:213|74:248,1,80,0|0,1:0|1:0,0:0:0:0:
205,220,226135,2,0,L|203:172,3,40,8|8|8|8,0:0|0:0|0:0|0:0,0:0:0:0:
210,257,226579,6,0,L|371:242,1,160,6|8,0:0|0:0,0:0:0:0:
453,327,227246,1,0,1:0:0:0:
453,327,227357,1,0,1:0:0:0:
453,327,227468,2,0,P|463:280|462:243,1,80,2|0,1:2|0:0,0:0:0:0:
359,163,227913,2,0,P|361:210|372:250,1,80,8|0,0:0|0:0,0:0:0:0:
438,89,228357,6,0,P|381:58|278:92,1,160,6|8,0:0|0:0,0:0:0:0:
208,165,229024,1,0,1:0:0:0:
208,165,229135,1,0,1:0:0:0:
208,165,229246,2,0,L|208:77,1,80,2|0,1:2|0:0,0:0:0:0:
77,77,229690,2,0,L|65:169,1,80,8|0,0:0|1:0,0:0:0:0:
63,196,230024,1,0,1:0:0:0:
63,196,230135,6,0,P|75:245|170:290,1,160,2|10,1:2|0:0,0:0:0:0:
258,149,230801,2,0,P|217:152|175:182,1,80,4|2,0:0|1:2,0:0:0:0:
157,202,231135,1,0,1:0:0:0:
157,202,231246,1,0,1:0:0:0:
254,290,231468,1,8,0:0:0:0:
258,149,231690,6,0,B|344:189|328:122|415:165,1,160,4|0,0:0|0:0,0:0:0:0:
372,354,232357,2,0,L|367:273,1,80,8|2,0:0|1:2,0:0:0:0:
363,234,232690,1,0,1:0:0:0:
363,234,232801,1,2,1:2:0:0:
486,202,233024,1,8,0:0:0:0:
414,124,233246,2,0,L|420:70,2,40,8|0|0,1:2|1:2|1:2,0:0:0:0:
411,163,233579,1,0,1:2:0:0:
411,163,233690,6,0,B|327:121|343:188|257:148,1,160,6|8,0:0|0:0,0:0:0:0:
216,60,234357,1,0,1:0:0:0:
216,60,234468,1,0,1:0:0:0:
216,60,234579,2,0,P|164:53|133:62,1,80,2|0,1:2|0:0,0:0:0:0:
140,187,235024,1,8,0:0:0:0:
70,127,235246,1,0,0:0:0:0:
96,264,235468,6,0,B|139:281|171:267|171:267|166:285|166:285|202:270|244:291,1,160,4|8,0:0|0:0,0:0:0:0:
363,348,236135,2,0,L|378:183,1,160,4|12,0:0|0:0,0:0:0:0:
377,188,237024,1,0,0:0:0:0:
305,152,237246,6,0,P|363:108|441:140,1,160,2|8,0:0|0:0,0:0:0:0:
377,188,237913,1,0,0:0:0:0:
233,192,238135,2,0,B|216:150|234:112|234:112|205:144|163:137,1,160,2|8,0:0|0:0,0:0:0:0:
171,57,238801,1,0,0:0:0:0:
151,218,239024,6,0,P|133:168|76:226,1,160,2|8,0:0|0:0,0:0:0:0:
114,285,239690,1,0,0:0:0:0:
258,335,239913,2,0,L|426:319,1,160,2|8,0:0|0:0,0:0:0:0:
496,313,240579,1,0,0:0:0:0:
346,282,240801,6,0,P|350:205|385:118,1,160,6|8,0:0|0:0,0:0:0:0:
455,102,241468,1,0,0:0:0:0:
322,74,241690,2,0,P|395:52|454:101,1,160,2|8,0:0|0:0,0:0:0:0:
379,128,242357,1,0,0:0:0:0:
242,100,242579,6,0,B|233:74|244:44|244:44|193:70|140:50,1,160,2|8,0:0|0:0,0:0:0:0:
66,32,243246,1,0,0:0:0:0:
140,134,243468,2,0,L|133:219,1,80,2|0,0:0|0:0,0:0:0:0:
60,331,243913,1,8,0:0:0:0:
60,251,244135,1,0,0:0:0:0:
202,261,244357,6,0,B|280:298|277:232|356:275,1,160,2|8,0:0|0:0,0:0:0:0:
311,341,245024,1,0,0:0:0:0:
243,189,245246,2,0,B|254:69|254:69|267:91|288:108,1,160,2|8,0:0|0:0,0:0:0:0:
329,37,245913,1,0,0:0:0:0:
335,162,246135,6,0,B|426:205|410:136|498:177,1,160,6|8,0:0|0:0,0:0:0:0:
483,315,246801,2,0,P|486:266|441:320,1,160,6|0,0:0|1:0,0:0:0:0:
449,340,247357,1,0,1:0:0:0:
449,340,247468,2,0,P|407:334|363:342,1,80,8|0,1:2|0:0,0:0:0:0:
191,294,247913,6,0,B|241:285|304:290|304:290|289:308|289:338,1,160,6|8,0:0|0:0,0:0:0:0:
370,339,248579,1,0,0:0:0:0:
143,365,248801,2,0,P|106:294|137:226,1,160,2|8,0:0|0:0,0:0:0:0:
191,294,249468,1,0,0:0:0:0:
212,179,249690,6,0,B|242:102|186:106|219:21,1,160,2|8,0:0|0:0,0:0:0:0:
284,68,250357,1,0,0:0:0:0:
139,140,250579,2,0,L|38:129,1,80,2|0,0:0|0:0,0:0:0:0:
84,256,251024,2,0,L|168:247,1,80,8|0,0:0|1:0,0:0:0:0:
203,245,251357,1,0,1:0:0:0:
203,245,251468,6,0,B|228:275|230:319|230:319|253:283|298:283,1,160,2|8,1:2|0:0,0:0:0:0:
372,309,252135,1,0,0:0:0:0:
300,205,252357,2,0,P|305:166|326:123,1,80,2|0,0:0|0:0,0:0:0:0:
456,227,252801,2,0,P|416:220|370:231,1,80,8|0,0:0|0:0,0:0:0:0:
321,129,253246,5,6,0:0:0:0:
321,129,253468,2,0,L|153:117,1,160,2|4,0:0|0:0,0:0:0:0:
74,232,254135,2,0,L|62:140,1,80,2|2,0:0|1:2,0:0:0:0:
58,113,254468,1,0,1:0:0:0:
58,113,254579,2,0,L|48:32,1,80,10|0,1:2|0:0,0:0:0:0:
213,38,255024,5,6,0:0:0:0:
213,38,255246,2,0,L|295:45,1,80,2|8,0:0|0:0,0:0:0:0:
469,78,255690,2,0,P|400:77|351:150,1,160,6|0,0:0|0:0,0:0:0:0:
388,264,256357,1,8,0:0:0:0:
437,152,256579,1,0,0:0:0:0:
284,193,256801,5,6,0:0:0:0:
284,193,257024,2,0,P|241:201|198:195,1,80,2|8,0:0|0:0,0:0:0:0:
94,105,257468,2,0,P|124:174|86:248,1,160,6|0,0:0|0:0,0:0:0:0:
16,69,258135,1,8,0:0:0:0:
86,22,258357,1,0,0:0:0:0:
169,63,258579,5,8,0:0:0:0:
295,114,258801,1,8,0:0:0:0:
403,57,259024,1,8,0:0:0:0:
403,57,259246,5,14,0:0:0:0:
403,57,259690,1,14,0:0:0:0:
256,192,259801,12,0,264135,0:0:0:0:
