osu file format v14

[General]
AudioFilename: audio.mp3
AudioLeadIn: 0
PreviewTime: 54391
Countdown: 0
SampleSet: Normal
StackLeniency: 0.4
Mode: 0
LetterboxInBreaks: 0
WidescreenStoryboard: 1

[Editor]
Bookmarks: 23369,54732,90187,99732,101096,121550,157005,170641,181550,192460,217687,239505
DistanceSpacing: 1.1
BeatDivisor: 4
GridSize: 32
TimelineZoom: 1.9

[Metadata]
Title:Last Dance
TitleUnicode:ラストダンス
Artist:Rib
ArtistUnicode:りぶ
Creator:Haruto
Version:Groove
Source:
Tags:eve おとぎ otogi waboku satomi tena numa utaite cover
BeatmapID:1889698
BeatmapSetID:905354

[Difficulty]
HPDrainRate:6
CircleSize:4.2
OverallDifficulty:8.7
ApproachRate:9.3
SliderMultiplier:1.78
SliderTickRate:1

[Events]
//Background and Video events
0,0,"98f67ed4-f8b5-4fc2-8e48-5006896993f6.jpg",0,0
//Break Periods
2,170671,180980
//Storyboard Layer 0 (Background)
//Storyboard Layer 1 (Fail)
//Storyboard Layer 2 (Pass)
//Storyboard Layer 3 (Foreground)
//Storyboard Layer 4 (Overlay)
//Storyboard Sound Samples

[TimingPoints]
1532,341.880341880342,4,2,1,60,1,0
10931,342.857142857143,4,2,1,60,1,0
11783,342.857142857143,4,2,1,60,1,0
11783,-384.615384615385,4,2,1,60,0,0
12125,-384.615384615385,4,2,1,5,0,0
12383,-384.615384615385,4,2,1,15,0,0
12460,340.909090909091,4,1,1,60,1,0
23369,-156.25,4,2,1,60,0,0
28823,-119.047619047619,4,2,1,60,0,0
29335,-80.6451612903226,4,2,1,60,0,0
29846,-135.135135135135,4,2,1,60,0,0
30698,-96.1538461538461,4,2,1,60,0,0
31210,-156.25,4,2,1,60,0,0
32573,-96.1538461538461,4,2,1,60,0,0
32914,-60.9756097560976,4,2,1,60,0,0
33937,-80.6451612903226,4,2,1,60,0,0
34278,-100,4,2,1,60,0,0
45187,-113.636363636364,4,2,1,60,0,0
49278,-172.413793103449,4,2,1,60,0,0
49789,-128.205128205129,4,2,1,60,0,0
50300,-102.040816326531,4,2,1,60,0,0
50641,-78.1250000000002,4,2,1,60,0,0
51323,-67.5675675675676,4,2,1,60,0,0
54732,-96.1538461538461,4,1,1,60,0,1
76550,-625,4,2,1,60,0,0
77744,-625,4,2,1,10,0,0
77914,-277.777777777778,4,2,1,60,0,0
78766,-277.777777777778,4,2,1,10,0,0
78937,-96.1538461538461,4,2,1,60,0,0
79278,-100,4,2,1,60,0,0
88653,-178.571428571429,4,2,1,60,0,0
89505,-555.555555555556,4,2,1,60,0,0
90187,-72.463768115942,4,2,1,60,0,0
90528,-156.25,4,2,1,60,0,0
91891,-80.6451612903226,4,2,1,60,0,0
92914,-72.463768115942,4,2,1,60,0,0
93425,-156.25,4,2,1,60,0,0
94789,-80.6451612903226,4,2,1,60,0,0
95130,-172.413793103448,4,2,1,60,0,0
95641,-72.463768115942,4,2,1,60,0,0
96153,-156.25,4,2,1,60,0,0
97346,-80.6451612903226,4,2,1,60,0,0
98369,-72.463768115942,4,2,1,60,0,0
98880,-161.290322580645,4,2,1,60,0,0
99732,-135.135135135135,4,2,1,60,0,0
101096,-192.307692307692,4,2,1,60,0,0
112005,-113.636363636364,4,2,1,60,0,0
115244,-84.7457627118646,4,2,1,60,0,0
116096,-147.058823529412,4,2,1,60,0,0
116607,-113.636363636364,4,2,1,60,0,0
117119,-92.5925925925926,4,2,1,60,0,0
117630,-78.125,4,2,1,60,0,0
118141,-67.5675675675676,4,2,1,60,0,0
120869,-78.125,4,2,1,60,0,0
121550,-94.3396226415094,4,1,1,60,0,1
143369,-178.571428571429,4,2,1,60,0,0
146096,-116.279069767442,4,2,1,60,0,0
146607,-277.777777777779,4,2,1,60,0,0
147119,-625.000000000004,4,2,1,60,0,0
151550,-106.382978723404,4,2,1,60,0,0
152062,-185.185185185185,4,2,1,60,0,0
152573,-714.285714285714,4,2,1,60,0,0
157005,-100,4,2,1,70,0,1
157346,-100,4,2,1,70,0,0
181550,-416.666666666667,4,2,1,70,0,0
182914,-294.117647058824,4,2,1,70,0,0
184278,-277.777777777778,4,2,1,70,0,0
185641,-178.571428571429,4,2,1,70,0,0
187005,-138.888888888889,4,2,1,70,0,0
191948,-98.0392156862746,4,2,1,70,0,0
192460,-94.3396226415094,4,1,1,60,0,1
214278,-384.615384615385,4,2,1,60,0,0
215641,-217.391304347826,4,2,1,60,0,0
216664,-94.3396226415094,4,2,1,60,0,0
217005,-625,4,2,1,60,0,0
217687,-100,4,2,1,60,0,0
223653,-76.9230769230769,4,2,1,60,0,0
224164,-100,4,2,1,60,0,0
227062,-83.3333333333333,4,2,1,60,0,0
227403,-71.4285714285714,4,2,1,60,0,0
227744,-68.9655172413793,4,2,1,60,0,0
228596,-138.888888888889,4,2,1,60,0,0
239164,-75.7575757575758,4,2,1,60,0,0
239505,-75.7575757575758,4,2,1,5,0,0

[Colours]
Combo1 : 119,158,187
Combo2 : 121,196,151
Combo3 : 239,247,106
Combo4 : 187,141,140

[HitObjects]
57,168,1532,6,0,P|113:101|206:112,1,178,2|0,0:0|0:0,0:0:0:0:
78,280,2044,1,2,0:0:0:0:
78,280,2130,1,2,0:0:0:0:
78,280,2215,1,2,0:0:0:0:
187,363,2386,1,2,0:0:0:0:
169,271,2557,1,0,0:0:0:0:
169,271,2728,6,0,L|149:180,1,89,2|0,0:0|0:0,0:0:0:0:
11,343,3070,2,0,P|47:367|91:369,1,89,2|0,0:0|0:0,0:0:0:0:
256,298,3412,6,0,B|308:293|337:329|337:329|368:368|412:364,1,178,2|2,0:0|0:0,0:0:0:0:
504,379,3925,1,0,0:0:0:0:
391,153,4096,1,2,0:0:0:0:
504,379,4267,6,0,L|459:173,1,178,2|2,0:0|0:0,0:0:0:0:
391,153,4779,1,2,0:0:0:0:
391,153,4865,1,2,0:0:0:0:
391,153,4950,2,0,P|375:204|384:249,1,89,2|2,0:0|0:0,0:0:0:0:
512,123,5292,1,0,0:0:0:0:
435,67,5463,6,0,L|348:48,1,89,2|0,0:0|0:0,0:0:0:0:
269,109,5805,2,0,L|182:90,1,89,2|0,0:0|0:0,0:0:0:0:
95,71,6147,1,2,0:0:0:0:
248,243,6318,2,0,P|192:176|99:187,1,178,2|0,0:0|0:0,0:0:0:0:
33,245,6831,1,2,0:0:0:0:
238,336,7002,6,0,B|286:343|316:305|316:305|348:267|395:273,1,178,2|2,0:0|0:0,0:0:0:0:
491,312,7514,1,2,0:0:0:0:
491,312,7600,1,2,0:0:0:0:
491,312,7685,1,2,0:0:0:0:
335,102,7856,2,0,L|353:188,1,89,2|0,0:0|0:0,0:0:0:0:
395,273,8198,6,0,P|433:236|441:188,1,89,2|0,0:0|0:0,0:0:0:0:
306,16,8540,2,0,P|253:24|219:59,1,89,2|0,0:0|0:0,0:0:0:0:
353,188,8882,6,0,L|155:230,1,178,2|2,0:0|0:0,0:0:0:0:
20,350,9395,1,0,0:0:0:0:
179,225,9566,1,2,0:0:0:0:
102,378,9737,6,0,P|123:289|69:221,1,178,2|0,0:0|0:0,0:0:0:0:
0,168,10249,1,2,0:0:0:0:
179,225,10420,6,0,L|197:138,1,89,2|0,0:0|0:0,0:0:0:0:
218,43,10762,1,2,0:0:0:0:
395,273,10931,5,2,0:0:0:0:
197,138,11273,1,2,0:0:0:0:
412,34,11616,1,2,0:0:0:0:
361,112,11783,6,0,P|351:138|355:194,1,80.9899995056763,2|0,0:0|0:0,0:0:0:0:
395,273,12460,6,0,L|203:314,1,178,4|0,0:0|3:0,0:0:0:0:
448,193,12971,1,0,0:0:0:0:
139,357,13141,2,0,P|129:330|137:270,1,89,2|0,0:0|0:0,0:0:0:0:
237,38,13482,1,10,0:0:0:0:
217,216,13653,6,0,P|227:173|215:130,1,89,2|0,0:2|3:0,0:0:0:0:
148,68,13994,1,0,3:0:0:0:
148,68,14079,1,8,3:1:0:0:
148,68,14164,1,8,0:0:0:0:
312,175,14335,6,0,L|416:152,1,89,2|0,3:2|0:0,0:0:0:0:
473,86,14675,1,0,0:0:0:0:
313,264,14846,1,8,0:0:0:0:
237,38,15016,1,0,0:0:0:0:
488,229,15187,6,0,L|313:265,1,178,0|8,0:0|0:0,0:0:0:0:
221,285,15698,1,0,0:0:0:0:
419,368,15869,2,0,P|423:322|393:269,1,89
129,310,16210,1,8,0:0:0:0:
199,373,16380,6,0,P|245:377|298:347,1,89
251,196,16721,1,0,3:0:0:0:
251,196,16806,1,8,0:0:0:0:
251,196,16891,1,8,0:0:0:0:
177,130,17062,1,0,0:0:0:0:
283,360,17232,5,8,0:0:0:0:
381,60,17403,1,8,0:0:0:0:
383,73,17488,1,8,0:0:0:0:
386,86,17573,1,8,0:0:0:0:
389,99,17658,1,8,0:0:0:0:
393,116,17743,1,8,0:0:0:0:
399,142,17829,1,8,0:0:0:0:
406,176,17914,6,0,B|359:181|331:143|331:143|302:105|250:110,1,178,4|0,0:0|0:0,0:0:0:0:
0,326,18425,2,0,B|52:331|81:293|81:293|109:255|156:260,1,178,4|0,0:2|0:0,0:0:0:0:
243,212,18937,2,0,P|257:253|250:306,1,89,8|8,0:0|0:0,0:0:0:0:
245,321,19192,1,8,0:0:0:0:
238,342,19278,5,0,3:0:0:0:
159,156,19448,1,0,3:0:0:0:
159,156,19533,1,0,3:0:0:0:
159,156,19619,1,8,0:0:0:0:
343,221,19789,2,0,P|390:228|477:130,1,178
268,25,20300,1,8,0:0:0:0:
382,133,20471,1,0,0:0:0:0:
343,221,20641,6,0,L|168:257,1,178,0|8,0:0|0:0,0:0:0:0:
77,280,21153,1,0,0:0:0:0:
192,83,21323,2,0,P|166:131|168:181,1,89
277,329,21664,1,8,0:0:0:0:
382,133,21835,5,4,0:0:0:0:
77,280,22175,5,4,0:2:0:0:
145,0,22516,5,4,0:0:0:0:
264,148,22687,1,0,0:0:0:0:
264,148,22857,1,4,3:2:0:0:
0,343,23028,1,8,0:0:0:0:
0,343,23369,6,0,P|48:303|110:308,1,113.92,4|2,0:0|0:0,0:0:0:0:
181,342,23880,1,0,0:0:0:0:
254,288,24050,2,0,L|242:232,2,56.96,0|2|2,0:0|0:0|0:0,0:0:0:0:
128,119,24732,5,2,0:0:0:0:
215,146,24903,1,2,0:0:0:0:
288,92,25073,1,0,0:0:0:0:
375,119,25244,2,0,P|415:167|410:229,1,113.92,2|0,0:0|0:0,0:0:0:0:
500,318,25755,2,0,L|444:306,1,56.96,2|0,0:0|0:0,0:0:0:0:
354,290,26096,6,0,B|323:286|304:311|304:311|285:336|254:333,1,113.92,2|2,3:2|0:0,0:0:0:0:
164,315,26607,1,0,0:0:0:0:
113,239,26778,2,0,L|101:183,2,56.96,0|2|2,0:0|0:0|0:0,0:0:0:0:
38,31,27460,5,0,0:0:0:0:
106,92,27630,1,0,0:0:0:0:
197,87,27800,1,0,0:0:0:0:
257,19,27971,1,0,0:0:0:0:
257,19,28056,1,0,0:0:0:0:
257,19,28141,2,0,P|288:58|291:84,1,56.96
195,231,28482,2,0,P|219:180|260:160,1,85.44
264,160,28823,6,0,L|336:175,1,74.7599977185059
414,233,29164,1,0,0:0:0:0:
407,65,29335,6,0,P|368:144|325:289,1,220.719991243409
312,366,29846,2,0,P|368:360|390:344,1,65.8600016079102
242,165,30187,1,0,0:0:0:0:
143,375,30357,1,0,0:0:0:0:
218,318,30528,1,0,0:0:0:0:
130,281,30698,6,0,L|91:99,1,185.119998870117
65,9,31210,2,0,P|18:40|10:64,1,56.96
130,281,31550,5,0,0:0:0:0:
218,318,31721,1,0,0:0:0:0:
306,281,31891,1,0,0:0:0:0:
341,193,32062,2,0,P|352:137|336:83,1,113.92
497,244,32573,6,0,L|380:268,1,92.5599994350586
212,197,32914,6,0,L|258:206,1,36.4900005567932
42,318,33255,5,0,0:0:0:0:
42,318,33766,1,6,0:0:0:0:
111,128,33937,6,0,P|93:196|133:284,1,165.539993432556,8|0,0:0|0:0,0:0:0:0:
209,311,34278,6,0,L|296:292,1,89,4|0,0:0|0:0,0:0:0:0:
457,193,34619,1,8,0:0:0:0:
394,57,34789,6,0,P|342:107|360:216,1,178,0|2,3:0|0:3,0:0:0:0:
401,377,35300,2,0,P|414:321|391:266,1,89,8|0,0:0|0:0,0:0:0:0:
307,122,35641,1,0,3:0:0:0:
221,171,35812,1,0,3:0:0:0:
221,171,35897,1,0,3:0:0:0:
221,171,35982,1,8,0:0:0:0:
226,76,36153,6,0,L|47:36,1,178,0|2,3:0|0:3,0:0:0:0:
221,171,36664,2,0,L|95:143,1,89,8|0,0:0|0:0,0:0:0:0:
48,209,37005,6,0,P|30:249|92:358,1,178,0|8,3:0|0:0,0:0:0:0:
348,270,37516,2,0,P|364:185|306:121,1,178,0|0,3:0|0:0,0:0:0:0:
228,260,38028,2,0,L|200:385,1,89,8|0,0:0|0:0,0:0:0:0:
134,152,38369,5,0,3:0:0:0:
228,260,38539,1,0,3:0:0:0:
228,260,38624,1,0,3:0:0:0:
228,260,38710,1,8,0:0:0:0:
307,204,38880,6,0,B|360:200|387:238|387:238|415:278|465:273,1,178,0|2,3:2|0:3,0:0:0:0:
312,384,39391,2,0,P|303:331|320:287,1,89,8|0,0:0|0:0,0:0:0:0:
461,179,39732,6,0,P|478:113|411:31,1,178,0|8,3:0|0:0,0:0:0:0:
267,233,40244,2,0,P|325:198|336:92,1,178,0|2,3:0|0:3,0:0:0:0:
256,43,40755,2,0,L|169:62,1,89,8|0,0:0|0:0,0:0:0:0:
267,233,41096,5,0,3:0:0:0:
252,136,41266,1,0,3:0:0:0:
252,136,41352,1,0,3:0:0:0:
252,136,41437,1,8,0:0:0:0:
20,264,41607,2,0,B|66:268|94:228|94:228|121:190|174:194,1,178,0|2,3:0|0:3,0:0:0:0:
267,233,42119,2,0,P|288:278|279:328,1,89,8|0,0:0|0:0,0:0:0:0:
195,379,42460,6,0,L|385:336,1,178,0|8,3:0|0:0,0:0:0:0:
252,136,42971,2,0,L|442:178,1,178,0|2,3:0|0:3,0:0:0:0:
282,256,43482,2,0,L|195:236,1,89,8|0,0:0|0:0,0:0:0:0:
38,60,43823,5,0,3:0:0:0:
139,140,43994,1,0,3:0:0:0:
139,140,44079,1,0,3:0:0:0:
139,140,44164,1,8,0:0:0:0:
41,358,44335,1,0,3:0:0:0:
34,260,44505,2,0,P|87:268|127:311,1,89,8|0,0:0|3:0,0:0:0:0:
186,353,44846,1,8,0:0:0:0:
371,199,45016,1,8,0:0:0:0:
371,199,45102,1,8,0:0:0:0:
371,198,45187,6,0,P|353:124|289:82,1,156.640004780274,4|8,0:0|0:0,0:0:0:0:
113,288,45698,2,0,P|131:214|195:172,1,156.640004780274
276,222,46210,2,0,L|295:308,1,78.3200023901368,8|0,0:0|0:0,0:0:0:0:
158,81,46550,5,2,3:2:0:0:
158,81,46721,1,0,0:0:0:0:
276,222,46891,1,8,0:0:0:0:
343,150,47062,2,0,L|362:63,1,78.3200023901368,0|0,3:0|0:0,0:0:0:0:
447,313,47403,1,0,3:0:0:0:
443,217,47573,2,0,P|398:229|361:264,1,78.3200023901368,8|0,0:0|0:0,0:0:0:0:
225,375,47914,5,4,3:0:0:0:
276,222,48085,1,2,0:0:0:0:
364,364,48255,1,8,0:0:0:0:
149,308,48425,2,0,P|114:239|128:163,1,156.640004780274,0|0,3:0|3:0,0:0:0:0:
397,33,48937,1,8,0:0:0:0:
397,33,49278,6,0,B|353:61|353:61|290:51,1,103.240003150635,0|8,3:0|0:0,0:0:0:0:
127,163,49789,6,0,P|154:85|223:51,1,138.840004660767,0|8,3:0|0:0,0:0:0:0:
439,119,50300,6,0,L|278:154,1,130.829998802216,0|0,3:0|0:0,0:0:0:0:
288,152,50641,1,0,3:0:0:0:
410,320,50812,6,0,B|342:325|308:276|308:276|272:225|213:231,1,227.84,8|0,0:0|3:0,0:0:0:0:
301,52,51323,6,0,B|222:46|182:102|182:102|141:161|72:154,1,263.440006431641,8|0,0:0|3:0,0:0:0:0:
2,94,51835,1,8,0:0:0:0:
248,164,52005,5,4,0:1:0:0:
248,164,52175,1,0,3:0:0:0:
2,94,52346,1,8,0:0:0:0:
340,173,52516,5,4,0:1:0:0:
340,173,52686,1,0,3:1:0:0:
72,160,52857,1,0,3:0:0:0:
422,223,53028,5,12,0:1:0:0:
422,223,53198,1,0,3:0:0:0:
160,189,53369,1,0,3:0:0:0:
450,319,53539,5,12,0:1:0:0:
512,251,53710,1,8,0:0:0:0:
512,218,53795,1,8,0:0:0:0:
510,186,53880,1,8,0:0:0:0:
493,158,53965,1,8,0:0:0:0:
467,137,54050,2,0,L|402:150,1,65.8600016079102,8|0,0:0|0:0,0:0:0:0:
80,252,54221,5,4,3:2:0:0:
80,252,54732,6,0,P|143:254|214:160,1,185.119998870117,4|8,0:0|0:0,0:0:0:0:
18,0,55244,2,0,B|66:-4|97:36|97:36|128:76|179:72,1,185.119998870117,0|0,3:0|3:0,0:0:0:0:
277,87,55755,2,0,L|372:67,1,92.5599994350586,8|0,0:0|0:0,0:0:0:0:
114,154,56096,5,0,3:0:0:0:
287,310,56266,1,0,3:0:0:0:
287,310,56352,1,0,3:0:0:0:
287,310,56437,1,8,0:0:0:0:
213,165,56607,2,0,P|199:220|213:272,1,92.5599994350586,2|0,0:2|0:0,0:0:0:0:
461,340,56948,1,0,3:0:0:0:
377,291,57119,2,0,L|286:309,1,92.5599994350586,8|0,0:0|0:0,0:0:0:0:
462,242,57460,6,0,P|476:182|399:88,1,185.119998870117,0|8,0:0|0:0,0:0:0:0:
229,157,57971,2,0,P|215:217|292:311,1,185.119998870117
328,151,58482,2,0,L|305:57,1,92.5599994350586,8|0,0:0|0:0,0:0:0:0:
96,268,58823,5,0,0:0:0:0:
23,80,58994,1,0,0:0:0:0:
23,80,59079,1,0,0:0:0:0:
23,80,59164,1,8,0:0:0:0:
139,178,59335,2,0,L|233:155,1,92.5599994350586
2,287,59675,1,0,0:0:0:0:
75,354,59846,2,0,P|96:313|95:267,1,92.5599994350586,8|0,0:0|0:0,0:0:0:0:
23,80,60187,6,0,B|93:60|93:60|127:69|127:69|201:48,1,185.119998870117,4|8,0:0|0:0,0:0:0:0:
482,108,60698,2,0,B|407:87|407:87|373:96|373:96|303:76,1,185.119998870117
228,156,61210,2,0,P|209:199|210:244,1,92.5599994350586,8|0,0:0|0:0,0:0:0:0:
461,333,61550,5,0,0:0:0:0:
315,218,61721,1,0,0:0:0:0:
315,218,61806,1,0,0:0:0:0:
315,218,61891,1,8,0:0:0:0:
198,339,62062,2,0,L|288:318,1,92.5599994350586
45,160,62403,1,0,0:0:0:0:
209,243,62573,2,0,L|119:221,1,92.5599994350586,8|0,0:0|0:0,0:0:0:0:
33,40,62914,6,0,B|149:67|149:67|162:101|137:131,1,185.119998870117,0|8,0:0|0:0,0:0:0:0:
15,346,63425,2,0,P|47:249|152:226,1,185.119998870117,4|0,0:0|0:0,0:0:0:0:
209,243,63937,1,0,0:0:0:0:
326,126,64107,6,0,L|236:147,1,92.5599994350586,4|0,0:0|0:0,0:0:0:0:
139,316,64448,1,0,0:0:0:0:
33,40,64619,1,8,0:0:0:0:
209,243,64789,1,0,0:0:0:0:
343,35,64960,1,8,0:0:0:0:
419,136,65130,5,8,0:0:0:0:
440,159,65215,1,8,0:0:0:0:
453,189,65300,1,8,0:0:0:0:
455,221,65385,1,8,0:0:0:0:
447,252,65471,2,0,L|375:234,1,46.2799997175293,8|0,0:0|0:0,0:0:0:0:
188,384,65641,6,0,B|304:357|304:357|317:323|292:297,1,185.119998870117,4|8,0:0|0:0,0:0:0:0:
185,79,66153,2,0,P|161:166|208:242,1,185.119998870117
295,196,66664,1,8,0:0:0:0:
101,13,66835,1,0,0:0:0:0:
42,274,67005,5,0,0:0:0:0:
118,208,67175,1,0,0:0:0:0:
118,208,67261,1,0,0:0:0:0:
118,208,67346,1,8,0:0:0:0:
0,89,67516,2,0,L|24:188,1,92.5599994350586
11,367,67857,1,0,0:0:0:0:
208,242,68028,2,0,L|183:341,1,92.5599994350586,8|0,0:0|0:0,0:0:0:0:
265,139,68369,6,0,P|207:206|117:207,1,185.119998870117,0|8,0:0|0:0,0:0:0:0:
186,0,68880,2,0,P|275:0|334:68,1,185.119998870117
357,164,69391,1,8,0:0:0:0:
168,106,69562,1,0,0:0:0:0:
447,132,69732,6,0,P|454:177|441:220,1,92.5599994350586
277,203,70073,2,0,P|312:173|356:163,1,92.5599994350586,8|0,0:0|0:0,0:0:0:0:
425,322,70414,2,0,P|381:306|351:272,1,92.5599994350586
425,36,70755,1,8,0:0:0:0:
356,163,70925,1,0,0:0:0:0:
278,111,71096,6,0,L|98:155,1,185.119998870117,4|8,0:0|0:0,0:0:0:0:
6,181,71607,1,0,0:0:0:0:
172,83,71778,1,0,0:0:0:0:
95,259,71948,1,0,0:0:0:0:
54,72,72119,1,8,0:0:0:0:
197,199,72289,1,0,0:0:0:0:
337,34,72460,6,0,P|370:77|369:137,1,92.5599994350586
315,190,72800,2,0,P|282:147|283:87,1,92.5599994350586,8|0,0:0|0:0,0:0:0:0:
480,274,73141,1,0,0:0:0:0:
480,274,73312,1,0,0:0:0:0:
501,184,73482,2,0,L|393:210,1,92.5599994350586,8|0,0:0|0:0,0:0:0:0:
310,363,73823,5,0,0:0:0:0:
310,363,73994,2,0,P|343:320|342:260,1,92.5599994350586,0|8,0:0|0:0,0:0:0:0:
143,134,74335,1,0,0:0:0:0:
250,278,74505,2,0,P|242:224|199:182,1,92.5599994350586
131,233,74846,2,0,P|138:286|181:328,1,92.5599994350586,4|0,0:2|0:0,0:0:0:0:
411,205,75187,5,4,0:0:0:0:
178,43,75357,1,8,0:0:0:0:
161,315,75528,1,0,0:0:0:0:
300,141,75698,1,8,0:0:0:0:
300,141,75783,1,8,0:0:0:0:
300,141,75869,1,8,0:0:0:0:
143,134,76039,5,4,0:3:0:0:
219,195,76210,1,8,0:3:0:0:
300,141,76380,5,4,0:3:0:0:
274,46,76550,6,0,L|373:69,1,99.68,4|0,0:0|0:0,0:0:0:0:
369,265,77914,2,0,P|308:217|299:140,1,160.200003911133,4|0,0:0|0:0,0:0:0:0:
485,144,78937,6,0,L|395:165,1,92.5599994350586,8|0,3:2|0:0,0:0:0:0:
53,175,79278,6,0,P|126:177|190:99,1,178,4|8,0:0|0:0,0:0:0:0:
5,264,79789,1,0,0:0:0:0:
77,0,79960,2,0,L|98:89,1,89
53,175,80300,1,8,0:0:0:0:
271,44,80471,6,0,P|289:85|285:129,1,89
287,359,80812,1,0,0:0:0:0:
287,359,80897,1,0,0:0:0:0:
287,359,80982,1,8,0:0:0:0:
225,282,81153,2,0,P|207:241|211:197,1,89
386,20,81494,1,0,0:0:0:0:
304,224,81664,1,8,0:0:0:0:
189,101,81835,1,0,0:0:0:0:
510,232,82005,6,0,B|460:228|429:267|429:267|399:306|352:302,1,178,0|8,0:0|0:0,0:0:0:0:
304,224,82516,1,0,0:0:0:0:
470,384,82687,2,0,L|449:297,1,89
188,372,83028,1,8,0:0:0:0:
138,284,83198,6,0,P|181:273|224:281,1,89
287,359,83539,1,0,0:0:0:0:
287,359,83624,1,0,0:0:0:0:
287,359,83710,1,8,0:0:0:0:
71,222,83880,1,0,0:0:0:0:
71,222,84221,5,0,0:0:0:0:
297,103,84391,1,8,0:0:0:0:
188,372,84562,1,0,0:0:0:0:
21,137,84732,6,0,P|71:124|175:212,1,178,4|8,0:0|0:0,0:0:0:0:
372,227,85244,2,0,P|322:214|218:302,1,178
442,298,85755,1,8,0:0:0:0:
392,140,85925,6,0,L|371:226,1,89
352,328,86266,1,0,0:0:0:0:
352,328,86352,1,0,0:0:0:0:
352,328,86437,1,8,0:0:0:0:
487,94,86607,2,0,B|440:78|422:37|422:37|385:62|337:56,1,178
250,18,87119,1,8,0:0:0:0:
371,226,87289,1,0,0:0:0:0:
512,3,87460,5,8,0:0:0:0:
271,235,87630,1,0,3:0:0:0:
504,355,87800,5,8,0:0:0:0:
315,151,87971,1,0,3:0:0:0:
466,243,88141,5,8,0:0:0:0:
271,235,88312,1,0,3:0:0:0:
435,153,88482,5,8,0:0:0:0:
171,244,88653,2,0,P|150:287|157:344,2,99.6800012167969,2|0|0,0:0|0:0|0:0,0:0:0:0:
216,155,89505,6,0,P|227:124|224:98,1,56.0700013688965
217,83,90187,6,0,B|162:109|162:109|102:87,1,122.820000187408
23,46,90528,1,0,0:0:0:0:
138,268,90698,6,0,P|165:219|153:157,1,113.92
103,88,91210,1,0,0:0:0:0:
63,173,91380,5,0,0:0:0:0:
23,258,91550,6,0,P|9:312|26:362,1,85.44
23,356,91891,6,0,L|109:377,1,55.1799978108521,8|0,0:0|0:0,0:0:0:0:
172,356,92062,1,0,0:0:0:0:
63,173,92403,5,0,0:0:0:0:
156,163,92573,1,0,0:0:0:0:
249,153,92744,1,0,0:0:0:0:
172,355,92914,6,0,P|209:308|212:248,1,122.820000187408,4|0,0:0|0:0,0:0:0:0:
156,163,93255,1,0,0:0:0:0:
303,288,93425,6,0,L|414:260,1,113.92,4|0,0:0|0:0,0:0:0:0:
504,235,93937,1,0,0:0:0:0:
357,184,94107,1,0,0:0:0:0:
481,326,94278,5,0,0:0:0:0:
504,235,94448,2,0,P|483:194|428:166,1,85.44
430,166,94789,2,0,L|369:180,1,55.1799978108521,8|0,0:0|0:0,0:0:0:0:
472,2,95130,6,0,P|451:52|396:80,1,103.240003150635
325,73,95641,6,0,L|205:45,1,122.820000187408,4|0,0:0|0:0,0:0:0:0:
113,25,95982,1,0,0:0:0:0:
213,200,96153,6,0,P|200:159|137:119,1,113.92,4|0,0:0|0:0,0:0:0:0:
46,106,96664,1,0,0:0:0:0:
46,106,96835,1,0,0:0:0:0:
54,301,97005,6,0,L|75:205,1,85.44
78,194,97346,2,0,P|100:212|126:219,1,55.1799978108521,8|0,0:0|0:0,0:0:0:0:
213,200,97516,1,0,3:0:0:0:
113,25,97857,5,4,0:3:0:0:
205,45,98028,1,8,0:3:0:0:
297,65,98198,1,4,0:3:0:0:
282,276,98369,6,0,P|312:224|305:164,1,122.820000187408,4|0,0:0|0:0,0:0:0:0:
213,200,98710,1,0,0:0:0:0:
489,84,98880,6,0,L|380:108,1,110.359995621704,4|0,0:0|0:0,0:0:0:0:
306,165,99391,1,0,0:0:0:0:
421,10,99562,1,0,0:0:0:0:
511,328,99732,6,0,P|485:301|469:269,1,65.8600016079102,4|0,0:0|0:0,0:0:0:0:
444,189,100073,1,0,0:0:0:0:
183,299,100244,1,8,0:0:0:0:
305,164,100414,1,8,0:0:0:0:
360,337,100585,1,8,0:3:0:0:
282,276,100755,1,4,0:3:0:0:
183,299,100925,5,4,0:3:0:0:
139,367,101096,5,4,0:0:0:0:
139,367,101266,6,0,P|105:324|108:274,1,92.5599994350586
136,96,101778,2,0,P|161:143|158:188,1,92.5599994350586,8|0,0:0|0:0,0:0:0:0:
71,200,102289,1,0,0:0:0:0:
160,182,102460,6,0,L|267:158,1,92.5599994350586
423,119,102971,1,0,0:0:0:0:
335,98,103141,2,0,P|336:151|361:188,1,92.5599994350586,8|0,0:3|0:3,0:3:0:0:
423,119,103653,1,0,0:0:0:0:
284,273,103823,6,0,L|391:296,1,92.5599994350586
441,229,104335,1,0,0:0:0:0:
213,344,104505,2,0,P|188:297|191:252,1,92.5599994350586,8|0,0:0|0:0,0:0:0:0:
250,185,105016,1,0,0:0:0:0:
30,46,105187,5,0,0:0:0:0:
76,123,105357,2,0,P|108:154|153:166,1,92.5599994350586
220,95,105869,6,0,L|234:30,1,46.2799997175293,8|0,0:0|0:0,0:0:0:0:
237,31,106124,1,0,0:0:0:0:
237,31,106210,1,0,0:0:0:0:
325,46,106380,1,0,0:0:0:0:
250,185,106550,6,0,L|356:161,1,92.5599994350586
433,143,107062,1,0,0:0:0:0:
361,312,107232,2,0,P|368:268|405:234,1,92.5599994350586,8|0,0:0|0:0,0:0:0:0:
457,316,107744,1,0,0:0:0:0:
340,165,107914,6,0,L|250:185,1,92.5599994350586
67,228,108425,1,0,0:0:0:0:
155,258,108596,2,0,P|162:225|157:195,1,46.2799997175293,8|0,0:0|0:0,0:0:0:0:
140,128,108937,1,0,0:0:0:0:
140,128,109107,1,0,0:0:0:0:
196,344,109278,6,0,P|247:347|292:314,1,92.5599994350586
346,258,109789,1,0,0:0:0:0:
465,369,109960,6,0,L|374:349,1,92.5599994350586,8|0,0:0|0:0,0:0:0:0:
281,326,110471,1,0,0:0:0:0:
403,151,110641,5,0,0:0:0:0:
433,230,110812,2,0,P|439:252|438:275,1,46.2799997175293,8|0,0:0|0:0,0:0:0:0:
374,349,111153,1,0,0:0:0:0:
264,160,111323,6,0,L|309:169,1,46.2799997175293,8|0,0:0|0:0,0:0:0:0:
334,82,111664,2,0,L|289:73,1,46.2799997175293,8|8,0:0|0:0,0:0:0:0:
270,69,111920,1,8,0:0:0:0:
270,70,112005,6,0,P|196:97|174:188,1,156.640004780274,4|8,0:0|0:0,0:0:0:0:
296,294,112516,2,0,P|309:216|241:151,1,156.640004780274
145,254,113028,2,0,P|184:255|221:242,1,78.3200023901368,8|0,0:0|0:0,0:0:0:0:
263,159,113369,1,0,0:0:0:0:
263,159,113539,1,0,0:0:0:0:
28,329,113710,1,8,0:0:0:0:
82,190,113880,6,0,L|117:353,1,156.640004780274
98,92,114391,2,0,L|114:15,1,78.3200023901368,8|0,0:0|0:0,0:0:0:0:
6,128,114732,1,0,0:0:0:0:
6,128,114903,1,0,0:0:0:0:
222,243,115073,1,8,0:0:0:0:
263,159,115244,6,0,B|310:69|295:-19|192:29|248:77,1,210.039992628601
320,235,115755,1,8,0:0:0:0:
320,235,116096,6,0,P|385:231|425:186,1,121.04000073877,0|8,0:0|0:0,0:0:0:0:
278,321,116607,6,0,P|326:364|425:339,1,156.640004780274,0|8,0:0|0:0,0:0:0:0:
222,243,117119,6,0,L|64:277,1,144.18000352002
57,279,117460,1,0,0:0:0:0:
27,32,117630,6,0,B|177:66|177:66|108:93,1,227.84,8|0,0:0|0:0,0:0:0:0:
222,243,118141,6,0,B|400:202|400:202|318:169,1,263.440006431641,8|0,0:0|0:0,0:0:0:0:
242,135,118653,1,8,0:0:0:0:
480,378,118823,5,4,0:0:0:0:
480,378,118994,1,0,0:0:0:0:
325,172,119164,1,8,0:0:0:0:
408,321,119335,5,4,0:1:0:0:
408,321,119505,1,0,3:0:0:0:
382,100,119675,1,0,3:0:0:0:
332,260,119846,5,4,0:0:0:0:
336,264,120016,1,0,0:0:0:0:
439,28,120187,1,0,0:0:0:0:
278,334,120357,5,4,0:1:0:0:
31,199,120528,1,8,0:0:0:0:
42,168,120613,1,8,0:0:0:0:
66,145,120698,1,8,0:0:0:0:
96,133,120783,1,8,0:0:0:0:
129,135,120869,6,0,L|142:199,1,56.96,8|0,0:0|0:0,0:0:0:0:
166,360,121039,1,4,0:0:0:0:
126,52,121550,6,0,B|173:47|205:88|205:88|238:129|290:125,1,188.680000287903,4|0,0:0|0:0,0:0:0:0:
488,240,122062,2,0,P|481:165|373:125,1,188.680000287903
341,209,122573,2,0,L|318:317,1,94.3400001439514,8|0,0:0|0:0,0:0:0:0:
277,32,122914,1,0,0:0:0:0:
386,121,123085,5,0,0:0:0:0:
386,121,123170,1,0,0:0:0:0:
386,121,123255,1,8,0:0:0:0:
256,370,123425,2,0,P|232:315|241:262,1,94.3400001439514
410,346,123766,5,0,0:0:0:0:
341,209,123937,2,0,L|318:317,1,94.3400001439514,8|0,0:0|0:0,0:0:0:0:
290,125,124278,6,0,B|213:103|213:103|176:113|176:113|95:90,1,188.680000287903,0|8,0:0|0:0,0:0:0:0:
40,228,124789,2,0,B|115:206|115:206|149:215|149:215|221:195,1,188.680000287903
103,384,125300,2,0,P|126:337|120:290,1,94.3400001439514,8|0,0:0|0:0,0:0:0:0:
24,126,125641,5,0,0:0:0:0:
225,299,125812,1,0,0:0:0:0:
225,299,125897,1,0,0:0:0:0:
225,299,125982,1,8,0:0:0:0:
308,248,126153,1,0,0:0:0:0:
239,106,126323,6,0,P|218:156|232:211,1,94.3400001439514
309,348,126664,2,0,P|356:373|412:364,1,94.3400001439514,8|0,0:0|0:0,0:0:0:0:
416,129,127005,6,0,P|393:217|307:247,1,188.680000287903,4|0,0:0|0:0,0:0:0:0:
87,140,127516,2,0,P|109:52|195:22,1,188.680000287903
239,106,128028,2,0,L|216:214,1,94.3400001439514
12,335,128369,5,0,0:0:0:0:
87,140,128539,1,0,0:0:0:0:
87,140,128624,1,0,0:0:0:0:
87,140,128710,1,0,0:0:0:0:
219,302,128880,1,0,0:0:0:0:
34,247,129050,6,0,L|142:224,1,94.3400001439514
104,323,129391,2,0,L|11:341,1,94.3400001439514
308,247,129732,6,0,B|355:252|387:211|387:211|420:170|472:174,1,188.680000287903
379,39,130244,2,0,P|351:93|394:192,1,141.510000215927
380,188,130585,1,0,0:0:0:0:
512,44,130755,1,0,0:0:0:0:
453,320,130925,6,0,P|398:247|307:247,1,188.680000287903
112,362,131437,1,0,0:0:0:0:
232,160,131607,1,0,0:0:0:0:
227,177,131692,1,0,0:0:0:0:
226,190,131778,1,0,0:0:0:0:
357,334,131948,1,0,0:0:0:0:
334,342,132033,1,0,0:0:0:0:
311,345,132118,1,0,0:0:0:0:
288,343,132203,1,0,0:0:0:0:
265,336,132288,5,0,0:0:0:0:
238,316,132374,5,0,0:0:0:0:
217,283,132460,6,0,L|14:243,1,188.680000287903
226,190,132971,2,0,L|23:150,1,188.680000287903
112,362,133482,1,0,0:0:0:0:
305,242,133653,1,0,0:0:0:0:
233,33,133823,1,0,0:0:0:0:
31,246,133994,5,0,0:0:0:0:
31,246,134079,1,0,0:0:0:0:
31,246,134164,1,0,0:0:0:0:
98,70,134335,2,0,P|130:103|141:149,1,94.3400001439514
14,341,134675,5,0,0:0:0:0:
104,304,134846,2,0,L|196:285,1,94.3400001439514
98,70,135187,6,0,L|320:115,1,188.680000287903
473,159,135698,2,0,P|398:140|322:219,1,188.680000287903
479,355,136210,1,0,0:0:0:0:
415,236,136380,1,0,0:0:0:0:
256,368,136550,5,0,0:0:0:0:
282,108,136721,1,0,0:0:0:0:
282,108,136806,1,0,0:0:0:0:
282,108,136891,1,0,0:0:0:0:
388,339,137062,1,0,0:0:0:0:
196,284,137232,2,0,P|161:235|165:165,1,94.3400001439514
312,14,137573,2,0,L|220:33,1,94.3400001439514
51,357,137914,6,0,P|104:283|195:283,1,188.680000287903
149,369,138425,1,0,0:0:0:0:
273,199,138596,2,0,L|292:291,1,94.3400001439514
195,283,138937,2,0,L|176:191,1,94.3400001439514
152,100,139278,5,0,0:0:0:0:
367,231,139448,1,0,0:0:0:0:
367,231,139533,1,0,0:0:0:0:
367,231,139619,1,0,0:0:0:0:
149,369,139789,1,0,0:0:0:0:
248,112,139960,2,0,P|301:78|347:77,1,94.3400001439514
247,376,140300,1,0,0:0:0:0:
83,170,140471,1,0,0:0:0:0:
292,291,140641,5,0,0:0:0:0:
404,141,140812,1,0,0:0:0:0:
461,217,140982,2,0,L|480:309,1,94.3400001439514
270,197,141323,1,0,0:0:0:0:
472,72,141494,1,0,0:0:0:0:
348,359,141664,2,0,P|301:379|247:368,1,94.3400001439514
83,170,142005,5,0,0:0:0:0:
361,224,142175,1,0,0:0:0:0:
149,369,142346,1,0,0:0:0:0:
258,66,142517,1,0,0:0:0:0:
253,89,142602,1,0,0:0:0:0:
248,112,142687,1,0,0:0:0:0:
270,197,142857,1,0,0:0:0:0:
361,224,143028,5,0,0:0:0:0:
432,176,143198,5,0,0:0:0:0:
439,99,143369,6,0,L|462:213,1,99.6800012167969,4|0,0:0|0:0,0:0:0:0:
478,282,143880,1,0,0:0:0:0:
257,260,144050,6,0,P|293:249|312:252,1,49.8400006083984,8|0,0:0|0:0,0:0:0:0:
393,256,144391,2,0,P|384:293|372:308,1,49.8400006083984
296,345,144732,2,0,P|268:318|257:258,1,99.6800012167969,4|0,0:0|0:0,0:0:0:0:
263,170,145244,1,0,0:0:0:0:
53,283,145414,5,8,0:0:0:0:
139,274,145585,5,4,0:3:0:0:
182,211,145755,5,8,0:3:0:0:
182,211,146096,6,0,L|148:46,1,153.080002335815
152,61,146607,2,0,L|222:75,1,64.0800015644532
266,148,147119,6,0,L|322:159,1,56.96
407,181,148141,1,4,0:0:0:0:
407,181,149505,5,4,0:0:0:0:
407,181,150869,5,4,0:0:0:0:
407,181,151550,6,0,P|429:238|365:324,1,167.319997446899,4|0,0:1|0:0,0:0:0:0:
374,320,152062,2,0,P|342:285|330:239,1,96.1200023466797
355,110,152573,6,0,P|367:86|388:71,1,49.8400006083984,4|0,0:0|0:0,0:0:0:0:
469,36,153596,1,4,0:0:0:0:
469,36,154960,1,4,0:0:0:0:
469,36,155641,5,4,0:0:0:0:
284,167,155982,5,4,0:0:0:0:
284,167,156494,5,0,3:0:0:0:
117,7,156664,1,8,0:0:0:0:
71,329,157005,6,0,P|139:320|184:255,1,133.5,4|0,0:1|0:0,0:0:0:0:
186,251,157346,1,8,0:0:0:0:
191,158,157516,5,0,3:0:0:0:
283,263,157687,1,8,0:0:0:0:
251,81,157857,5,0,3:0:0:0:
103,209,158028,1,8,0:0:0:0:
153,66,158198,5,0,3:0:0:0:
225,344,158369,2,0,L|355:370,1,133.5,8|0,0:0|0:0,0:0:0:0:
379,365,158710,1,8,0:0:0:0:
464,329,158880,5,0,3:0:0:0:
284,167,159050,1,8,0:0:0:0:
379,365,159221,5,0,3:0:0:0:
465,232,159391,1,8,0:0:0:0:
225,344,159562,5,0,3:0:0:0:
190,158,159732,1,8,0:0:0:0:
71,329,159903,5,0,3:0:0:0:
283,263,160073,1,8,0:0:0:0:
55,51,160244,5,0,3:0:0:0:
186,251,160414,1,8,0:0:0:0:
317,0,160585,5,0,3:0:0:0:
283,263,160755,1,8,0:0:0:0:
512,19,160925,5,0,3:0:0:0:
380,275,161096,1,8,0:0:0:0:
251,81,161266,5,0,3:0:0:0:
512,133,161437,1,8,0:0:0:0:
186,251,161607,5,0,3:0:0:0:
416,148,161778,1,8,0:0:0:0:
153,66,161948,1,0,3:0:0:0:
225,344,162119,1,8,0:0:0:0:
284,167,162289,1,0,3:0:0:0:
62,298,162460,6,0,P|93:254|196:257,1,133.5,4|0,0:1|0:0,0:0:0:0:
186,251,162800,1,8,0:0:0:0:
225,344,162971,5,0,3:0:0:0:
190,158,163141,1,8,0:0:0:0:
132,383,163312,5,0,3:0:0:0:
283,263,163482,1,8,0:0:0:0:
31,148,163653,5,0,3:0:0:0:
317,0,163823,1,8,0:0:0:0:
225,344,163994,5,0,3:0:0:0:
153,66,164164,1,8,0:0:0:0:
283,263,164335,1,0,3:0:0:0:
335,187,164505,2,0,L|352:99,1,89,8|2,0:0|3:2,0:0:0:0:
447,320,164846,2,0,P|407:277|352:273,1,89,8|2,0:0|3:2,0:0:0:0:
283,263,165187,5,4,0:1:0:0:
325,356,165357,5,0,3:0:0:0:
250,81,165528,1,8,0:0:0:0:
229,357,165698,5,0,3:0:0:0:
352,99,165869,1,8,0:0:0:0:
427,358,166039,5,0,0:0:0:0:
317,0,166210,2,0,P|262:42|247:117,1,133.5,4|0,0:0|0:0,0:0:0:0:
245,124,166550,1,8,0:0:0:0:
257,221,166721,5,0,3:0:0:0:
352,99,166891,1,8,0:0:0:0:
153,66,167062,5,0,3:0:0:0:
360,199,167232,1,8,0:0:0:0:
103,209,167403,5,0,3:0:0:0:
430,34,167573,1,8,0:0:0:0:
52,47,167744,5,0,3:0:0:0:
446,144,167914,1,8,0:0:0:0:
229,357,168085,1,0,3:0:0:0:
153,66,168255,5,8,0:0:0:0:
360,199,168425,1,0,3:0:0:0:
101,340,168596,1,8,0:0:0:0:
245,124,168766,5,0,3:0:0:0:
325,356,168937,1,8,0:0:0:0:
103,209,169107,1,0,3:0:0:0:
352,99,169278,5,8,0:0:0:0:
229,357,169448,1,0,3:0:0:0:
31,148,169619,1,8,0:0:0:0:
360,199,169789,1,0,3:0:0:0:
101,340,169960,5,8,0:0:0:0:
250,19,170130,1,8,0:0:0:0:
453,308,170300,1,8,0:0:0:0:
31,148,170471,1,8,0:0:0:0:
101,340,181550,6,0,B|143:344|164:309|164:309|187:271|226:275,1,149.520003650391
324,93,182914,6,0,B|251:63|251:63|278:199,1,211.820001292847
480,380,184278,6,0,P|430:285|323:278,1,224.280005475586
4,191,185641,6,0,B|-19:151|-19:151|198:194|198:194|157:207|138:252,1,348.880004258789
226,276,187005,6,0,L|356:250,1,128.160003128906
492,93,187687,2,0,L|366:67,1,128.160003128906
325,157,188198,1,0,0:0:0:0:
445,234,188369,6,0,P|427:188|401:169,1,64.0800015644532
332,309,188710,2,0,P|351:263|346:231,1,64.0800015644532
266,80,189050,1,0,0:0:0:0:
226,168,189221,1,0,0:0:0:0:
169,89,189391,1,0,0:0:0:0:
325,157,189562,1,0,0:0:0:0:
188,258,189732,5,0,0:0:0:0:
226,168,189903,1,0,0:0:0:0:
11,232,190073,5,0,0:0:0:0:
129,182,190244,1,0,0:0:0:0:
15,27,190414,5,0,0:0:0:0:
169,89,190585,1,0,0:0:0:0:
11,232,190755,5,0,0:0:0:0:
366,67,190925,1,0,0:0:0:0:
366,67,191948,5,8,0:0:0:0:
321,69,192033,1,8,0:0:0:0:
282,93,192118,1,8,0:0:0:0:
258,131,192203,1,8,0:0:0:0:
234,169,192288,1,8,0:0:0:0:
196,193,192374,1,8,0:0:0:0:
151,196,192460,6,0,L|171:296,1,94.3400001439514
69,129,192800,1,0,0:0:0:0:
110,375,192971,2,0,P|177:313|266:332,1,188.680000287903
352,381,193482,1,0,0:0:0:0:
471,146,193653,5,0,0:0:0:0:
353,281,193823,1,0,0:0:0:0:
167,94,193994,1,0,0:0:0:0:
167,94,194079,1,0,0:0:0:0:
167,94,194164,1,0,0:0:0:0:
332,151,194335,2,0,L|231:171,1,94.3400001439514
353,281,194675,2,0,L|453:260,1,94.3400001439514
267,69,195016,1,0,0:0:0:0:
170,288,195187,5,0,0:0:0:0:
412,63,195357,1,0,0:0:0:0:
454,358,195528,1,0,0:0:0:0:
208,200,195698,2,0,P|131:202|70:291,1,188.680000287903
299,158,196210,1,0,0:0:0:0:
167,94,196380,1,0,0:0:0:0:
272,281,196550,5,0,0:0:0:0:
412,63,196721,1,0,0:0:0:0:
412,63,196806,1,0,0:0:0:0:
412,63,196891,1,0,0:0:0:0:
208,200,197062,1,0,0:0:0:0:
331,361,197232,2,0,P|359:322|356:260,1,94.3400001439514
287,91,197573,2,0,L|308:191,1,94.3400001439514
272,281,197914,6,0,B|220:285|187:244|187:244|155:203|108:208,1,188.680000287903
18,246,198425,1,0,0:0:0:0:
68,58,198596,2,0,P|37:117|41:157,1,94.3400001439514
83,383,198937,2,0,P|114:324|110:284,1,94.3400001439514
68,58,199278,5,0,0:0:0:0:
18,246,199448,1,0,0:0:0:0:
18,246,199533,1,0,0:0:0:0:
18,246,199619,1,0,0:0:0:0:
305,184,199789,1,0,0:0:0:0:
142,120,199960,1,0,0:0:0:0:
232,378,200130,1,0,0:0:0:0:
406,178,200300,1,0,0:0:0:0:
210,272,200471,1,0,0:0:0:0:
115,33,200641,6,0,P|161:86|230:97,1,141.510000215927
254,93,200982,1,0,0:0:0:0:
322,22,201153,2,0,L|343:122,1,94.3400001439514
300,272,201494,2,0,L|279:172,1,94.3400001439514
510,314,201835,6,0,B|459:320|420:293|420:293|401:337|351:354,1,188.680000287903
300,272,202346,1,0,0:0:0:0:
262,356,202516,1,0,0:0:0:0:
262,356,202602,1,0,0:0:0:0:
262,356,202687,1,0,0:0:0:0:
341,113,202857,1,8,0:0:0:0:
303,142,202942,1,8,0:0:0:0:
258,151,203027,1,8,0:0:0:0:
212,140,203112,1,8,0:0:0:0:
176,110,203197,5,8,0:0:0:0:
157,61,203283,5,8,0:0:0:0:
166,4,203369,6,0,L|123:206,1,188.680000287903
25,370,203880,2,0,P|65:296|179:282,1,188.680000287903
429,328,204391,6,0,L|307:353,1,94.3400001439514
235,344,204732,1,0,0:0:0:0:
346,111,204903,1,0,0:0:0:0:
346,111,204988,1,0,0:0:0:0:
346,111,205073,1,0,0:0:0:0:
429,328,205244,1,0,0:0:0:0:
220,201,205414,1,0,0:0:0:0:
415,46,205585,2,0,P|441:107|425:156,1,94.3400001439514
397,218,205925,1,0,0:0:0:0:
226,108,206096,6,0,B|174:104|141:145|141:145|109:186|62:181,1,188.680000287903
259,316,206607,2,0,P|318:245|305:155,1,188.680000287903
220,201,207119,1,0,0:0:0:0:
64,80,207289,1,0,0:0:0:0:
51,301,207460,6,0,L|143:281,1,94.3400001439514
167,280,207715,1,0,0:0:0:0:
167,280,207800,1,0,0:0:0:0:
61,180,207971,1,0,0:0:0:0:
176,374,208141,1,0,0:0:0:0:
226,108,208312,1,0,0:0:0:0:
344,256,208482,2,0,P|406:256|465:193,1,141.510000215927
461,204,208823,6,0,L|421:19,1,188.680000287903
293,0,209335,1,0,0:0:0:0:
371,168,209505,2,0,L|351:75,1,94.3400001439514
293,0,209846,1,0,0:0:0:0:
220,201,210016,1,0,0:0:0:0:
442,109,210187,5,0,0:0:0:0:
193,11,210357,1,0,0:0:0:0:
193,11,210442,1,0,0:0:0:0:
193,11,210528,1,0,0:0:0:0:
344,256,210698,1,0,0:0:0:0:
351,75,210869,1,0,0:0:0:0:
220,201,211039,5,0,0:0:0:0:
108,85,211210,5,0,0:0:0:0:
6,161,211380,5,0,0:0:0:0:
254,357,211550,5,0,0:0:0:0:
220,201,211721,2,0,P|190:257|203:314,1,94.3400001439514
344,367,212062,1,0,0:0:0:0:
226,108,212232,1,0,0:0:0:0:
133,365,212403,1,0,0:0:0:0:
371,168,212573,1,0,0:0:0:0:
108,85,212744,1,0,0:0:0:0:
288,268,212914,5,0,0:0:0:0:
410,34,213085,1,0,0:0:0:0:
404,55,213170,1,0,0:0:0:0:
408,79,213255,1,0,0:0:0:0:
450,289,213425,1,0,0:0:0:0:
458,259,213510,1,0,0:0:0:0:
452,226,213595,1,0,0:0:0:0:
371,168,213766,1,0,0:0:0:0:
288,268,213937,5,0,0:0:0:0:
220,201,214107,5,0,0:0:0:0:
152,241,214278,6,0,P|97:243|30:158,1,161.979999011353
179,0,215641,6,0,L|222:216,1,204.699993128357
151,163,216664,6,0,P|154:115|181:77,1,94.3400001439514
333,223,217005,6,0,L|278:233,1,49.84
284,232,217687,6,0,B|328:227|358:265|358:265|389:304|438:300,1,178
511,245,218198,1,0,0:0:0:0:
420,125,218369,2,0,P|415:178|439:217,1,89
511,245,218710,1,0,0:0:0:0:
408,41,218880,1,0,0:0:0:0:
284,232,219050,1,0,0:0:0:0:
430,208,219221,1,0,0:0:0:0:
430,208,219306,1,0,0:0:0:0:
430,208,219391,1,0,0:0:0:0:
334,95,219562,6,0,L|159:129,1,178
76,87,220073,2,0,P|66:135|87:187,1,89
293,294,220414,2,0,P|232:224|139:231,1,178
72,271,220925,1,0,0:0:0:0:
159,129,221096,5,0,0:0:0:0:
194,314,221266,1,0,0:0:0:0:
0,221,221437,1,0,0:0:0:0:
202,47,221607,1,0,0:0:0:0:
152,224,221778,1,0,0:0:0:0:
0,41,221948,1,0,0:0:0:0:
0,41,222033,1,0,0:0:0:0:
0,41,222119,1,0,0:0:0:0:
159,129,222289,1,0,0:0:0:0:
13,342,222460,5,0,0:0:0:0:
237,181,222630,1,0,0:0:0:0:
262,173,222715,1,0,0:0:0:0:
288,172,222800,1,0,0:0:0:0:
314,178,222885,1,0,0:0:0:0:
341,195,222970,1,0,0:0:0:0:
366,226,223056,1,0,0:0:0:0:
377,273,223141,6,0,L|202:307,1,178
511,208,223653,6,0,B|464:218|424:189|424:189|489:245|456:325,1,231.399989407349
485,123,224164,6,0,P|494:69|460:27,1,89
467,26,224420,1,0,0:0:0:0:
467,26,224505,1,0,0:0:0:0:
377,273,224675,1,0,0:0:0:0:
357,256,224761,1,0,0:0:0:0:
340,234,224846,1,0,0:0:0:0:
348,143,225016,6,0,L|173:108,1,178
88,84,225528,1,0,0:0:0:0:
246,39,225698,1,0,0:0:0:0:
168,279,225869,2,0,B|148:231|148:231|173:108,1,178
292,301,226380,1,0,0:0:0:0:
292,301,226465,1,0,0:0:0:0:
292,301,226550,1,0,0:0:0:0:
320,212,226721,6,0,P|262:208|219:238,1,89
72,375,227062,6,0,B|185:341|185:341|169:286,1,160.199995111084
168,279,227403,6,0,P|148:223|241:134,1,186.899994296265
223,134,227744,6,0,L|159:121,1,64.5250019691468
0,82,227914,1,0,0:0:0:0:
68,150,228085,5,0,0:0:0:0:
95,57,228255,1,0,0:0:0:0:
292,301,228596,6,0,P|359:298|401:252,1,128.160003128906
346,12,229107,2,0,P|315:71|333:130,1,128.160003128906
474,154,229619,6,0,L|410:167,1,64.0800015644532
318,213,229960,2,0,L|184:240,1,128.160003128906
93,64,230471,6,0,P|153:95|174:174,1,128.160003128906
44,369,230982,2,0,P|81:340|96:295,1,96.1200023466797
97,210,231323,2,0,L|7:191,1,64.0800015644532
204,327,231664,5,0,0:0:0:0:
274,265,231835,2,0,P|301:224|291:137,2,128.160003128906
416,332,232687,2,0,L|289:357,1,128.160003128906
399,239,233198,6,0,L|272:264,1,128.160003128906
203,327,233710,2,0,P|196:346|194:364,2,32.0400007822266
88,172,234050,6,0,P|169:201|191:258,1,128.160003128906
19,355,234562,2,0,P|100:326|122:269,1,128.160003128906
32,264,235073,6,0,L|25:232,2,32.0400007822266
105,44,235414,6,0,B|135:101|135:101|195:79,1,128.160003128906
457,111,235925,2,0,B|427:54|427:54|366:75,1,128.160003128906
286,98,236437,6,0,L|279:66,2,32.0400007822266
488,318,236778,6,0,P|445:267|371:261,1,128.160003128906
373,134,237289,2,0,P|330:185|256:191,1,128.160003128906
97,278,237800,1,0,0:0:0:0:
235,330,237971,6,0,P|195:302|154:297,1,64.0800015644532
106,193,238312,2,0,P|59:201|26:226,1,64.0800015644532
97,278,238653,5,0,0:0:0:0:
190,212,238823,2,0,P|188:163|152:111,1,96.1200023466797
165,122,239164,6,0,B|197:123|221:141|221:141|246:109|246:109|283:144|283:144|318:117|379:124,1,234.959999282959
