osu file format v14

[General]
AudioFilename: audio.mp3
AudioLeadIn: 0
PreviewTime: 188948
Countdown: 0
SampleSet: Soft
StackLeniency: 0.7
Mode: 0
LetterboxInBreaks: 0
WidescreenStoryboard: 0

[Editor]
Bookmarks: 145781,156448
DistanceSpacing: 1
BeatDivisor: 2
GridSize: 32
TimelineZoom: 1.6

[Metadata]
Title:Jitter Doll
TitleUnicode:ジッタードール
Artist:Rib
ArtistUnicode:りぶ
Creator:Kalibe
Version:Normal
Source:
Tags:utaite cover niki akitoshi corinn
BeatmapID:1348194
BeatmapSetID:634997

[Difficulty]
HPDrainRate:4
CircleSize:3
OverallDifficulty:4
ApproachRate:5
SliderMultiplier:0.999999999999999
SliderTickRate:1

[Events]
//Background and Video events
0,0,"gag.png",0,0
//Break Periods
2,26149,27249
2,145983,155249
//Storyboard Layer 0 (Background)
//Storyboard Layer 1 (Fail)
//Storyboard Layer 2 (Pass)
//Storyboard Layer 3 (Foreground)
//Storyboard Sound Samples

[TimingPoints]
450,333.333333333333,4,1,1,100,1,0
13783,-100,4,1,1,50,0,0
15033,-100,4,1,1,5,0,0
15116,-100,4,2,3,55,0,0
25783,-100,4,2,3,65,0,0
26283,-100,4,2,3,45,0,0
27116,-100,4,2,3,40,0,0
28449,-100,4,2,3,60,0,0
28949,-100,4,2,3,45,0,0
29783,-100,4,2,3,60,0,0
30283,-100,4,2,3,45,0,0
31116,-100,4,2,3,60,0,0
35783,-100,4,2,3,65,0,0
36449,-100,4,1,1,70,0,0
47116,-100,4,2,1,55,0,0
52449,-100,4,2,1,50,0,0
54783,-100,4,2,1,45,0,0
55116,-100,4,2,1,65,0,0
56783,-100,4,2,1,70,0,0
56866,-100,4,2,1,30,0,0
57533,-100,4,2,1,5,0,0
57616,-95.2380952380952,4,1,1,80,0,1
57949,-95.2380952380952,4,1,1,80,0,1
67949,-95.2380952380952,4,1,1,85,0,0
68283,-95.2380952380952,4,1,1,80,0,1
80449,-100,4,2,1,60,0,0
91116,-100,4,1,1,70,0,0
101783,-100,4,2,3,55,0,0
107616,-100,4,2,3,60,0,0
109449,-100,4,2,3,45,0,0
109698,-100,4,2,3,5,0,0
109782,-100,4,2,3,60,0,0
110864,-100,4,2,3,5,0,0
110948,-100,4,2,3,65,0,0
111197,-100,4,2,3,5,0,0
111281,-100,4,2,3,70,0,0
111364,-100,4,2,3,5,0,0
111448,-100,4,2,3,75,0,0
111531,-100,4,2,3,5,0,0
112197,-100,4,2,3,5,0,0
112283,-95.2380952380952,4,1,1,80,0,1
112617,-95.2380952380952,4,1,1,80,0,1
122616,-95.2380952380952,4,1,1,85,0,0
122949,-95.2380952380952,4,1,1,80,0,1
135116,-100,4,1,1,60,0,0
156449,-100,4,2,3,55,0,0
164449,-100,4,2,3,60,0,0
164782,-100,4,2,3,50,0,0
165116,-100,4,2,3,60,0,0
165449,-100,4,2,3,70,0,0
165782,-100,4,2,3,80,0,0
167116,-100,4,2,3,60,0,0
167199,-100,4,2,3,5,0,0
168283,-95.2380952380952,4,1,1,85,0,1
168616,-95.2380952380952,4,1,1,80,0,1
178616,-95.2380952380952,4,1,1,85,0,0
178949,-95.2380952380952,4,1,1,80,0,1
189616,-95.2380952380952,4,1,1,60,0,0
189866,-95.2380952380952,4,1,1,5,0,0
189949,-95.2380952380952,4,1,1,75,0,0
190032,-95.2380952380952,4,1,1,5,0,0
190116,-95.2380952380952,4,1,1,85,0,1
190449,-95.2380952380952,4,1,1,80,0,1
199949,-95.2380952380952,4,1,1,85,0,0
200283,-95.2380952380952,4,1,1,80,0,1
212449,-100,4,1,1,60,0,0
223116,-100,4,2,3,50,0,0
223616,-100,4,2,1,30,0,0
227116,-100,4,2,3,10,0,0
231116,-100,4,2,1,5,0,0

[Colours]
Combo1 : 216,165,220
Combo2 : 255,128,64
Combo3 : 128,64,64

[HitObjects]
0,354,15116,6,0,L|105:345,1,99.9999999999999,4|2,0:0|0:3,0:0:0:0:
152,260,15783,2,0,L|251:251,1,99.9999999999999,2|2,0:3|0:3,0:0:0:0:
321,323,16449,2,0,P|365:342|418:336,1,99.9999999999999,2|2,0:3|0:3,0:0:0:0:
495,276,17116,2,0,P|500:226|481:181,1,99.9999999999999,2|2,0:3|0:3,0:0:0:0:
404,116,17783,6,0,P|320:163|226:122,1,200,4|2,0:3|0:3,0:0:0:0:
195,32,18783,1,2,0:3:0:0:
156,64,18949,2,0,P|96:54|37:52,1,99.9999999999999,12|12,0:3|0:3,0:0:0:0:
16,81,19449,1,2,0:3:0:0:
90,147,19783,2,0,P|108:194|102:250,1,99.9999999999999,2|2,0:3|0:0,0:0:0:0:
72,337,20449,6,0,P|120:327|178:319,1,99.9999999999999,4|2,0:2|0:3,0:0:0:0:
258,368,21116,2,0,P|268:319|275:269,1,99.9999999999999,2|2,0:3|0:3,0:0:0:0:
214,189,21783,2,0,P|262:178|312:171,1,99.9999999999999,2|2,0:3|0:3,0:0:0:0:
397,224,22449,2,0,P|407:175|414:125,1,99.9999999999999,2|2,0:3|0:3,0:0:0:0:
330,70,23116,6,0,B|242:30|222:104|129:61,1,200,4|2,0:3|0:3,0:0:0:0:
46,17,24116,1,2,0:3:0:0:
17,58,24283,2,0,P|26:108|32:156,1,99.9999999999999,12|12,0:3|0:3,0:0:0:0:
13,203,24783,1,2,0:3:0:0:
88,268,25116,2,0,P|133:245|183:248,1,99.9999999999999,2|2,0:3|0:3,0:0:0:0:
258,311,25783,6,0,L|249:365,1,50,4|0,1:2|1:0,0:0:0:0:
113,64,28449,6,0,L|50:76,1,50,4|0,1:2|1:0,0:0:0:0:
4,211,29116,2,0,B|59:204|59:204|93:223|93:223|162:217,1,150,2|0,0:1|0:0,0:0:0:0:
197,207,29783,6,0,L|188:256,1,50,4|4,1:2|1:3,0:0:0:0:
495,87,31116,6,0,L|486:136,1,50,4|0,2:0|1:0,0:0:0:0:
458,283,31783,1,8,0:3:0:0:
306,152,32449,1,8,0:3:0:0:
495,87,33116,1,8,0:3:0:0:
380,251,33783,6,0,L|371:186,1,50,4|0,1:2|1:0,0:0:0:0:
349,53,34449,1,8,0:3:0:0:
210,200,35116,6,0,L|201:135,1,50,4|0,1:2|0:0,0:0:0:0:
195,101,35449,2,0,P|143:94|90:123,1,99.9999999999999,8|4,0:0|3:0,0:0:0:0:
65,148,35949,2,0,L|16:141,2,50,0|8|8,0:0|0:0|0:0,0:0:0:0:
81,195,36449,6,0,P|89:245|94:305,1,99.9999999999999,4|8,0:0|0:0,0:0:0:0:
79,342,36949,2,0,P|129:324|193:322,1,99.9999999999999,0|8,0:0|0:3,0:0:0:0:
219,344,37449,1,8,0:0:0:0:
219,344,37616,2,0,P|269:369|356:343,1,150,2|0,0:2|0:0,0:0:0:0:
396,314,38283,1,8,0:0:0:0:
345,227,38616,2,0,L|250:213,2,50,0|8|8,0:0|0:3|0:0,0:0:0:0:
392,211,39116,6,0,P|405:162|400:111,1,99.9999999999999,4|8,0:0|0:0,0:0:0:0:
378,68,39616,2,0,L|266:52,1,99.9999999999999,0|8,0:0|0:3,0:0:0:0:
236,80,40116,1,8,0:0:0:0:
236,80,40283,2,0,P|159:120|101:102,1,150,2|8,0:2|0:3,0:0:0:0:
65,68,40949,1,8,0:0:0:0:
20,158,41283,2,0,L|32:229,1,50,8|4,0:3|0:3,0:0:0:0:
43,255,41616,1,8,0:0:0:0:
43,255,41783,6,0,P|86:232|142:228,1,99.9999999999999,4|8,0:0|0:0,0:0:0:0:
176,197,42283,2,0,P|221:214|286:210,1,99.9999999999999,0|8,0:0|0:3,0:0:0:0:
314,240,42783,1,8,0:0:0:0:
314,240,42949,2,0,B|334:177|290:161|318:88,1,150,2|8,0:2|0:3,0:0:0:0:
346,52,43616,1,8,0:0:0:0:
399,136,43949,2,0,L|461:124,1,50,0|4,0:0|0:3,0:0:0:0:
497,116,44283,1,8,0:0:0:0:
497,116,44449,6,0,P|486:163|468:239,1,99.9999999999999,4|8,0:0|0:0,0:0:0:0:
493,259,44949,2,0,P|440:242|394:260,1,99.9999999999999,0|8,0:0|0:3,0:0:0:0:
372,297,45449,1,8,0:0:0:0:
372,297,45616,2,0,P|302:360|206:320,1,200,2|8,0:2|0:0,0:0:0:0:
175,292,46449,1,8,0:3:0:0:
100,359,46783,2,0,L|50:352,1,50,4|8,0:3|0:0,0:0:0:0:
7,325,47116,6,0,P|-4:276|2:216,1,99.9999999999999,4|8,0:0|0:0,0:0:0:0:
66,152,47783,2,0,P|115:148|164:159,1,99.9999999999999,8|8,0:3|0:0,0:0:0:0:
237,227,48449,2,0,P|286:230|335:219,1,99.9999999999999,8|8,0:3|0:0,0:0:0:0:
418,163,49116,2,0,P|421:113|410:64,1,99.9999999999999,8|8,0:3|0:0,0:0:0:0:
330,4,49783,6,0,L|218:18,1,99.9999999999999,4|8,0:0|0:0,0:0:0:0:
142,62,50449,2,0,L|164:161,1,99.9999999999999,8|8,0:3|0:0,0:0:0:0:
237,227,51116,2,0,L|339:214,1,99.9999999999999,8|8,0:3|0:0,0:0:0:0:
382,303,51783,2,0,L|328:311,1,50,8|8,0:0|0:3,0:0:0:0:
291,339,52116,2,0,L|241:333,1,50,12|8,0:3|0:0,0:0:0:0:
191,333,52449,6,0,P|115:354|54:316,2,150,4|4|4,0:0|0:0|0:0,0:0:0:0:
242,246,53783,1,8,0:0:0:0:
168,177,54116,2,0,P|111:168|69:165,1,99.9999999999999,2|8,0:0|0:0,0:0:0:0:
6,86,54783,1,4,0:0:0:0:
83,22,55116,6,0,P|138:43|223:18,1,150,8|8,0:3|0:3,0:0:0:0:
266,43,55783,2,0,L|328:30,1,50,2|8,1:2|1:2,0:0:0:0:
354,63,56116,1,8,1:2:0:0:
354,63,56283,2,0,L|460:72,1,99.9999999999999,4|12,0:0|0:3,0:0:0:0:
496,45,56783,1,8,0:0:0:0:
285,201,57616,6,0,P|216:224|145:175,1,157.499995193481,12|8,0:0|0:0,0:0:0:0:
66,247,58449,2,0,L|14:236,2,52.4999983978271,8|8|8,0:3|0:3|0:0,0:0:0:0:
91,293,58949,2,0,L|199:312,1,104.999996795654,4|0,0:0|0:0,0:0:0:0:
227,352,59449,1,8,0:0:0:0:
227,352,59616,2,0,L|340:343,1,104.999996795654,2|4,0:2|0:3,0:0:0:0:
384,340,60116,1,8,0:0:0:0:
384,340,60283,6,0,P|404:291|391:236,1,104.999996795654,4|0,0:0|0:0,0:0:0:0:
360,201,60783,1,8,0:0:0:0:
424,118,61116,2,0,L|502:132,2,52.4999983978271,8|8|8,0:3|0:3|0:0,0:0:0:0:
386,81,61616,2,0,P|335:98|283:85,1,104.999996795654,4|8,0:0|0:3,0:0:0:0:
250,48,62116,1,8,0:0:0:0:
250,48,62283,2,0,L|102:28,1,104.999996795654,4|8,0:0|0:3,0:0:0:0:
105,67,62783,1,8,0:0:0:0:
105,67,62949,6,0,P|132:115|122:168,1,104.999996795654,4|8,0:0|0:3,0:0:0:0:
80,191,63449,1,8,0:0:0:0:
122,287,63783,2,0,L|111:350,2,52.4999983978271,8|8|8,0:3|0:3|0:0,0:0:0:0:
162,254,64283,2,0,B|212:270|212:270|268:251,1,104.999996795654,4|8,0:0|0:3,0:0:0:0:
300,218,64783,1,8,0:0:0:0:
300,218,64949,2,0,P|353:214|402:239,1,104.999996795654,2|8,0:2|0:3,0:0:0:0:
430,277,65449,1,8,0:0:0:0:
430,277,65616,5,4,0:0:0:0:
487,189,65949,1,8,0:3:0:0:
437,96,66283,2,0,L|306:72,1,104.999996795654,2|8,0:2|0:3,0:0:0:0:
299,37,66783,1,8,0:0:0:0:
299,37,66949,2,0,B|183:47,1,104.999996795654,4|8,0:0|0:0,0:0:0:0:
148,20,67449,1,8,0:0:0:0:
55,69,67783,2,0,L|41:132,1,52.4999983978271,0|8,0:0|0:0,0:0:0:0:
38,172,68116,1,8,0:0:0:0:
38,172,68283,6,0,P|93:131|186:154,1,157.499995193481,4|8,0:0|0:0,0:0:0:0:
212,244,69116,2,0,L|199:309,2,52.4999983978271,8|8|8,0:3|0:3|0:0,0:0:0:0:
263,232,69616,2,0,P|306:258|408:223,1,157.499995193481,4|8,0:0|0:0,0:0:0:0:
475,153,70449,2,0,L|465:94,1,52.4999983978271,8|8,0:3|0:3,0:0:0:0:
456,54,70783,1,10,0:2:0:0:
456,54,70949,6,0,P|391:73|340:52,1,104.999996795654,4|8,0:0|0:3,0:0:0:0:
312,34,71449,1,8,0:0:0:0:
234,104,71783,2,0,L|168:112,2,52.4999983978271,8|8|8,0:3|0:3|0:0,0:0:0:0:
269,143,72283,2,0,L|109:162,1,157.499995193481,4|8,0:0|0:0,0:0:0:0:
63,144,72949,2,0,P|44:194|59:259,1,104.999996795654,4|8,0:0|0:3,0:0:0:0:
80,287,73449,1,8,0:0:0:0:
80,287,73616,6,0,P|130:274|196:270,1,104.999996795654,4|8,0:0|0:3,0:0:0:0:
234,285,74116,1,8,0:0:0:0:
324,337,74449,1,8,0:3:0:0:
423,301,74783,1,8,0:0:0:0:
423,301,74949,2,0,P|439:253|439:180,1,104.999996795654,4|8,0:0|0:3,0:0:0:0:
405,161,75449,1,8,0:0:0:0:
405,161,75616,2,0,P|389:113|389:40,1,104.999996795654,2|8,0:2|0:3,0:0:0:0:
418,17,76116,1,8,0:0:0:0:
418,17,76283,6,0,P|318:58|249:37,1,157.499995193481,4|8,0:0|0:0,0:0:0:0:
195,120,77116,2,0,L|207:191,2,52.4999983978271,8|8|8,0:3|0:3|0:0,0:0:0:0:
256,192,77616,12,4,79783,0:0:0:0:
442,358,80449,6,0,P|457:309|451:252,1,99.9999999999999,4|8,0:0|0:0,0:0:0:0:
417,226,80949,2,0,L|315:236,1,99.9999999999999,0|0,0:0|0:0,0:0:0:0:
278,267,81449,1,8,0:0:0:0:
278,267,81616,2,0,P|241:180|272:128,1,150,4|8,0:3|0:0,0:0:0:0:
347,81,82449,1,8,0:3:0:0:
268,19,82783,1,8,0:0:0:0:
185,75,83116,6,0,P|124:67|78:60,1,99.9999999999999,4|8,0:0|0:0,0:0:0:0:
42,36,83616,2,0,B|18:80|18:80|27:129,1,99.9999999999999,0|8,0:0|0:3,0:0:0:0:
42,176,84116,1,2,0:2:0:0:
42,176,84283,2,0,P|139:188|200:196,1,150,8|8,0:0|0:0,0:0:0:0:
220,290,85116,1,8,0:3:0:0:
318,274,85449,2,0,L|327:332,1,50,8|8,0:0|0:0,0:0:0:0:
333,373,85783,6,0,P|374:349|434:355,1,99.9999999999999,4|2,0:0|0:2,0:0:0:0:
475,343,86283,2,0,P|499:302|493:242,1,99.9999999999999,8|8,0:0|0:3,0:0:0:0:
461,215,86783,1,8,0:0:0:0:
461,215,86949,2,0,L|359:198,1,99.9999999999999,4|8,0:0|0:3,0:0:0:0:
318,223,87449,1,8,0:0:0:0:
220,199,87783,1,8,0:3:0:0:
151,271,88116,1,8,0:0:0:0:
57,236,88449,6,0,P|45:191|36:124,1,99.9999999999999,4|8,0:0|0:0,0:0:0:0:
6,98,88949,2,0,P|60:92|105:80,1,99.9999999999999,0|8,0:0|0:3,0:0:0:0:
136,42,89449,1,2,0:2:0:0:
136,42,89616,2,0,B|198:20|219:78|285:47,1,150,8|8,0:0|0:0,0:0:0:0:
338,130,90449,2,0,P|379:106|430:108,1,99.9999999999999,8|2,0:3|0:2,0:0:0:0:
468,140,90949,1,8,0:0:0:0:
468,140,91116,6,0,L|447:240,1,99.9999999999999,4|8,0:0|0:0,0:0:0:0:
464,285,91616,2,0,P|402:264|358:273,1,99.9999999999999,0|8,0:0|0:3,0:0:0:0:
328,298,92116,1,8,0:0:0:0:
328,298,92283,2,0,B|285:319|285:319|227:307,1,99.9999999999999,2|8,0:2|0:3,0:0:0:0:
189,286,92783,1,8,0:0:0:0:
189,286,92949,2,0,L|77:304,1,99.9999999999999,0|2,0:0|0:2,0:0:0:0:
49,331,93449,1,8,0:0:0:0:
9,239,93783,6,0,P|14:171|26:103,1,99.9999999999999,8|8,0:3|0:0,0:0:0:0:
57,108,94283,2,0,P|110:128|157:113,1,99.9999999999999,0|8,0:0|0:3,0:0:0:0:
222,186,94949,2,0,P|273:171|356:171,1,99.9999999999999,8|8,0:0|0:3,0:0:0:0:
362,192,95449,2,0,P|354:140|387:96,1,99.9999999999999,8|8,0:0|0:3,0:0:0:0:
305,33,96116,2,0,L|232:43,1,50,8|8,0:0|0:0,0:0:0:0:
215,69,96449,6,0,P|158:64|100:58,1,99.9999999999999,4|8,0:0|0:3,0:0:0:0:
70,81,96949,1,8,0:0:0:0:
129,161,97283,2,0,L|111:221,1,50,8|8,0:3|0:0,0:0:0:0:
105,258,97616,2,0,P|155:242|216:235,1,99.9999999999999,2|8,0:2|0:3,0:0:0:0:
246,269,98116,1,8,0:0:0:0:
246,269,98283,2,0,P|289:291|349:284,1,99.9999999999999,0|8,0:0|0:3,0:0:0:0:
384,265,98783,1,8,0:0:0:0:
469,318,99116,6,0,P|487:274|468:218,1,99.9999999999999,8|8,0:3|0:0,0:0:0:0:
439,188,99616,2,0,B|423:142|423:142|439:92,1,99.9999999999999,0|8,0:0|0:3,0:0:0:0:
463,51,100116,1,2,0:2:0:0:
463,51,100283,2,0,P|375:59|282:68,1,150,8|8,0:0|0:0,0:0:0:0:
224,19,101116,2,0,P|203:69|212:124,1,99.9999999999999,8|2,0:3|0:2,0:0:0:0:
247,144,101616,1,8,0:0:0:0:
247,144,101783,6,0,L|129:176,1,99.9999999999999,4|8,0:0|0:0,0:0:0:0:
101,157,102283,2,0,P|84:201|88:270,1,99.9999999999999,2|8,0:0|0:3,0:0:0:0:
99,300,102783,1,8,0:0:0:0:
99,300,102949,6,0,P|143:272|241:285,1,150,6|8,0:0|0:0,0:0:0:0:
303,356,103783,1,8,0:3:0:0:
397,324,104116,1,8,0:0:0:0:
488,365,104449,6,0,P|501:321|506:251,1,99.9999999999999,4|8,0:0|0:0,0:0:0:0:
472,230,104949,2,0,P|458:182|453:132,1,99.9999999999999,2|8,0:0|0:3,0:0:0:0:
484,92,105449,1,12,0:0:0:0:
484,92,105616,2,0,P|392:124|343:102,1,150,8|8,0:3|0:0,0:0:0:0:
270,42,106449,2,0,P|258:62|248:94,1,50,8|8,1:2|1:2,0:0:0:0:
211,120,106783,2,0,P|210:147|216:179,1,50,8|8,0:0|0:0,0:0:0:0:
243,209,107116,6,0,B|319:192|307:255|391:236,2,150,4|12|6,0:0|0:3|0:0,0:0:0:0:
84,330,108783,2,0,P|60:284|63:232,1,99.9999999999999,8|4,0:3|0:0,0:0:0:0:
131,164,109449,1,4,0:0:0:0:
66,87,109783,6,0,L|4:97,2,50,8|8|8,0:3|0:3|0:0,0:0:0:0:
109,61,110283,1,8,0:3:0:0:
109,61,110449,2,0,P|151:36|204:40,1,99.9999999999999,8|8,0:0|0:0,0:0:0:0:
235,75,110949,2,0,L|215:186,1,99.9999999999999,4|0,0:0|0:0,0:0:0:0:
243,216,111449,1,12,0:0:0:0:
398,20,112283,6,0,P|407:107|415:178,1,157.499995193481,12|8,0:0|0:0,0:0:0:0:
458,272,113116,2,0,L|520:257,2,52.4999983978271,0|0|8,0:0|0:0|0:0,0:0:0:0:
415,302,113616,2,0,P|361:290|310:309,1,104.999996795654,4|0,0:0|0:0,0:0:0:0:
277,342,114116,1,8,0:0:0:0:
277,342,114283,2,0,L|163:329,1,104.999996795654,0|0,0:0|0:0,0:0:0:0:
126,354,114783,1,8,0:0:0:0:
126,354,114949,6,0,P|107:299|115:252,1,104.999996795654,4|0,0:0|0:0,0:0:0:0:
153,219,115449,1,8,0:0:0:0:
89,137,115783,2,0,L|9:152,2,52.4999983978271,8|8|8,0:3|0:3|0:0,0:0:0:0:
124,98,116283,2,0,L|234:108,1,104.999996795654,4|0,0:0|0:0,0:0:0:0:
271,138,116783,1,8,0:0:0:0:
271,138,116949,2,0,L|386:121,1,104.999996795654,4|8,0:0|0:3,0:0:0:0:
418,91,117449,1,8,0:0:0:0:
418,91,117616,6,0,P|445:135|441:197,1,104.999996795654,4|0,0:0|0:0,0:0:0:0:
412,228,118116,1,8,0:0:0:0:
461,319,118449,2,0,L|536:306,2,52.4999983978271,8|8|8,0:3|0:3|0:0,0:0:0:0:
417,348,118949,2,0,B|371:364|371:364|319:344,1,104.999996795654,4|8,0:0|0:3,0:0:0:0:
266,338,119449,1,8,0:0:0:0:
266,338,119616,2,0,B|246:291|246:291|268:238,1,104.999996795654,2|8,0:2|0:3,0:0:0:0:
306,206,120116,1,8,0:0:0:0:
306,206,120283,5,4,0:0:0:0:
208,165,120616,1,8,0:3:0:0:
146,250,120949,2,0,P|90:266|41:249,1,104.999996795654,2|8,0:2|0:3,0:0:0:0:
0,272,121449,1,8,0:0:0:0:
0,272,121616,2,0,P|5:212|11:161,1,104.999996795654,4|8,0:0|0:0,0:0:0:0:
18,115,122116,1,8,0:0:0:0:
102,52,122449,2,0,L|166:58,1,52.4999983978271,0|8,0:0|0:0,0:0:0:0:
206,65,122783,1,0,0:0:0:0:
206,65,122949,6,0,P|274:96|349:66,1,157.499995193481,4|8,0:0|0:0,0:0:0:0:
434,127,123783,2,0,L|446:65,2,52.4999983978271,8|8|8,0:3|0:3|0:0,0:0:0:0:
455,175,124283,2,0,B|387:162|367:212|297:189,1,157.499995193481,4|8,0:0|0:0,0:0:0:0:
205,236,125116,2,0,L|217:295,1,52.4999983978271,8|8,0:3|0:3,0:0:0:0:
228,338,125449,1,10,1:2:0:0:
228,338,125616,6,0,P|173:314|122:325,1,104.999996795654,4|8,0:0|0:3,0:0:0:0:
92,357,126116,1,8,0:0:0:0:
49,261,126449,2,0,L|-17:274,2,52.4999983978271,8|8|8,0:3|0:3|0:0,0:0:0:0:
94,234,126949,2,0,P|115:166|83:90,1,157.499995193481,4|8,0:0|0:0,0:0:0:0:
47,50,127616,2,0,P|103:57|160:25,1,104.999996795654,4|8,0:0|0:3,0:0:0:0:
195,19,128116,1,8,0:0:0:0:
195,19,128283,6,0,P|204:68|217:157,1,104.999996795654,4|8,0:0|0:3,0:0:0:0:
192,171,128783,1,8,0:0:0:0:
276,233,129116,1,8,0:3:0:0:
356,165,129449,1,8,0:0:0:0:
356,165,129616,2,0,P|406:161|457:187,1,104.999996795654,4|8,0:0|0:3,0:0:0:0:
504,168,130116,1,8,0:0:0:0:
504,168,130283,2,0,P|476:212|482:270,1,104.999996795654,2|8,0:2|0:3,0:0:0:0:
502,310,130783,1,8,0:0:0:0:
502,310,130949,6,0,P|410:277|358:299,1,157.499995193481,4|8,0:0|0:0,0:0:0:0:
268,352,131783,2,0,L|206:342,2,52.4999983978271,8|8|8,0:3|0:3|0:0,0:0:0:0:
256,192,132283,12,4,134449,0:0:0:0:
90,257,135116,6,0,P|71:213|82:158,1,99.9999999999999,4|10,0:0|0:2,0:0:0:0:
147,89,135783,1,0,0:0:0:0:
226,150,136116,2,0,P|278:139|365:127,1,99.9999999999999,12|8,0:0|0:3,0:0:0:0:
407,187,136783,1,10,0:2:0:0:
329,250,137116,2,0,L|268:235,2,50,4|2|8,0:3|0:2|0:0,0:0:0:0:
371,340,137783,6,0,P|321:337|276:357,1,99.9999999999999,6|8,0:2|0:0,0:0:0:0:
186,311,138449,1,8,0:3:0:0:
99,360,138783,2,0,P|84:322|80:252,1,99.9999999999999,12|8,0:0|0:3,0:0:0:0:
134,180,139449,1,8,0:0:0:0:
46,131,139783,2,0,P|38:98|36:72,1,50,8|8,0:3|0:0,0:0:0:0:
50,33,140116,1,12,1:0:0:0:
141,72,140449,6,0,P|195:80|236:58,1,99.9999999999999,4|8,0:0|0:0,0:0:0:0:
320,8,141116,1,12,0:3:0:0:
395,73,141449,2,0,P|379:125|370:177,1,99.9999999999999,12|12,0:0|0:3,0:0:0:0:
421,256,142116,1,8,0:0:0:0:
343,318,142449,2,0,L|352:385,2,50,8|8|12,0:3|0:0|0:0,0:0:0:0:
254,271,143116,6,0,B|202:287|202:287|154:268,1,99.9999999999999,4|8,0:0|0:0,0:0:0:0:
96,192,143783,1,8,0:3:0:0:
153,109,144116,2,0,B|205:125|205:125|253:106,1,99.9999999999999,12|8,0:0|0:3,0:0:0:0:
314,33,144783,1,8,0:0:0:0:
399,84,145116,2,0,L|389:138,1,50,8|8,1:2|1:2,0:0:0:0:
363,280,145783,5,4,2:0:0:0:
0,59,156449,6,0,L|136:42,1,99.9999999999999,4|0,0:0|0:0,0:0:0:0:
138,15,156949,2,0,P|105:98|96:164,1,150,8|8,0:0|0:0,0:0:0:0:
143,245,157783,1,8,0:3:0:0:
143,245,157949,1,8,0:3:0:0:
85,326,158283,1,8,0:0:0:0:
85,326,158449,2,0,P|149:290|231:301,1,150,8|0,0:0|0:0,0:0:0:0:
256,334,159116,6,0,L|401:321,1,99.9999999999999,4|2,0:0|0:0,0:0:0:0:
400,346,159616,1,8,0:3:0:0:
400,346,159783,2,0,P|417:299|410:228,1,99.9999999999999,8|2,0:0|0:0,0:0:0:0:
350,174,160449,1,8,0:3:0:0:
425,108,160783,2,0,L|486:120,2,50,8|8|2,0:0|0:0|0:3,0:0:0:0:
375,20,161449,1,8,0:3:0:0:
283,59,161783,6,0,P|233:63|153:71,1,99.9999999999999,4|2,0:0|0:0,0:0:0:0:
141,158,162449,2,0,P|190:162|240:166,1,99.9999999999999,8|8,0:3|0:3,0:0:0:0:
296,249,163116,2,0,P|246:253|196:257,1,99.9999999999999,4|8,0:0|0:3,0:0:0:0:
147,248,163616,1,8,0:0:0:0:
147,248,163783,2,0,P|140:307|129:369,1,99.9999999999999,8|8,0:0|0:3,0:0:0:0:
43,302,164449,5,12,0:0:0:0:
43,302,165116,2,0,P|48:252|56:202,1,99.9999999999999,2|8,0:0|0:0,0:0:0:0:
84,106,165783,5,8,0:0:0:0:
178,138,166116,1,8,0:0:0:0:
274,110,166449,1,8,0:0:0:0:
372,147,166783,1,8,0:0:0:0:
469,122,167116,5,0,0:3:0:0:
469,122,168283,6,0,P|454:184|436:286,1,157.499995193481,14|8,1:2|0:0,0:0:0:0:
348,332,169116,2,0,L|359:397,2,52.4999983978271,8|8|8,0:3|0:3|0:0,0:0:0:0:
324,285,169616,2,0,P|261:268|211:283,1,104.999996795654,4|8,0:0|0:3,0:0:0:0:
183,311,170116,1,8,0:0:0:0:
183,311,170283,2,0,L|74:295,1,104.999996795654,2|8,0:2|0:3,0:0:0:0:
34,323,170783,1,8,0:0:0:0:
34,323,170949,6,0,B|15:277|15:277|37:216,1,104.999996795654,4|8,0:0|0:3,0:0:0:0:
84,210,171449,1,8,0:0:0:0:
48,112,171783,2,0,L|-18:123,2,52.4999983978271,8|8|8,0:3|0:3|0:0,0:0:0:0:
80,70,172283,2,0,P|128:85|187:66,1,104.999996795654,4|8,0:0|0:3,0:0:0:0:
216,34,172783,1,8,0:0:0:0:
216,34,172949,2,0,P|221:126|231:228,1,157.499995193481,4|8,0:0|0:0,0:0:0:0:
207,238,173616,6,0,P|258:221|351:220,1,104.999996795654,4|8,0:0|0:3,0:0:0:0:
352,245,174116,1,8,0:0:0:0:
430,314,174449,2,0,L|423:373,2,52.4999983978271,8|8|8,0:3|0:3|0:0,0:0:0:0:
463,273,174949,2,0,P|476:224|458:162,1,104.999996795654,4|8,0:0|0:3,0:0:0:0:
434,136,175449,1,8,0:0:0:0:
434,136,175616,2,0,L|314:121,1,104.999996795654,2|8,0:2|0:3,0:0:0:0:
298,89,176116,1,8,0:0:0:0:
298,89,176283,5,4,0:0:0:0:
204,136,176616,1,8,0:3:0:0:
108,92,176949,2,0,P|79:138|93:198,1,104.999996795654,2|8,0:2|0:3,0:0:0:0:
122,223,177449,1,8,0:0:0:0:
122,223,177616,2,0,P|65:221|25:248,1,104.999996795654,4|8,0:0|0:0,0:0:0:0:
1,292,178116,1,8,0:0:0:0:
87,351,178449,2,0,L|142:343,1,52.4999983978271,0|8,0:0|0:0,0:0:0:0:
191,338,178783,1,8,0:0:0:0:
191,338,178949,6,0,P|233:266|213:188,1,157.499995193481,4|8,0:0|0:0,0:0:0:0:
175,100,179783,2,0,L|105:110,2,52.4999983978271,8|8|8,0:3|0:3|0:0,0:0:0:0:
208,59,180283,2,0,B|260:66|260:66|303:49|303:49|362:57,1,157.499995193481,4|8,0:0|0:0,0:0:0:0:
468,54,181116,2,0,L|481:117,1,52.4999983978271,8|8,0:3|0:3,0:0:0:0:
491,156,181449,1,8,0:0:0:0:
491,156,181616,6,0,P|437:154|386:188,1,104.999996795654,4|8,0:0|0:3,0:0:0:0:
359,218,182116,1,8,0:0:0:0:
430,294,182449,2,0,L|510:280,2,52.4999983978271,8|8|8,0:3|0:3|0:0,0:0:0:0:
393,331,182949,2,0,B|329:315|308:362|238:334,1,157.499995193481,4|8,0:0|0:0,0:0:0:0:
209,290,183616,2,0,P|149:271|108:284,1,104.999996795654,4|8,0:0|0:3,0:0:0:0:
69,315,184116,1,8,0:0:0:0:
69,315,184283,6,0,P|57:259|52:184,1,104.999996795654,4|8,0:0|0:3,0:0:0:0:
20,169,184783,1,8,0:0:0:0:
98,98,185116,1,8,0:3:0:0:
191,155,185449,1,8,0:0:0:0:
191,155,185616,2,0,P|243:158|289:127,1,104.999996795654,4|8,0:0|0:3,0:0:0:0:
322,92,186116,1,8,0:0:0:0:
322,92,186283,2,0,P|378:84|421:110,1,104.999996795654,2|8,0:2|0:3,0:0:0:0:
473,100,186783,1,8,0:0:0:0:
473,100,186949,6,0,P|456:149|447:212,1,104.999996795654,4|8,0:0|0:3,0:0:0:0:
478,244,187449,1,8,0:0:0:0:
398,312,187783,2,0,L|405:369,2,52.4999983978271,0|8|8,0:0|0:3|0:0,0:0:0:0:
375,271,188283,1,4,0:0:0:0:
375,271,188449,2,0,B|323:264|323:264|272:287,1,104.999996795654,8|8,0:0|0:0,0:0:0:0:
185,341,189116,2,0,L|99:330,1,52.4999983978271,12|8,0:3|0:0,0:0:0:0:
84,355,189449,1,8,0:0:0:0:
84,355,189616,2,0,P|62:306|80:249,1,104.999996795654,2|8,2:2|2:3,0:0:0:0:
112,222,190116,5,12,0:0:0:0:
50,136,190449,2,0,L|-22:151,2,52.4999983978271,8|8|8,0:3|0:3|0:0,0:0:0:0:
82,94,190949,2,0,P|131:104|212:109,1,104.999996795654,4|0,0:0|0:0,0:0:0:0:
223,146,191449,1,8,0:0:0:0:
223,146,191616,2,0,P|263:121|334:134,1,104.999996795654,2|8,0:2|0:3,0:0:0:0:
363,153,192116,1,8,0:0:0:0:
363,153,192283,6,0,B|381:199|381:199|360:257,1,104.999996795654,4|8,0:0|0:3,0:0:0:0:
329,292,192783,1,8,0:0:0:0:
232,251,193116,2,0,L|242:183,2,52.4999983978271,8|8|8,0:3|0:3|0:0,0:0:0:0:
223,302,193616,2,0,P|148:278|89:291,1,104.999996795654,4|8,0:0|0:3,0:0:0:0:
80,311,194116,1,8,0:0:0:0:
80,311,194283,2,0,P|25:263|37:183,1,157.499995193481,4|8,0:0|0:0,0:0:0:0:
70,146,194949,6,0,L|192:159,1,104.999996795654,4|8,0:0|0:3,0:0:0:0:
216,125,195449,1,8,0:0:0:0:
140,53,195783,2,0,L|81:46,2,52.4999983978271,8|8|8,0:3|0:3|0:0,0:0:0:0:
185,26,196283,2,0,L|293:38,1,104.999996795654,4|8,0:0|0:3,0:0:0:0:
322,78,196783,1,8,0:0:0:0:
322,78,196949,2,0,P|368:58|423:65,1,104.999996795654,2|8,0:2|0:3,0:0:0:0:
471,93,197449,1,8,0:0:0:0:
471,93,197616,5,4,0:0:0:0:
402,172,197949,1,8,0:3:0:0:
438,270,198283,2,0,P|388:258|317:249,1,104.999996795654,2|10,0:2|0:3,0:0:0:0:
296,286,198783,1,8,0:0:0:0:
296,286,198949,2,0,P|231:313|178:291,1,104.999996795654,4|8,0:0|0:0,0:0:0:0:
160,270,199449,1,12,0:0:0:0:
189,169,199783,2,0,L|246:178,1,52.4999983978271,0|8,0:0|0:0,0:0:0:0:
272,137,200116,1,8,0:0:0:0:
272,137,200283,6,0,L|89:111,1,157.499995193481,4|8,0:0|0:0,0:0:0:0:
31,177,201116,2,0,P|19:147|8:114,2,52.4999983978271,8|8|8,0:3|0:3|0:0,0:0:0:0:
73,208,201616,2,0,P|59:291|42:372,1,157.499995193481,4|8,0:0|0:0,0:0:0:0:
143,328,202449,2,0,L|220:309,1,52.4999983978271,8|8,0:3|0:3,0:0:0:0:
233,280,202783,1,8,0:0:0:0:
233,280,202949,6,0,P|280:272|336:303,1,104.999996795654,4|8,0:0|0:3,0:0:0:0:
360,339,203449,1,8,0:0:0:0:
454,294,203783,2,0,L|516:312,2,52.4999983978271,8|8|8,0:3|0:3|0:0,0:0:0:0:
414,259,204283,2,0,B|425:202|425:202|408:163|408:163|420:104,1,157.499995193481,4|8,0:0|0:0,0:0:0:0:
444,60,204949,2,0,B|395:76|395:76|337:55,1,104.999996795654,4|8,0:0|0:3,0:0:0:0:
299,30,205449,1,8,0:0:0:0:
299,30,205616,6,0,P|245:37|182:50,1,104.999996795654,4|8,0:0|0:3,0:0:0:0:
171,93,206116,1,8,0:0:0:0:
74,51,206449,1,8,0:3:0:0:
8,132,206783,1,8,0:0:0:0:
8,132,206949,2,0,P|3:180|15:234,1,104.999996795654,4|0,0:0|0:0,0:0:0:0:
6,290,207449,1,8,0:0:0:0:
6,290,207616,2,0,P|49:265|112:260,1,104.999996795654,0|0,0:0|0:0,0:0:0:0:
136,218,208116,1,8,0:0:0:0:
136,218,208283,6,0,P|211:240|280:202,1,157.499995193481,4|8,0:0|0:0,0:0:0:0:
356,134,209116,2,0,L|418:145,2,52.4999983978271,8|8|8,0:3|0:3|0:0,0:0:0:0:
256,192,209616,12,4,211783,0:0:0:0:
166,329,212449,6,0,P|111:321|55:314,1,99.9999999999999,4|8,0:0|0:0,0:0:0:0:
12,230,213116,1,8,0:3:0:0:
85,162,213449,2,0,P|138:168|202:128,1,99.9999999999999,12|8,0:0|0:3,0:0:0:0:
239,69,214116,1,10,0:2:0:0:
316,131,214449,2,0,P|313:152|307:183,2,50,8|0|8,0:3|0:0|0:0,0:0:0:0:
391,64,215116,6,0,P|406:110|422:172,1,99.9999999999999,4|8,0:0|0:0,0:0:0:0:
367,245,215783,1,8,0:3:0:0:
391,342,216116,2,0,P|340:325|285:319,1,99.9999999999999,12|8,0:0|0:3,0:0:0:0:
201,354,216783,1,8,0:0:0:0:
108,315,217116,2,0,P|103:297|97:257,1,50,8|8,0:3|0:0,0:0:0:0:
111,217,217449,1,12,0:0:0:0:
195,164,217783,6,0,P|204:115|195:56,1,99.9999999999999,4|8,0:0|0:0,0:0:0:0:
102,35,218449,1,8,0:3:0:0:
31,105,218783,2,0,L|14:224,1,99.9999999999999,12|8,0:0|0:3,0:0:0:0:
98,261,219449,1,8,0:0:0:0:
186,213,219783,2,0,L|196:152,2,50,8|8|12,0:3|0:0|0:0,0:0:0:0:
220,306,220449,6,0,P|264:318|324:290,1,99.9999999999999,4|8,0:0|0:0,0:0:0:0:
391,236,221116,1,8,0:3:0:0:
317,167,221449,2,0,B|299:122|299:122|316:61,1,99.9999999999999,12|8,0:0|0:3,0:0:0:0:
394,13,222116,1,8,0:0:0:0:
477,68,222449,2,0,P|487:90|494:125,1,50,8|8,0:0|0:3,0:0:0:0:
458,150,222783,2,0,P|451:173|441:220,1,50,8|8,0:0|0:0,0:0:0:0:
466,243,223116,5,6,0:0:0:0:
256,192,223616,12,0,231116,0:0:0:0:
