osu file format v14

[General]
AudioFilename: Donut Hole.mp3
AudioLeadIn: 0
PreviewTime: 162366
Countdown: 0
SampleSet: None
StackLeniency: 0.7
Mode: 0
LetterboxInBreaks: 0
WidescreenStoryboard: 1

[Editor]
DistanceSpacing: 1.2
BeatDivisor: 2
GridSize: 8
TimelineZoom: 1.8

[Metadata]
Title:DONUT HOLE
TitleUnicode:ドーナツホール
Artist:Rib
ArtistUnicode:りぶ
Creator:Beren
Version:Insane
Source:
Tags:Pop jpop j-pop cover japanese novelty utaite axey cmn_891127 Lobelia kanor arronchu1207 hachi 米津玄師 vivicat ハチ Yu Suto Masaki Hori REC Yasuhisa Kataoka
BeatmapID:2441515
BeatmapSetID:191759

[Difficulty]
HPDrainRate:5
CircleSize:4
OverallDifficulty:8
ApproachRate:8.8
SliderMultiplier:1.3
SliderTickRate:1

[Events]
//Background and Video events
0,0,"42084000.jpg",0,0
Video,0,"video.avi"
//Break Periods
2,12058,19048
2,86344,93334
2,145392,156191
//Storyboard Layer 0 (Background)
//Storyboard Layer 1 (Fail)
//Storyboard Layer 2 (Pass)
//Storyboard Layer 3 (Foreground)
//Storyboard Layer 4 (Overlay)
//Storyboard Sound Samples

[TimingPoints]
630,238.095238095238,4,1,1,60,1,0
19677,-100,4,1,1,70,0,0
65392,-80,4,2,1,80,0,0
67058,-200,4,1,1,80,0,0
67296,-100,4,1,1,80,0,0
71939,-66.6666666666667,4,1,1,80,0,0
72296,-100,4,1,1,80,0,0
73844,-66.6666666666667,4,1,1,80,0,0
74201,-100,4,1,1,80,0,0
93963,-100,4,1,1,60,0,0
124439,-80,4,2,1,80,0,0
126106,-200,4,1,1,80,0,0
126344,-100,4,1,1,80,0,0
130987,-66.6666666666667,4,1,1,80,0,0
131344,-100,4,1,1,80,0,0
132892,-66.6666666666667,4,1,1,80,0,0
133130,-100,4,1,1,80,0,0
156582,-100,4,1,1,60,0,0
173963,-200,4,1,1,80,0,0
177773,-100,4,1,1,80,0,0
182415,-66.6666666666667,4,1,1,80,0,0
182534,-100,4,1,1,80,0,0
184320,-66.6666666666667,4,1,1,80,0,0
184677,-100,4,1,1,80,0,0
187653,-100,4,1,1,20,0,0
187773,-100,4,1,1,80,0,0
188130,-100,4,2,1,20,0,0
188249,-100,4,1,1,80,0,0
188606,-100,4,2,1,20,0,0
188725,-100,4,1,1,80,0,0
189082,-100,4,2,1,20,0,0
189201,-100,4,1,1,80,0,0
191106,-100,4,1,1,20,0,0
191582,-100,4,1,1,80,0,0

[Colours]
Combo1 : 216,170,12
Combo2 : 190,29,29
Combo3 : 17,111,89
Combo4 : 142,173,48

[HitObjects]
32,324,3963,6,0,L|104:308,1,64.9999999999999,0|6,2:0|2:0,2:0:0:0:
196,288,4439,5,0,0:0:0:0:
196,288,4677,1,8,0:0:0:0:
452,332,4915,1,0,0:0:0:0:
452,332,5154,1,8,0:0:0:0:
360,88,5392,1,0,0:0:0:0:
344,212,5630,1,8,0:0:0:0:
344,212,5749,1,0,0:0:0:0:
344,212,5868,2,0,L|334:276,2,65,2|0|0,2:0|0:0|0:0,0:0:0:0:
80,64,6344,6,0,P|36:104|36:180,1,130,0|8,0:0|0:0,0:0:0:0:
236,148,6820,2,0,P|223:89|157:51,1,130,0|8,0:0|0:0,0:0:0:0:
88,240,7296,2,0,P|144:258|210:220,1,130,0|8,0:0|0:0,0:0:0:0:
296,320,7654,1,0,0:0:0:0:
296,320,7773,2,0,L|312:440,2,65,2|0|0,2:0|0:0|0:0,0:0:0:0:
444,100,8249,5,4,2:0:0:0:
300,316,8487,1,8,0:0:0:0:
500,221,8725,1,0,0:0:0:0:
240,204,8963,1,8,0:0:0:0:
431,328,9201,1,0,0:0:0:0:
316,96,9439,1,8,0:0:0:0:
316,96,9558,1,0,0:0:0:0:
316,96,9677,2,0,L|307:31,2,65,2|0|0,2:0|0:0|0:0,0:0:0:0:
268,216,10154,6,0,L|216:335,1,130,0|8,0:0|0:0,0:0:0:0:
187,111,10630,2,0,L|316:95,1,130,0|8,0:0|0:0,0:0:0:0:
116,236,11106,2,0,L|38:131,1,130,0|8,0:0|0:0,0:0:0:0:
0,312,11463,1,0,0:0:0:0:
0,312,11582,2,0,L|64:400,2,65,2|0|0,2:0|0:0|0:0,0:0:0:0:
460,264,19677,5,4,2:0:0:0:
424,252,19796,1,0,0:0:0:0:
384,256,19915,2,0,P|352:264|332:288,1,65,8|0,0:0|0:0,0:0:0:0:
220,356,20154,2,0,P|156:372|100:344,1,130,0|8,0:0|0:0,0:0:0:0:
44,228,20511,1,0,0:0:0:0:
56,192,20630,2,0,B|70:153|70:153|79:105|79:105|92:67,1,130,0|8,0:0|0:0,0:0:0:0:
196,140,20987,2,0,B|182:177|182:177|173:225|173:225|159:264,1,130,0|0,0:0|0:0,0:0:0:0:
20,348,21344,1,8,0:0:0:0:
56,332,21463,1,8,0:0:0:0:
96,328,21582,6,0,P|128:328|160:344,1,65,0|0,0:0|0:0,0:0:0:0:
288,328,21820,2,0,B|372:328|372:328|424:316,1,130,8|0,0:0|0:0,0:0:0:0:
452,304,22177,1,0,0:0:0:0:
416,184,22296,2,0,P|408:148|416:116,1,65,8|0,1:0|0:0,0:0:0:0:
368,220,22534,2,0,P|384:152|364:92,1,130,0|8,0:0|1:0,0:0:0:0:
286,204,22892,2,0,P|270:272|290:332,1,130,0|8,0:0|0:0,0:0:0:0:
312,356,23249,1,8,0:0:0:0:
504,264,23487,5,4,2:0:0:0:
464,264,23606,1,0,0:0:0:0:
424,264,23725,2,0,L|344:264,1,65,8|0,0:0|0:0,0:0:0:0:
162,204,23963,2,0,P|226:188|288:206,1,130,0|8,0:0|1:0,0:0:0:0:
118,322,24320,1,0,0:0:0:0:
88,296,24439,2,0,P|51:241|49:178,1,130,0|8,0:0|1:0,0:0:0:0:
188,48,24796,2,0,P|224:102|226:165,1,130,0|0,0:0|0:0,0:0:0:0:
228,360,25154,2,0,L|260:300,1,65,8|8,0:0|0:0,0:0:0:0:
344,204,25392,5,0,0:0:0:0:
360,240,25511,1,0,0:0:0:0:
376,276,25630,2,0,L|508:292,1,130,8|0,0:0|0:0,0:0:0:0:
484,164,25987,2,0,L|420:172,2,65,0|8|0,0:0|1:0|0:0,0:0:0:0:
416,52,26344,2,0,L|286:36,1,130,0|8,0:0|1:0,0:0:0:0:
196,128,26701,2,0,L|66:112,1,130,0|8,0:0|0:0,0:0:0:0:
28,108,27058,1,8,0:0:0:0:
144,360,27296,5,4,2:0:0:0:
124,324,27415,1,0,0:0:0:0:
120,284,27534,1,8,0:0:0:0:
128,244,27654,1,0,0:0:0:0:
144,208,27773,2,0,P|124:256|104:208,1,130,0|8,0:0|1:0,0:0:0:0:
184,108,28130,1,8,0:0:0:0:
216,128,28249,2,0,P|252:184|252:248,1,130,0|8,0:0|1:0,0:0:0:0:
0,244,28725,2,0,P|1:179|36:126,1,130,0|8,0:0|0:0,0:0:0:0:
374,32,29201,5,0,0:0:0:0:
359,70,29320,1,0,0:0:0:0:
333,102,29439,2,0,P|282:136|211:125,1,130,8|0,0:0|0:0,0:0:0:0:
63,334,29915,1,8,1:0:0:0:
78,296,30034,1,8,0:0:0:0:
104,264,30154,2,0,P|155:230|226:241,1,130,0|8,0:0|0:0,0:0:0:0:
328,312,30511,1,0,0:0:0:0:
356,336,30630,2,0,P|419:344|472:309,1,130,0|8,0:0|0:0,0:0:0:0:
416,104,31106,6,0,L|392:28,2,65,4|0|8,2:0|0:0|0:0,0:0:0:0:
460,232,31463,1,0,0:0:0:0:
420,224,31582,2,0,B|380:217|380:217|331:216|331:216|288:208,1,130,0|8,0:0|1:0,0:0:0:0:
148,64,31939,1,8,0:0:0:0:
188,72,32058,2,0,B|227:78|227:78|276:79|276:79|319:87,1,130,0|8,0:0|1:0,0:0:0:0:
396,244,32415,2,0,B|356:237|356:237|307:236|307:236|267:228,1,130,0|0,0:0|0:0,0:0:0:0:
228,224,32773,1,8,0:0:0:0:
188,216,32892,1,8,0:0:0:0:
32,208,33011,6,0,L|40:272,1,65,0|0,0:0|0:0,0:0:0:0:
24,308,33249,2,0,P|88:296|156:312,1,130,8|0,0:0|0:0,0:0:0:0:
340,356,33606,1,0,0:0:0:0:
308,336,33725,2,0,P|276:328|240:336,1,65,8|8,1:0|0:0,0:0:0:0:
288,304,33963,2,0,P|351:317|414:305,1,130,0|8,0:0|0:0,0:0:0:0:
448,284,34320,1,0,0:0:0:0:
472,252,34439,1,8,0:0:0:0:
416,40,34915,6,0,P|404:72|408:104,1,65,4|0,2:0|0:0,0:0:0:0:
420,140,35154,2,0,P|441:166|471:178,1,65,8|0,0:0|0:0,0:0:0:0:
360,200,35392,2,0,P|320:152|324:80,1,130,0|8,0:0|1:0,0:0:0:0:
436,268,35749,1,0,0:0:0:0:
404,292,35868,2,0,P|342:302|282:263,1,130,0|8,0:0|1:0,0:0:0:0:
108,328,36225,2,0,P|169:317|229:356,1,130,0|8,0:0|0:0,0:0:0:0:
212,312,36582,2,0,P|200:280|204:244,1,65,8|0,0:0|0:0,0:0:0:0:
312,112,36820,6,0,P|324:144|320:180,1,65,0|0,0:0|0:0,0:0:0:0:
224,160,37058,2,0,L|92:176,1,130,8|0,0:0|0:0,0:0:0:0:
203,250,37415,1,0,0:0:0:0:
243,138,37534,2,0,L|175:146,1,65,8|0,1:0|0:0,0:0:0:0:
312,68,37773,2,0,P|340:128|324:188,1,130,0|8,0:0|1:0,0:0:0:0:
440,308,38130,2,0,P|412:248|428:188,1,130,0|8,1:0|0:0,0:0:0:0:
452,156,38487,1,8,1:0:0:0:
512,32,38725,5,4,2:0:0:0:
476,48,38844,1,0,0:0:0:0:
440,60,38963,2,0,P|408:68|380:56,1,65,8|0,0:0|0:0,0:0:0:0:
252,28,39201,2,0,P|184:16|128:40,1,130,0|8,0:0|1:0,0:0:0:0:
56,132,39558,1,0,0:0:0:0:
52,172,39677,2,0,L|40:304,1,130,0|8,0:0|1:0,0:0:0:0:
156,304,40034,2,0,P|224:316|280:292,1,130,0|0,0:0|0:0,0:0:0:0:
312,268,40392,2,0,P|332:248|344:208,1,65,8|8,0:0|0:0,0:0:0:0:
400,40,40630,5,0,0:0:0:0:
388,76,40749,1,0,0:0:0:0:
396,112,40868,2,0,P|444:144|456:92,1,130,8|0,0:0|0:0,0:0:0:0:
296,80,41225,1,0,0:0:0:0:
288,120,41344,1,8,1:0:0:0:
292,160,41463,1,0,0:0:0:0:
312,192,41582,2,0,P|352:240|420:256,1,130,0|8,0:0|1:0,0:0:0:0:
364,340,41939,2,0,P|425:351|487:319,1,130,0|8,0:0|0:0,0:0:0:0:
504,292,42296,1,8,0:0:0:0:
144,212,42534,6,0,P|116:212|80:228,1,65,4|0,2:0|0:0,0:0:0:0:
208,344,42773,2,0,P|236:344|272:328,1,65,8|0,0:0|1:0,0:0:0:0:
176,196,43011,2,0,P|112:196|52:224,1,130,0|8,0:0|0:0,0:0:0:0:
144,344,43368,1,8,0:0:0:0:
180,356,43487,2,0,P|244:356|304:328,1,130,0|8,0:0|1:0,0:0:0:0:
300,100,43963,2,0,B|289:138|289:138|288:188|288:188|277:230,1,130,0|8,0:0|0:0,0:0:0:0:
452,340,44439,5,0,0:0:0:0:
428,308,44558,1,0,0:0:0:0:
412,272,44677,2,0,P|400:208|432:152,1,130,8|0,0:0|0:0,0:0:0:0:
260,32,45154,1,8,1:0:0:0:
284,64,45273,1,8,0:0:0:0:
300,100,45392,2,0,P|312:164|280:220,1,130,0|8,0:0|1:0,0:0:0:0:
324,348,45749,1,0,0:0:0:0:
296,320,45868,2,0,P|240:289|177:301,1,130,0|8,0:0|0:0,0:0:0:0:
32,332,46344,5,4,2:0:0:0:
56,300,46463,1,0,0:0:0:0:
56,260,46582,1,8,0:0:0:0:
80,228,46701,1,0,0:0:0:0:
80,188,46820,2,0,B|76:156|76:156|108:56,1,130,0|8,0:0|0:0,0:0:0:0:
288,12,47177,1,8,0:0:0:0:
300,48,47296,2,0,B|304:80|304:80|272:180,1,130,0|8,0:0|1:0,0:0:0:0:
148,344,47654,2,0,B|144:312|144:312|176:212,1,130,0|0,0:0|0:0,0:0:0:0:
188,184,48011,1,8,0:0:0:0:
200,148,48130,1,8,0:0:0:0:
300,48,48249,6,0,P|324:64|360:56,1,65,0|0,0:0|0:0,0:0:0:0:
496,20,48487,2,0,P|452:68|452:132,1,130,8|0,0:0|0:0,0:0:0:0:
512,236,48844,2,0,P|488:220|452:228,1,65,0|8,0:0|1:0,0:0:0:0:
280,272,49082,1,0,0:0:0:0:
316,264,49201,2,0,P|360:216|360:152,1,130,0|8,0:0|1:0,0:0:0:0:
288,31,49558,2,0,P|280:62|288:94,1,65,0|8,0:0|0:0,0:0:0:0:
60,324,50154,6,0,B|104:332|104:332|192:320,1,130,4|8,2:0|0:0,0:0:0:0:
188,320,50630,1,0,0:0:0:0:
328,252,50868,1,8,0:0:0:0:
316,236,50987,1,8,0:0:0:0:
304,220,51106,1,0,0:0:0:0:
340,68,51344,2,0,B|296:60|296:60|208:72,1,130,8|0,0:0|0:0,0:0:0:0:
211,71,51820,1,8,0:0:0:0:
60,32,52058,5,0,0:0:0:0:
80,108,52296,1,8,0:0:0:0:
104,184,52534,1,0,0:0:0:0:
92,344,52773,1,8,0:0:0:0:
104,328,52892,1,8,0:0:0:0:
116,312,53011,1,0,0:0:0:0:
264,260,53249,1,8,0:0:0:0:
288,184,53487,1,0,0:0:0:0:
308,108,53725,1,8,0:0:0:0:
456,60,53963,5,0,0:0:0:0:
456,60,54201,2,0,P|440:128|472:176,1,130,8|0,0:0|0:0,0:0:0:0:
476,332,54677,1,8,0:0:0:0:
456,324,54796,1,8,0:0:0:0:
436,316,54915,1,0,0:0:0:0:
284,348,55154,1,8,0:0:0:0:
284,348,55392,2,0,P|300:280|268:232,1,130,0|8,0:0|0:0,0:0:0:0:
124,172,55868,6,0,B|89:192|89:192|55:229|55:229|21:249,2,130,0|8|0,0:0|0:0|0:0,0:0:0:0:
236,64,56582,1,8,0:0:0:0:
244,80,56701,1,8,0:0:0:0:
252,96,56820,1,0,0:0:0:0:
388,172,57058,2,0,B|422:152|422:152|472:141|472:141|506:121,2,130,8|0|8,0:0|0:0|0:0,0:0:0:0:
271,275,57773,6,0,P|239:330|179:348,1,130,4|8,2:0|0:0,0:0:0:0:
179,348,58249,1,0,0:0:0:0:
36,288,58487,1,8,0:0:0:0:
32,268,58606,1,8,0:0:0:0:
28,248,58725,1,0,0:0:0:0:
103,111,58963,2,0,P|135:56|196:39,1,130,8|0,0:0|0:0,0:0:0:0:
196,39,59439,1,8,0:0:0:0:
308,148,59677,5,0,0:0:0:0:
384,128,59915,1,8,0:0:0:0:
452,164,60154,1,0,0:0:0:0:
408,292,60392,1,8,0:0:0:0:
420,308,60511,1,8,0:0:0:0:
432,324,60630,1,0,0:0:0:0:
267,287,60868,1,8,0:0:0:0:
260,208,61106,1,0,0:0:0:0:
308,148,61344,1,8,0:0:0:0:
444,68,61582,5,0,0:0:0:0:
444,68,61820,2,0,L|312:44,1,130,8|0,0:0|0:0,0:0:0:0:
160,24,62296,1,8,0:0:0:0:
164,44,62415,1,8,0:0:0:0:
168,64,62534,1,0,0:0:0:0:
36,152,62773,1,8,0:0:0:0:
36,152,63011,2,0,L|168:176,1,130,0|8,0:0|0:0,0:0:0:0:
300,100,63487,6,0,B|284:124|284:124|292:232,2,130,0|8|0,0:0|0:0|0:0,0:0:0:0:
404,216,64201,1,8,0:0:0:0:
400,236,64320,1,0,0:0:0:0:
396,256,64439,1,0,0:0:0:0:
504,368,64677,2,0,B|520:344|520:344|512:236,2,130,8|0|8,0:0|0:0|0:0,0:0:0:0:
240,304,65392,6,0,B|196:304|196:304|120:320|120:320|80:320,1,162.5,4|0,0:0|0:0,0:0:0:0:
292,240,65749,2,0,P|332:304|288:372,2,162.5,4|4|4,0:0|0:0|0:0,0:0:0:0:
225,29,66344,2,0,P|183:94|224:160,2,162.5,4|4|4,0:0|0:0|0:0,0:0:0:0:
352,104,67058,6,0,L|404:112,1,48.75,8|0,1:0|2:0,0:0:0:0:
432,140,67296,6,0,P|376:116|308:124,1,130,4|8,2:0|0:0,0:0:0:0:
116,284,67654,1,0,0:0:0:0:
136,316,67773,2,0,P|192:340|260:332,1,130,0|8,0:0|0:0,0:0:0:0:
352,240,68130,1,0,0:0:0:0:
432,140,68249,2,0,P|460:160|472:196,1,65,0|0,0:0|0:0,0:0:0:0:
352,240,68487,2,0,B|297:202|322:181|268:143,1,130,8|0,0:0|0:0,0:0:0:0:
136,52,68963,6,0,P|140:89|161:58,1,97.5,8|0,0:0|2:0,0:0:0:0:
144,4,69201,2,0,P|100:52|100:116,1,130,0|8,0:0|0:0,0:0:0:0:
188,248,69558,1,0,0:0:0:0:
222,232,69677,2,0,L|352:240,1,130,0|8,0:0|0:0,0:0:0:0:
500,252,70034,1,0,0:0:0:0:
376,224,70154,2,0,L|312:220,1,65
83,180,70392,2,0,P|60:239|74:301,1,130,8|0,0:0|0:0,0:0:0:0:
268,352,70868,6,0,B|312:332|312:332|368:336,1,97.5,8|0,0:0|2:0,0:0:0:0:
404,324,71106,2,0,L|274:316,1,130,0|8,1:0|0:0,0:0:0:0:
184,128,71463,1,0,0:0:0:0:
208,108,71582,2,0,L|337:115,1,130,0|8,0:0|0:0,0:0:0:0:
424,40,71939,6,0,P|455:135|405:211,1,195.00000743866,4|0,2:0|0:0,0:0:0:0:
204,256,72296,5,8,0:0:0:0:
188,240,72534,2,0,P|216:200|224:256,1,130,0|8,0:0|0:0,0:0:0:0:
112,352,72892,1,0,0:0:0:0:
80,332,73011,2,0,P|48:276|52:212,1,130,0|8,0:0|0:0,0:0:0:0:
116,84,73368,1,0,0:0:0:0:
248,28,73487,2,0,B|284:5|320:32|320:32|283:34|264:51,1,130,0|8,0:0|0:0,0:0:0:0:
244,168,73844,6,0,P|316:120|420:136,1,195.00000743866,4|0,2:0|0:0,0:0:0:0:
448,164,74201,6,0,P|384:136|360:84,1,130,8|0,0:0|0:0,0:0:0:0:
348,232,74677,2,0,B|330:263|330:263|354:277|354:277|334:311,1,97.5,8|0,0:0|2:0,0:0:0:0:
324,336,74915,2,0,P|260:328|204:364,1,130,4|8,2:0|0:0,0:0:0:0:
0,180,75273,1,0,0:0:0:0:
32,200,75392,2,0,P|96:208|152:172,1,130,0|8,0:0|0:0,0:0:0:0:
280,28,75749,1,0,0:0:0:0:
244,128,75868,2,0,P|236:156|252:196,1,65,0|0,0:0|2:0,0:0:0:0:
284,288,76106,2,0,P|320:340|388:352,1,130,8|0,0:0|0:0,0:0:0:0:
200,344,76582,6,0,L|99:357,1,97.5,8|0,1:0|2:0,0:0:0:0:
48,344,76820,2,0,L|196:322,1,130,0|8,0:0|0:0,0:0:0:0:
236,100,77177,1,0,0:0:0:0:
212,80,77296,2,0,L|83:99,1,130,0|8,0:0|0:0,0:0:0:0:
0,216,77654,1,0,0:0:0:0:
120,120,77773,2,0,L|201:109,1,65,0|0,0:0|0:0,0:0:0:0:
356,48,78011,2,0,B|356:88|356:88|368:136|368:136|368:176,1,130,8|0,0:0|0:0,0:0:0:0:
464,284,78487,6,0,P|491:264|469:297,1,97.5,8|0,0:0|2:0,0:0:0:0:
428,276,78725,2,0,P|372:296|304:272,1,130,4|8,2:0|0:0,0:0:0:0:
178,61,79082,1,0,0:0:0:0:
212,80,79201,2,0,P|249:125|250:197,1,130,0|8,0:0|0:0,0:0:0:0:
152,268,79558,1,0,0:0:0:0:
60,337,79677,2,0,P|37:315|36:280,1,65,0|0,0:0|2:0,0:0:0:0:
13,255,79915,2,0,P|13:319|52:369,1,130,8|0,0:0|0:0,0:0:0:0:
108,156,80392,6,0,L|140:60,1,97.5,8|0,0:0|2:0,0:0:0:0:
188,16,80630,2,0,L|137:172,1,130,0|8,0:0|0:0,0:0:0:0:
152,268,80987,1,0,0:0:0:0:
192,272,81106,2,0,B|232:272|256:244|256:244|260:280|232:296,1,130,0|8,0:0|0:0,0:0:0:0:
132,384,81463,1,0,0:0:0:0:
256,304,81582,2,0,P|273:281|273:241,1,65,0|0,0:0|0:0,0:0:0:0:
284,40,81820,2,0,P|272:100|316:152,1,130,8|0,0:0|0:0,0:0:0:0:
476,208,82296,6,0,P|492:244|456:228,1,97.5,8|0,0:0|2:0,0:0:0:0:
420,224,82534,2,0,L|288:240,1,130,4|8,2:0|0:0,0:0:0:0:
120,80,82892,1,0,0:0:0:0:
136,100,83011,2,0,L|268:116,1,130,0|8,0:0|0:0,0:0:0:0:
416,120,83368,1,0,0:0:0:0:
284,88,83487,2,0,L|194:76,1,65,0|0,0:0|2:0,0:0:0:0:
36,20,83725,2,0,P|12:76|36:140,1,130,8|0,0:0|0:0,0:0:0:0:
48,320,84201,6,8,P|96:320|136:284,1,97.5,8|0,0:0|2:0,0:0:0:0:
160,260,84439,2,0,B|200:264|200:264|280:312,1,130,0|8,0:0|0:0,0:0:0:0:
452,356,84796,1,0,0:0:0:0:
420,336,84915,2,0,P|388:280|416:216,1,130,0|8,0:0|0:0,0:0:0:0:
276,60,85392,2,0,L|240:196,1,130,4|0,2:0|0:0,0:0:0:0:
272,160,85749,2,0,L|236:296,1,130,4|4,2:0|0:0,0:0:0:0:
44,308,93963,6,0,P|76:296|116:300,1,65,4|0,2:0|2:0,0:0:0:0:
144,300,94201,2,0,P|176:300|206:289,1,65,8|0,0:0|2:0,0:0:0:0:
296,196,94439,2,0,P|288:256|332:312,1,130,0|8,0:0|1:0,0:0:0:0:
420,220,94796,1,0,0:0:0:0:
432,184,94915,2,0,P|440:124|396:68,1,130,0|8,0:0|1:0,0:0:0:0:
268,76,95273,2,0,L|138:64,1,130,0|0,0:0|0:0,0:0:0:0:
44,156,95630,2,0,L|129:149,1,65,8|0,0:0|0:0,0:0:0:0:
208,236,95868,6,0,L|143:230,1,65,0|0,0:0|0:0,0:0:0:0:
68,336,96106,2,0,L|208:324,1,130,8|0,0:0|0:0,0:0:0:0:
340,348,96463,1,0,0:0:0:0:
340,308,96582,1,8,1:0:0:0:
368,280,96701,1,0,0:0:0:0:
404,268,96820,2,0,B|444:248|444:248|464:212|448:164,1,130,0|8,0:0|1:0,0:0:0:0:
344,24,97177,2,0,P|324:88|344:152,1,130,0|8,0:0|0:0,0:0:0:0:
364,176,97534,1,8,0:0:0:0:
232,108,97773,5,4,2:0:0:0:
192,112,97892,1,0,0:0:0:0:
152,116,98011,2,0,L|76:124,1,65,8|0,0:0|2:0,0:0:0:0:
48,248,98249,2,0,P|36:308|68:288,1,130,0|8,0:0|1:0,0:0:0:0:
168,236,98606,1,0,0:0:0:0:
204,224,98725,2,0,P|268:232|312:284,1,130,0|8,0:0|1:0,0:0:0:0:
168,354,99082,2,0,P|104:346|60:294,1,130,0|0,0:0|0:0,0:0:0:0:
48,248,99439,2,0,P|36:212|44:176,1,65,8|0,0:0|0:0,0:0:0:0:
108,28,99677,6,0,P|120:64|112:100,1,65,0|0,0:0|0:0,0:0:0:0:
80,104,99915,2,0,L|212:92,1,130,8|0,0:0|0:0,0:0:0:0:
440,120,100273,1,0,0:0:0:0:
424,156,100392,1,8,1:0:0:0:
440,192,100511,1,0,0:0:0:0:
424,228,100630,2,0,L|292:216,1,130,0|8,0:0|1:0,0:0:0:0:
192,136,100987,2,0,P|160:188|172:252,1,130,0|8,0:0|0:0,0:0:0:0:
196,284,101344,1,8,0:0:0:0:
444,336,101582,5,4,2:0:0:0:
412,316,101701,1,0,0:0:0:0:
372,308,101820,2,0,P|340:304|296:320,1,65,8|0,0:0|0:0,0:0:0:0:
184,360,102058,2,0,L|48:348,1,130,0|8,0:0|1:0,0:0:0:0:
16,344,102415,1,8,0:0:0:0:
80,228,102534,2,0,B|80:184|80:184|92:140|92:140|92:96,1,130,0|8,0:0|1:0,0:0:0:0:
256,44,103011,2,0,B|256:88|256:88|244:132|244:132|244:172,1,130,0|8,0:0|0:0,0:0:0:0:
244,296,103487,5,0,0:0:0:0:
280,280,103606,1,0,0:0:0:0:
320,276,103725,2,0,P|388:284|432:328,1,130,8|0,0:0|0:0,0:0:0:0:
407,106,104201,1,8,1:0:0:0:
443,123,104320,1,8,0:0:0:0:
472,152,104439,2,0,P|509:209|504:271,1,130,0|8,0:0|1:0,0:0:0:0:
318,164,104796,1,0,0:0:0:0:
304,128,104915,2,0,P|315:60|361:18,1,130,0|8,0:0|0:0,0:0:0:0:
204,96,105392,5,4,2:0:0:0:
168,112,105511,1,0,0:0:0:0:
132,128,105630,1,8,0:0:0:0:
96,144,105749,1,0,0:0:0:0:
64,164,105868,2,0,L|196:152,1,130,0|8,0:0|1:0,0:0:0:0:
300,312,106225,1,8,0:0:0:0:
268,336,106344,2,0,L|138:347,1,130,0|8,0:0|1:0,0:0:0:0:
88,184,106701,2,0,L|220:172,1,130,0|0,0:0|0:0,0:0:0:0:
256,168,107058,2,0,L|232:100,1,65,8|0,0:0|0:0,0:0:0:0:
348,48,107296,6,0,L|428:40,1,65,0|0,0:0|0:0,0:0:0:0:
416,176,107534,2,0,B|426:205|426:205|460:253|460:253|475:295,1,130,8|0,0:0|0:0,0:0:0:0:
248,360,107892,1,0,0:0:0:0:
256,328,108011,1,8,1:0:0:0:
224,304,108130,1,0,0:0:0:0:
232,272,108249,1,0,0:0:0:0:
96,180,108487,1,8,0:0:0:0:
80,144,108606,1,0,0:0:0:0:
64,108,108725,1,8,0:0:0:0:
300,32,109201,6,0,P|300:100|260:144,1,130,4|8,2:0|0:0,0:0:0:0:
260,143,109677,1,0,0:0:0:0:
152,252,109915,1,8,0:0:0:0:
172,248,110034,1,8,0:0:0:0:
192,244,110154,1,0,0:0:0:0:
304,352,110392,2,0,P|304:284|344:240,1,130,8|0,0:0|0:0,0:0:0:0:
343,240,110868,1,8,0:0:0:0:
456,348,111106,5,0,0:0:0:0:
440,272,111344,1,8,0:0:0:0:
424,196,111582,1,0,0:0:0:0:
460,44,111820,1,8,0:0:0:0:
440,40,111939,1,8,0:0:0:0:
420,36,112058,1,0,0:0:0:0:
264,32,112296,1,8,0:0:0:0:
280,108,112534,1,0,0:0:0:0:
296,184,112773,1,8,0:0:0:0:
272,340,113011,5,0,0:0:0:0:
272,340,113249,2,0,B|228:324|228:324|144:340,1,130,8|0,0:0|0:0,0:0:0:0:
12,260,113725,1,8,0:0:0:0:
24,244,113844,1,8,0:0:0:0:
36,228,113963,1,0,0:0:0:0:
72,76,114201,1,8,0:0:0:0:
72,76,114439,2,0,B|116:92|116:92|200:76,1,130,0|8,0:0|0:0,0:0:0:0:
352,104,114915,6,0,B|352:144|352:144|372:196|372:196|372:240,2,130,0|8|0,0:0|0:0|0:0,0:0:0:0:
256,228,115630,1,8,0:0:0:0:
252,248,115749,1,8,1:0:0:0:
248,268,115868,1,0,0:0:0:0:
100,324,116106,2,0,B|100:289|100:289|120:237|120:237|120:197,2,130,8|0|8,0:0|0:0|0:0,0:0:0:0:
256,344,116820,6,0,L|388:336,1,130,4|8,2:0|0:0,0:0:0:0:
385,336,117296,1,0,0:0:0:0:
448,192,117534,1,8,0:0:0:0:
440,172,117654,1,8,0:0:0:0:
432,156,117773,1,0,0:0:0:0:
324,44,118011,2,0,L|192:52,1,130,8|0,0:0|0:0,0:0:0:0:
194,51,118487,1,8,0:0:0:0:
60,128,118725,5,0,0:0:0:0:
132,160,118963,1,8,0:0:0:0:
204,188,119201,1,0,0:0:0:0:
212,344,119439,1,8,0:0:0:0:
232,340,119558,1,8,0:0:0:0:
252,336,119677,1,0,0:0:0:0:
408,336,119915,1,8,0:0:0:0:
428,260,120154,1,0,0:0:0:0:
444,184,120392,1,8,0:0:0:0:
496,36,120630,5,0,0:0:0:0:
496,36,120868,2,0,P|436:16|380:45,1,130,8|0,0:0|0:0,0:0:0:0:
248,124,121344,1,8,0:0:0:0:
252,144,121463,1,8,0:0:0:0:
256,164,121582,1,0,0:0:0:0:
156,284,121820,1,8,0:0:0:0:
156,284,122058,2,0,P|96:304|40:274,1,130,0|8,0:0|0:0,0:0:0:0:
104,132,122534,6,0,B|76:92|76:92|64:4,2,130,0|8|0,0:0|0:0|0:0,0:0:0:0:
252,188,123249,1,8,0:0:0:0:
256,208,123368,1,8,1:0:0:0:
260,228,123487,1,0,0:0:0:0:
412,256,123725,2,0,B|440:296|440:296|452:384,2,130,8|0|8,0:0|0:0|0:0,0:0:0:0:
164,332,124439,6,0,P|84:352|32:296,1,162.5,4|0,0:0|0:0,0:0:0:0:
156,112,124796,2,0,B|106:274,2,162.5,4|4|4,0:0|0:0|0:0,0:0:0:0:
356,272,125392,2,0,B|403:116,2,162.5,4|4|4,0:0|0:0|0:0,0:0:0:0:
232,68,126106,6,0,P|256:60|284:76,1,48.75,8|0,1:0|2:0,0:0:0:0:
292,44,126344,6,0,P|224:48|176:8,1,130,4|8,2:0|0:0,0:0:0:0:
0,180,126701,1,0,0:0:0:0:
36,164,126820,2,0,P|104:160|152:200,1,130,0|8,0:0|0:0,0:0:0:0:
220,336,127177,1,0,0:0:0:0:
340,248,127296,2,0,L|412:232,1,65,0|0,0:0|0:0,0:0:0:0:
232,308,127534,2,0,L|104:336,1,130,8|0,0:0|0:0,0:0:0:0:
352,220,128011,6,0,L|447:198,1,97.5,8|0,0:0|2:0,0:0:0:0:
484,208,128249,2,0,P|460:148|488:88,1,130,0|8,0:0|0:0,0:0:0:0:
252,24,128606,1,0,0:0:0:0:
284,44,128725,2,0,P|308:104|280:164,1,130,0|8,0:0|0:0,0:0:0:0:
192,244,129082,1,0,0:0:0:0:
72,276,129201,2,0,P|40:280|8:272,1,65,0|0,0:0|0:0,0:0:0:0:
216,228,129439,2,0,P|284:216|344:240,1,130,8|0,0:0|0:0,0:0:0:0:
492,332,129915,6,0,P|468:304|512:300,1,97.5,8|0,0:0|2:0,0:0:0:0:
444,272,130154,2,0,L|424:136,1,130,0|8,1:0|0:0,0:0:0:0:
300,32,130511,1,0,0:0:0:0:
336,40,130630,2,0,B|388:52|388:52|376:100|332:104,1,130,0|8,0:0|0:0,0:0:0:0:
168,144,130987,6,0,P|60:136|12:72,1,195.00000743866,4|0,2:0|0:0,0:0:0:0:
224,72,131344,5,8,0:0:0:0:
224,72,131582,2,0,P|256:124|248:192,1,130,0|8,0:0|0:0,0:0:0:0:
44,268,131939,1,0,0:0:0:0:
84,268,132058,2,0,B|120:268|120:268|176:280|176:280|212:280,1,130,0|8,0:0|0:0,0:0:0:0:
452,284,132415,1,0,0:0:0:0:
356,324,132534,2,0,B|344:284|356:248|356:248|316:268|312:312,1,130,0|8,0:0|0:0,0:0:0:0:
213,280,132892,6,0,P|244:192|328:144,1,195.00000743866,4|0,2:0|0:0,0:0:0:0:
368,140,133249,6,0,P|436:152|480:192,1,130,8|0,0:0|0:0,0:0:0:0:
284,84,133725,2,0,B|254:81|265:49|265:49|231:48|239:18,1,97.5,8|0,0:0|2:0,0:0:0:0:
208,20,133963,2,0,P|156:52|92:40,1,130,4|8,2:0|0:0,0:0:0:0:
8,236,134320,1,0,0:0:0:0:
32,204,134439,2,0,P|84:172|148:184,1,130,0|8,0:0|0:0,0:0:0:0:
264,288,134796,1,0,0:0:0:0:
144,304,134915,2,0,L|88:340,1,65,0|0,0:0|0:0,0:0:0:0:
292,300,135154,2,0,L|400:228,1,130,8|0,0:0|0:0,0:0:0:0:
512,92,135630,6,0,B|495:108|466:108|466:108|463:77|500:41,1,97.5,8|0,0:0|2:0,0:0:0:0:
488,32,135868,2,0,P|448:68|452:140,1,130,0|8,0:0|0:0,0:0:0:0:
384,336,136225,1,0,0:0:0:0:
424,328,136344,2,0,P|464:292|460:220,1,130,0|8,0:0|0:0,0:0:0:0:
360,128,136701,1,0,0:0:0:0:
244,60,136820,2,0,P|224:32|224:-4,1,65,0|0,0:0|0:0,0:0:0:0:
264,168,137058,2,0,P|200:172|152:128,1,130,8|0,0:0|0:0,0:0:0:0:
28,12,137534,6,0,P|68:16|44:52,1,97.5,8|0,0:0|2:0,0:0:0:0:
36,84,137773,2,0,P|24:148|56:204,1,130,0|8,0:0|0:0,0:0:0:0:
64,300,138130,1,0,0:0:0:0:
100,284,138249,2,0,B|124:272|136:248|136:248|160:280|136:328,1,130,0|8,0:0|0:0,0:0:0:0:
32,380,138606,1,0,1:0:0:0:
168,328,138725,2,0,L|232:308,1,65,0|0,0:0|0:0,0:0:0:0:
467,311,138963,2,0,L|344:352,1,130,8|0,0:0|0:0,0:0:0:0:
404,240,139439,6,0,B|435:228|435:228|426:202|426:202|460:190,1,97.5,8|0,0:0|2:0,0:0:0:0:
488,176,139677,2,0,P|492:108|452:60,1,130,0|8,0:0|0:0,0:0:0:0:
268,16,140034,1,0,0:0:0:0:
248,48,140154,2,0,P|244:116|284:164,1,130,0|8,0:0|0:0,0:0:0:0:
404,240,140511,1,0,0:0:0:0:
268,192,140630,2,0,P|240:172|228:144,1,65,0|0,0:0|0:0,0:0:0:0:
40,68,140868,2,0,P|78:118|72:182,1,130,8|0,0:0|0:0,0:0:0:0:
8,312,141344,6,0,P|32:288|20:328,1,97.5,8|0,0:0|2:0,0:0:0:0:
4,340,141582,2,0,L|136:332,1,130,4|8,2:0|0:0,0:0:0:0:
224,200,141939,1,0,1:0:0:0:
248,228,142058,2,0,L|380:220,1,130,0|8,0:0|0:0,0:0:0:0:
480,96,142415,1,0,0:0:0:0:
404,192,142534,2,0,L|339:195,1,65,0|0,0:0|0:0,0:0:0:0:
204,180,142773,2,0,P|176:124|196:60,1,130,8|0,0:0|0:0,0:0:0:0:
64,216,143249,6,0,L|32:316,1,97.5,8|0,0:0|2:0,0:0:0:0:
28,336,143487,2,0,P|96:324|148:352,1,130,0|8,0:0|0:0,0:0:0:0:
424,344,143844,1,0,0:0:0:0:
400,372,143963,2,0,P|332:384|280:356,1,130,0|8,0:0|0:0,0:0:0:0:
276,60,144439,2,0,L|240:196,1,130,0|8,0:0|0:0,0:0:0:0:
272,160,144796,2,0,L|236:296,1,130,8|4,0:0|0:0,0:0:0:0:
87,204,156820,5,4,2:0:0:0:
208,248,157058,1,8,0:0:0:0:
117,144,157296,5,4,2:0:0:0:
225,241,157534,1,8,0:0:0:0:
171,98,157773,5,4,2:0:0:0:
237,240,158011,1,8,0:0:0:0:
235,78,158249,5,4,2:0:0:0:
243,246,158487,1,8,0:0:0:0:
336,32,158725,5,4,2:0:0:0:
244,252,158963,1,8,0:0:0:0:
416,64,159201,5,4,2:0:0:0:
234,259,159439,1,8,0:0:0:0:
472,128,159677,5,4,2:0:0:0:
222,256,159915,1,8,0:0:0:0:
496,216,160154,5,12,0:0:0:0:
211,243,160392,1,12,0:0:0:0:
108,240,162534,5,0,0:0:0:0:
176,160,163487,1,0,0:0:0:0:
276,188,164439,1,0,0:0:0:0:
276,292,165392,1,0,0:0:0:0:
176,324,166344,1,0,0:0:0:0:
176,324,167296,5,0,0:0:0:0:
276,292,167773,1,0,0:0:0:0:
380,312,168249,1,0,0:0:0:0:
380,312,169201,5,0,0:0:0:0:
380,312,170154,5,4,2:0:0:0:
356,212,170630,1,0,0:0:0:0:
332,112,171106,1,0,0:0:0:0:
332,112,172058,5,0,0:0:0:0:
356,212,172534,1,8,0:0:0:0:
380,312,173011,1,0,0:0:0:0:
380,312,173963,6,0,L|440:272,1,65,0|8,0:0|0:0,0:0:0:0:
132,284,174439,2,0,L|72:244,1,65,0|8,0:0|0:0,0:0:0:0:
320,200,174915,2,0,L|352:140,1,65,0|8,0:0|0:0,0:0:0:0:
192,156,175392,2,0,L|160:96,1,65,0|8,0:0|0:0,0:0:0:0:
161,98,175868,1,8,0:0:0:0:
161,98,177296,5,8,0:0:0:0:
212,196,177534,2,0,L|272:192,1,48.75,2|0,2:0|2:0,0:0:0:0:
304,188,177773,6,0,P|332:132|328:64,1,130,4|8,2:0|0:0,0:0:0:0:
444,216,178130,1,0,0:0:0:0:
416,232,178249,2,0,P|388:288|392:356,1,130,0|8,0:0|0:0,0:0:0:0:
492,312,178606,1,0,0:0:0:0:
364,360,178725,2,0,L|288:372,1,65,0|0,0:0|0:0,0:0:0:0:
55,352,178963,2,0,L|184:332,1,130,8|0,0:0|0:0,0:0:0:0:
416,232,179439,6,0,P|416:268|400:232,1,97.5,8|0,0:0|2:0,0:0:0:0:
348,232,179677,2,0,B|341:196|341:196|315:140|315:140|310:108,1,130,0|8,0:0|0:0,0:0:0:0:
124,40,180034,1,0,0:0:0:0:
156,64,180154,2,0,B|196:72|232:48|232:48|216:72|220:100,1,130,0|8,0:0|0:0,0:0:0:0:
204,212,180510,1,0,0:0:0:0:
204,252,180630,2,0,P|208:288|224:312,1,65,0|0,0:0|0:0,0:0:0:0:
452,348,180868,2,0,B|420:328|420:328|328:344,1,130,8|0,0:0|0:0,0:0:0:0:
32,352,181344,6,0,L|142:332,1,97.5,8|0,0:0|2:0,0:0:0:0:
152,307,181582,2,0,P|160:243|128:187,1,130,0|8,0:0|0:0,0:0:0:0:
20,24,181939,1,0,0:0:0:0:
0,56,182058,2,0,P|-8:120|24:176,1,130,0|8,0:0|0:0,0:0:0:0:
152,307,182415,6,0,P|232:355|328:335,1,195.00000743866,4|0,2:0|0:0,0:0:0:0:
256,248,182773,5,8,0:0:0:0:
432,272,183011,2,0,B|452:304|444:340|444:340|484:320|476:284,1,130,0|8,0:0|0:0,0:0:0:0:
504,160,183368,1,0,0:0:0:0:
448,40,183487,2,0,P|392:72|380:136,1,130,0|8,0:0|0:0,0:0:0:0:
328,336,183844,1,0,0:0:0:0:
364,328,183963,2,0,P|419:297|432:235,1,130,0|8,0:0|0:0,0:0:0:0:
192,132,184320,6,0,P|244:211|337:234,1,195.00000743866,4|0,2:0|0:0,0:0:0:0:
300,244,184677,6,0,P|244:274|231:336,1,130,8|0,0:0|0:0,0:0:0:0:
48,308,185154,2,0,P|40:344|64:312,1,97.5,8|0,0:0|2:0,0:0:0:0:
68,284,185392,2,0,B|72:236|72:236|117:166,1,130,4|8,2:0|0:0,0:0:0:0:
268,60,185749,1,0,0:0:0:0:
276,100,185868,2,0,B|272:148|272:148|227:218,1,130,0|8,0:0|0:0,0:0:0:0:
340,280,186225,1,0,0:0:0:0:
434,356,186344,2,0,L|472:304,1,65,0|0,0:0|0:0,0:0:0:0:
340,244,186582,2,0,L|262:348,1,130,8|0,0:0|0:0,0:0:0:0:
228,360,187058,5,8,0:0:0:0:
0,256,187296,2,0,B|56:256|56:256|136:276|136:276|192:276,1,195,4|0,2:0|0:0,0:0:0:0:
348,224,187773,2,0,P|349:296|306:237,1,195,0|8,0:0|0:0,0:0:0:0:
428,128,188249,2,0,B|372:128|372:128|292:108|292:108|236:108,1,195,4|0,2:0|0:0,0:0:0:0:
80,60,188725,2,0,P|78:132|121:73,1,195,0|0,0:0|0:0,0:0:0:0:
215,27,189201,2,0,P|307:352|192:34,1,1040,0|0,0:0|0:0,0:0:0:0:
16,324,192296,5,8,0:0:0:0:
24,284,192534,1,0,0:0:0:0:
44,232,192773,2,0,P|80:204|136:200,1,97.5,8|0,0:0|2:0,0:0:0:0:
200,192,193011,2,0,P|136:188|96:140,1,130,4|8,2:0|0:0,0:0:0:0:
212,48,193368,1,0,0:0:0:0:
240,36,193487,2,0,P|304:40|344:88,1,130,0|8,0:0|0:0,0:0:0:0:
356,216,193844,1,0,0:0:0:0:
448,308,193963,2,0,P|468:332|500:336,1,65,0|0,0:0|0:0,0:0:0:0:
384,188,194201,2,0,P|328:224|316:288,1,130,8|0,0:0|0:0,0:0:0:0:
152,368,194677,6,0,P|108:344|60:352,1,97.5,8|0,0:0|2:0,0:0:0:0:
60,300,194915,2,0,P|116:332|180:324,1,130,0|8,0:0|0:0,0:0:0:0:
332,240,195273,1,0,0:0:0:0:
352,216,195392,2,0,P|373:155|354:93,1,130,0|8,0:0|0:0,0:0:0:0:
216,20,195749,1,0,0:0:0:0:
56,108,195868,2,0,L|132:120,1,65,0|0,0:0|0:0,0:0:0:0:
244,44,196106,2,0,L|87:17,1,130,8|0,0:0|0:0,0:0:0:0:
60,208,196582,6,0,P|36:248|48:308,1,97.5,8|0,0:0|2:0,0:0:0:0:
88,328,196820,2,0,P|84:264|120:204,1,130,4|8,2:0|0:0,0:0:0:0:
244,44,197177,1,0,0:0:0:0:
252,80,197296,2,0,P|256:144|220:204,1,130,0|8,0:0|0:0,0:0:0:0:
120,320,197654,1,0,0:0:0:0:
244,300,197773,2,0,L|320:284,1,65,0|0,0:0|0:0,0:0:0:0:
512,316,198011,2,0,L|384:343,1,130,8|0,0:0|0:0,0:0:0:0:
456,216,198487,6,0,P|448:184|468:216,1,97.5,8|0,0:0|2:0,0:0:0:0:
424,224,198725,2,0,P|388:172|396:108,1,130,0|8,0:0|0:0,0:0:0:0:
208,12,199082,1,0,0:0:0:0:
240,32,199201,2,0,P|276:84|268:148,1,130,0|8,0:0|0:0,0:0:0:0:
180,252,199558,1,0,0:0:0:0:
56,324,199677,2,0,L|-20:344,1,65,0|0,0:0|0:0,0:0:0:0:
216,264,199915,2,8,L|341:230,1,130,8|0,0:0|0:0,0:0:0:0:
392,64,200630,5,4,2:0:0:0:
508,168,201106,1,4,2:0:0:0:
420,296,201582,1,4,2:0:0:0:
264,272,202058,1,4,2:0:0:0:
244,116,202534,5,4,2:0:0:0:
92,76,203011,1,4,2:0:0:0:
8,208,203487,1,4,2:0:0:0:
116,320,203963,5,4,2:0:0:0:
256,264,204201,1,8,0:0:0:0:
396,320,204439,1,4,2:0:0:0:
256,264,204677,1,8,0:0:0:0:
364,176,204915,5,4,2:0:0:0:
364,176,205034,2,0,P|380:112|356:48,1,130,4|0,2:0|0:0,0:0:0:0:
148,208,205392,2,0,P|132:272|156:336,1,130,4|0,2:0|0:0,0:0:0:0:
256,192,205868,5,4,2:0:0:0:
256,192,205987,1,0,0:0:0:0:
