osu file format v14

[General]
AudioFilename: audio.mp3
AudioLeadIn: 0
PreviewTime: 65438
Countdown: 0
SampleSet: Normal
StackLeniency: 0.3
Mode: 3
LetterboxInBreaks: 0
SpecialStyle: 0
WidescreenStoryboard: 1

[Editor]
Bookmarks: 19724,50200
DistanceSpacing: 1.3
BeatDivisor: 4
GridSize: 32
TimelineZoom: 1.95

[Metadata]
Title:DONUT HOLE
TitleUnicode:ドーナツホール
Artist:Rib
ArtistUnicode:りぶ
Creator:_FlameL
Version:puxtu's HD
Source:jubeat Qubell
Tags:Ayyri eiri- gumi utaite cover vocaloid puxtu short ver cut Akareh lit120 Kenshi Yonezu 米津玄師 Hachi ハチ -Hakurei- crossbeats REV. SUNSHINE MÚSECA 1+1/2 MUSECA pop'n music うさぎと猫と少年の夢 CAPCOM KONAMI BEMANI
BeatmapID:1572068
BeatmapSetID:623316

[Difficulty]
HPDrainRate:8
CircleSize:4
OverallDifficulty:8
ApproachRate:9.1
SliderMultiplier:1.5
SliderTickRate:1

[Events]
//Background and Video events
0,0,"DONUT.jpg",0,0
//Break Periods
//Storyboard Layer 0 (Background)
//Storyboard Layer 1 (Fail)
//Storyboard Layer 2 (Pass)
//Storyboard Layer 3 (Foreground)
//Storyboard Sound Samples

[TimingPoints]
4486,238.095238095238,4,1,10,50,1,0
67343,-100,4,1,10,50,0,1
86152,-100,4,1,10,50,0,0

[Colours]
Combo1 : 72,200,249
Combo2 : 240,231,51
Combo3 : 55,232,156
Combo4 : 111,230,77
SliderBorder : 240,231,51
SliderTrackOverride : 18,35,45

[HitObjects]
192,192,4009,5,8,0:0:0:0:
320,192,4009,1,0,0:0:0:0:
64,192,4128,128,2,4247:3:0:0:0:
448,192,4128,128,0,4247:0:0:0:0:
448,192,4485,1,4,3:0:0:0:
320,192,4485,1,0,0:0:0:0:
64,192,4485,1,4,0:0:0:0:
192,192,4605,1,0,0:0:0:0:
64,192,4724,5,8,0:0:0:0:
320,192,4724,1,2,0:0:0:0:
448,192,4843,1,0,0:0:0:0:
192,192,4962,1,4,3:0:0:0:
64,192,4962,1,0,0:0:0:0:
320,192,5081,1,0,0:0:0:0:
192,192,5200,1,8,0:0:0:0:
448,192,5200,1,2,0:0:0:0:
64,192,5319,1,0,0:0:0:0:
448,192,5438,1,4,3:0:0:0:
320,192,5438,1,0,0:0:0:0:
192,192,5557,1,0,0:0:0:0:
64,192,5676,1,8,0:0:0:0:
320,192,5676,1,2,0:0:0:0:
448,192,5795,1,4,3:0:0:0:
192,192,5795,1,0,0:0:0:0:
320,192,5914,1,0,0:0:0:0:
192,192,6033,1,4,3:0:0:0:
64,192,6033,1,0,0:0:0:0:
320,192,6152,1,2,0:0:0:0:
448,192,6152,1,8,0:0:0:0:
64,192,6271,1,0,0:0:0:0:
192,192,6390,1,0,0:0:0:0:
320,192,6390,1,4,3:0:0:0:
448,192,6509,1,0,0:0:0:0:
64,192,6628,5,8,0:0:0:0:
192,192,6628,1,2,0:0:0:0:
320,192,6747,1,0,0:0:0:0:
448,192,6866,1,0,0:0:0:0:
64,192,6866,1,4,3:0:0:0:
192,192,6985,1,0,0:0:0:0:
448,192,7105,1,2,0:0:0:0:
320,192,7105,1,8,0:0:0:0:
64,192,7224,1,0,0:0:0:0:
192,192,7343,1,0,0:0:0:0:
448,192,7343,1,4,3:0:0:0:
320,192,7462,1,0,0:0:0:0:
64,192,7581,1,2,0:0:0:0:
448,192,7581,1,8,0:0:0:0:
320,192,7700,1,0,0:0:0:0:
192,192,7700,1,4,3:0:0:0:
64,192,7819,1,0,0:0:0:0:
448,192,7938,1,0,0:0:0:0:
192,192,7938,1,4,3:0:0:0:
64,192,8057,1,8,0:0:0:0:
320,192,8057,1,2,0:0:0:0:
448,192,8176,1,0,0:0:0:0:
320,192,8295,1,4,0:0:0:0:
192,192,8295,1,0,0:0:0:0:
64,192,8295,1,4,3:0:0:0:
448,192,8414,1,0,0:0:0:0:
64,192,8533,5,8,0:0:0:0:
192,192,8533,1,2,0:0:0:0:
320,192,8652,1,0,0:0:0:0:
448,192,8771,1,0,0:0:0:0:
64,192,8771,1,4,3:0:0:0:
192,192,8890,1,0,0:0:0:0:
448,192,9009,1,2,0:0:0:0:
320,192,9009,1,8,0:0:0:0:
192,192,9128,1,0,0:0:0:0:
320,192,9247,1,0,0:0:0:0:
64,192,9247,1,4,3:0:0:0:
448,192,9366,1,0,0:0:0:0:
192,192,9485,1,2,0:0:0:0:
320,192,9485,1,8,0:0:0:0:
448,192,9605,1,0,0:0:0:0:
64,192,9605,1,4,3:0:0:0:
192,192,9724,1,0,0:0:0:0:
64,192,9843,1,0,0:0:0:0:
320,192,9843,1,4,3:0:0:0:
448,192,9962,1,8,0:0:0:0:
192,192,9962,1,2,0:0:0:0:
320,192,10081,1,0,0:0:0:0:
64,192,10200,1,4,3:0:0:0:
448,192,10200,1,0,0:0:0:0:
192,192,10319,1,0,0:0:0:0:
448,192,10438,5,8,0:0:0:0:
320,192,10438,1,2,0:0:0:0:
192,192,10557,1,0,0:0:0:0:
320,192,10676,1,4,3:0:0:0:
64,192,10676,1,0,0:0:0:0:
448,192,10795,1,0,0:0:0:0:
192,192,10914,1,8,0:0:0:0:
64,192,10914,1,2,0:0:0:0:
320,192,11033,1,0,0:0:0:0:
192,192,11152,1,4,3:0:0:0:
448,192,11152,1,0,0:0:0:0:
64,192,11271,1,0,0:0:0:0:
320,192,11390,1,8,0:0:0:0:
448,192,11390,1,2,0:0:0:0:
64,192,11509,1,4,3:0:0:0:
192,192,11509,1,0,0:0:0:0:
448,192,11628,1,0,0:0:0:0:
320,192,11747,1,4,3:0:0:0:
192,192,11747,1,0,0:0:0:0:
64,192,11866,1,2,0:0:0:0:
448,192,11866,1,8,0:0:0:0:
192,192,11985,1,0,0:0:0:0:
448,192,12105,1,4,0:0:0:0:
64,192,12105,1,4,3:0:0:0:
320,192,12105,1,0,0:0:0:0:
192,192,12224,1,0,0:0:0:0:
448,192,12343,5,8,0:0:0:0:
320,192,12343,1,2,0:0:0:0:
64,192,12462,1,0,0:0:0:0:
192,192,12581,1,4,3:0:0:0:
448,192,12581,1,0,0:0:0:0:
64,192,12700,1,0,0:0:0:0:
320,192,12819,1,8,0:0:0:0:
192,192,12819,1,2,0:0:0:0:
448,192,12938,1,0,0:0:0:0:
64,192,13057,1,4,3:0:0:0:
320,192,13057,1,0,0:0:0:0:
192,192,13176,1,0,0:0:0:0:
448,192,13295,1,8,0:0:0:0:
64,192,13295,1,2,0:0:0:0:
192,192,13414,1,4,3:0:0:0:
320,192,13414,1,0,0:0:0:0:
64,192,13533,1,0,0:0:0:0:
320,192,13652,1,4,3:0:0:0:
448,192,13652,1,0,0:0:0:0:
192,192,13771,1,2,0:0:0:0:
64,192,13771,1,8,0:0:0:0:
448,192,13890,1,0,0:0:0:0:
320,192,14009,1,0,0:0:0:0:
192,192,14009,1,4,3:0:0:0:
64,192,14128,1,0,0:0:0:0:
448,192,14247,5,8,0:0:0:0:
320,192,14247,1,2,0:0:0:0:
192,192,14366,1,0,0:0:0:0:
64,192,14485,1,0,0:0:0:0:
448,192,14485,1,4,3:0:0:0:
320,192,14605,1,0,0:0:0:0:
64,192,14724,1,2,0:0:0:0:
192,192,14724,1,8,0:0:0:0:
448,192,14843,1,0,0:0:0:0:
320,192,14962,1,0,0:0:0:0:
64,192,14962,1,4,3:0:0:0:
192,192,15081,1,0,0:0:0:0:
448,192,15200,1,2,0:0:0:0:
64,192,15200,1,8,0:0:0:0:
192,192,15319,1,0,0:0:0:0:
320,192,15319,1,4,3:0:0:0:
448,192,15438,1,0,0:0:0:0:
64,192,15557,1,0,0:0:0:0:
320,192,15557,1,4,3:0:0:0:
448,192,15676,1,8,0:0:0:0:
192,192,15676,1,2,0:0:0:0:
64,192,15795,1,0,0:0:0:0:
192,192,15914,1,4,0:0:0:0:
448,192,15914,1,0,0:0:0:0:
320,192,15914,1,4,3:0:0:0:
64,192,16033,1,0,0:0:0:0:
192,192,16152,5,8,0:0:0:0:
320,192,16152,1,2,0:0:0:0:
448,192,16271,1,0,0:0:0:0:
64,192,16390,1,4,3:0:0:0:
192,192,16390,1,0,0:0:0:0:
320,192,16509,1,0,0:0:0:0:
64,192,16628,1,2,0:0:0:0:
192,192,16628,1,8,0:0:0:0:
448,192,16747,1,0,0:0:0:0:
320,192,16866,1,0,0:0:0:0:
64,192,16866,1,4,3:0:0:0:
192,192,16985,1,0,0:0:0:0:
320,192,17105,1,2,0:0:0:0:
448,192,17105,1,8,0:0:0:0:
192,192,17224,1,0,0:0:0:0:
64,192,17224,1,4,3:0:0:0:
320,192,17343,1,0,0:0:0:0:
448,192,17462,1,0,0:0:0:0:
64,192,17462,1,4,3:0:0:0:
320,192,17581,1,8,0:0:0:0:
192,192,17581,1,2,0:0:0:0:
64,192,17700,1,0,0:0:0:0:
448,192,17819,1,4,3:0:0:0:
320,192,17819,1,0,0:0:0:0:
192,192,17938,1,0,0:0:0:0:
448,192,18057,5,8,0:0:0:0:
64,192,18057,1,2,0:0:0:0:
320,192,18176,1,0,0:0:0:0:
448,192,18295,1,4,3:0:0:0:
192,192,18295,1,0,0:0:0:0:
320,192,18414,1,0,0:0:0:0:
192,192,18533,1,8,0:0:0:0:
64,192,18533,1,2,0:0:0:0:
448,192,18652,1,0,0:0:0:0:
64,192,18771,1,4,3:0:0:0:
320,192,18771,1,0,0:0:0:0:
192,192,18890,1,0,0:0:0:0:
64,192,19009,1,8,0:0:0:0:
448,192,19009,1,2,0:0:0:0:
320,192,19128,1,4,3:0:0:0:
192,192,19128,1,0,0:0:0:0:
448,192,19247,1,0,0:0:0:0:
320,192,19366,1,4,3:0:0:0:
64,192,19366,1,0,0:0:0:0:
192,192,19485,1,2,0:0:0:0:
448,192,19485,1,8,0:0:0:0:
320,192,19605,1,0,0:0:0:0:
64,192,19724,1,4,0:0:0:0:
448,192,19724,1,0,0:0:0:0:
192,192,19724,1,4,3:0:0:0:
320,192,19962,1,2,0:0:0:0:
64,192,19962,1,8,0:0:0:0:
448,192,20200,1,0,0:0:0:0:
192,192,20200,1,4,3:0:0:0:
64,192,20438,1,8,0:0:0:0:
320,192,20438,1,2,0:0:0:0:
320,192,20557,1,2,0:0:0:0:
64,192,20557,1,8,0:0:0:0:
448,192,20676,1,0,0:0:0:0:
192,192,20676,1,4,3:0:0:0:
320,192,20914,1,2,0:0:0:0:
64,192,20914,1,8,0:0:0:0:
192,192,21033,1,4,3:0:0:0:
448,192,21033,1,0,0:0:0:0:
320,192,21152,1,0,0:0:0:0:
448,192,21271,1,0,0:0:0:0:
192,192,21271,1,4,3:0:0:0:
64,192,21390,1,8,0:0:0:0:
320,192,21390,1,2,0:0:0:0:
320,192,21628,1,4,3:0:0:0:
448,192,21628,1,0,0:0:0:0:
192,192,21866,1,2,0:0:0:0:
64,192,21866,1,8,0:0:0:0:
448,192,22105,1,0,0:0:0:0:
320,192,22105,1,4,3:0:0:0:
64,192,22343,1,8,0:0:0:0:
192,192,22343,1,2,0:0:0:0:
192,192,22462,1,2,0:0:0:0:
64,192,22462,1,8,0:0:0:0:
448,192,22581,1,0,0:0:0:0:
320,192,22581,1,4,3:0:0:0:
192,192,22819,1,2,0:0:0:0:
64,192,22819,1,8,0:0:0:0:
320,192,22938,1,4,3:0:0:0:
448,192,22938,1,0,0:0:0:0:
192,192,23057,1,0,0:0:0:0:
448,192,23176,1,0,0:0:0:0:
320,192,23176,1,4,3:0:0:0:
64,192,23295,1,8,0:0:0:0:
192,192,23295,1,2,0:0:0:0:
64,192,23533,1,4,3:0:0:0:
448,192,23533,1,0,0:0:0:0:
192,192,23771,1,8,0:0:0:0:
320,192,23771,1,2,0:0:0:0:
64,192,24009,1,4,3:0:0:0:
448,192,24009,1,0,0:0:0:0:
320,192,24247,1,2,0:0:0:0:
192,192,24247,1,8,0:0:0:0:
192,192,24366,1,8,0:0:0:0:
320,192,24366,1,2,0:0:0:0:
64,192,24485,1,4,3:0:0:0:
448,192,24485,1,0,0:0:0:0:
192,192,24724,1,8,0:0:0:0:
320,192,24724,1,2,0:0:0:0:
448,192,24843,1,0,0:0:0:0:
64,192,24843,1,4,3:0:0:0:
320,192,24962,1,0,0:0:0:0:
64,192,25081,1,4,3:0:0:0:
448,192,25081,1,0,0:0:0:0:
320,192,25200,1,2,0:0:0:0:
192,192,25200,1,8,0:0:0:0:
64,192,25438,1,4,3:0:0:0:
320,192,25438,1,0,0:0:0:0:
192,192,25676,1,2,0:0:0:0:
448,192,25676,1,8,0:0:0:0:
64,192,25914,1,0,0:0:0:0:
320,192,25914,1,4,3:0:0:0:
448,192,26152,1,8,0:0:0:0:
192,192,26152,1,2,0:0:0:0:
192,192,26271,1,2,0:0:0:0:
448,192,26271,1,8,0:0:0:0:
64,192,26390,1,0,0:0:0:0:
320,192,26390,1,4,3:0:0:0:
192,192,26628,1,2,0:0:0:0:
448,192,26628,1,8,0:0:0:0:
320,192,26747,1,4,3:0:0:0:
64,192,26747,1,0,0:0:0:0:
192,192,26866,1,0,0:0:0:0:
64,192,26985,1,0,0:0:0:0:
320,192,26985,1,4,3:0:0:0:
448,192,27105,1,8,0:0:0:0:
192,192,27105,1,2,0:0:0:0:
320,192,27343,1,4,0:0:0:0:
192,192,27343,1,4,3:0:0:0:
64,192,27343,1,0,0:0:0:0:
320,192,27581,1,2,0:0:0:0:
448,192,27581,1,8,0:0:0:0:
64,192,27819,1,0,0:0:0:0:
192,192,27819,1,4,3:0:0:0:
448,192,28057,1,8,0:0:0:0:
320,192,28057,1,2,0:0:0:0:
320,192,28176,1,2,0:0:0:0:
448,192,28176,1,8,0:0:0:0:
64,192,28295,1,0,0:0:0:0:
192,192,28295,1,4,3:0:0:0:
320,192,28533,1,2,0:0:0:0:
448,192,28533,1,8,0:0:0:0:
192,192,28652,1,4,3:0:0:0:
64,192,28652,1,0,0:0:0:0:
448,192,28771,1,0,0:0:0:0:
64,192,28890,1,0,0:0:0:0:
192,192,28890,1,4,3:0:0:0:
448,192,29009,1,8,0:0:0:0:
320,192,29009,1,2,0:0:0:0:
320,192,29247,1,4,3:0:0:0:
192,192,29247,1,0,0:0:0:0:
448,192,29485,1,8,0:0:0:0:
64,192,29485,1,2,0:0:0:0:
320,192,29724,1,4,3:0:0:0:
192,192,29724,1,0,0:0:0:0:
64,192,29962,1,2,0:0:0:0:
448,192,29962,1,8,0:0:0:0:
448,192,30081,1,8,0:0:0:0:
64,192,30081,1,2,0:0:0:0:
320,192,30200,1,4,3:0:0:0:
192,192,30200,1,0,0:0:0:0:
448,192,30438,1,8,0:0:0:0:
64,192,30438,1,2,0:0:0:0:
192,192,30557,1,0,0:0:0:0:
320,192,30557,1,4,3:0:0:0:
64,192,30676,1,0,0:0:0:0:
320,192,30795,1,4,3:0:0:0:
192,192,30795,1,0,0:0:0:0:
64,192,30914,1,2,0:0:0:0:
448,192,30914,1,8,0:0:0:0:
192,192,31152,1,4,0:0:0:0:
448,192,31152,1,4,3:0:0:0:
64,192,31152,1,0,0:0:0:0:
64,192,31390,1,8,0:0:0:0:
320,192,31390,1,2,0:0:0:0:
192,192,31628,1,4,3:0:0:0:
448,192,31628,1,0,0:0:0:0:
320,192,31866,1,2,0:0:0:0:
64,192,31866,1,8,0:0:0:0:
64,192,31985,1,8,0:0:0:0:
320,192,31985,1,2,0:0:0:0:
192,192,32105,1,4,3:0:0:0:
448,192,32105,1,0,0:0:0:0:
64,192,32343,1,8,0:0:0:0:
320,192,32343,1,2,0:0:0:0:
448,192,32462,1,0,0:0:0:0:
192,192,32462,1,4,3:0:0:0:
320,192,32581,1,0,0:0:0:0:
192,192,32700,1,4,3:0:0:0:
448,192,32700,1,0,0:0:0:0:
320,192,32819,1,2,0:0:0:0:
64,192,32819,1,8,0:0:0:0:
448,192,33057,1,0,0:0:0:0:
320,192,33057,1,4,3:0:0:0:
64,192,33295,1,8,0:0:0:0:
192,192,33295,1,2,0:0:0:0:
320,192,33533,1,4,3:0:0:0:
448,192,33533,1,0,0:0:0:0:
192,192,33771,1,2,0:0:0:0:
64,192,33771,1,8,0:0:0:0:
64,192,33890,1,8,0:0:0:0:
192,192,33890,1,2,0:0:0:0:
320,192,34009,1,4,3:0:0:0:
448,192,34009,1,0,0:0:0:0:
448,192,34247,1,0,0:0:0:0:
64,192,34247,1,8,0:0:0:0:
192,192,34247,1,2,0:0:0:0:
320,192,34366,1,0,0:0:0:0:
64,192,34485,1,8,0:0:0:0:
448,192,34485,1,0,0:0:0:0:
192,192,34485,1,2,0:0:0:0:
448,192,34962,1,4,0:0:0:0:
64,192,34962,1,0,0:0:0:0:
320,192,34962,1,4,3:0:0:0:
192,192,35200,1,2,0:0:0:0:
448,192,35200,1,8,0:0:0:0:
64,192,35438,1,0,0:0:0:0:
320,192,35438,1,4,3:0:0:0:
448,192,35676,1,8,0:0:0:0:
192,192,35676,1,2,0:0:0:0:
192,192,35795,1,2,0:0:0:0:
448,192,35795,1,8,0:0:0:0:
64,192,35914,1,0,0:0:0:0:
320,192,35914,1,4,3:0:0:0:
192,192,36152,1,2,0:0:0:0:
448,192,36152,1,8,0:0:0:0:
320,192,36271,1,4,3:0:0:0:
64,192,36271,1,0,0:0:0:0:
192,192,36390,1,0,0:0:0:0:
64,192,36509,1,0,0:0:0:0:
320,192,36509,1,4,3:0:0:0:
448,192,36628,1,8,0:0:0:0:
192,192,36628,1,2,0:0:0:0:
192,192,36866,1,4,3:0:0:0:
64,192,36866,1,0,0:0:0:0:
320,192,37105,1,2,0:0:0:0:
448,192,37105,1,8,0:0:0:0:
64,192,37343,1,0,0:0:0:0:
192,192,37343,1,4,3:0:0:0:
448,192,37581,1,8,0:0:0:0:
320,192,37581,1,2,0:0:0:0:
320,192,37700,1,2,0:0:0:0:
448,192,37700,1,8,0:0:0:0:
64,192,37819,1,0,0:0:0:0:
192,192,37819,1,4,3:0:0:0:
320,192,38057,1,2,0:0:0:0:
448,192,38057,1,8,0:0:0:0:
192,192,38176,1,4,3:0:0:0:
64,192,38176,1,0,0:0:0:0:
320,192,38295,1,0,0:0:0:0:
64,192,38414,1,0,0:0:0:0:
192,192,38414,1,4,3:0:0:0:
448,192,38533,1,8,0:0:0:0:
320,192,38533,1,2,0:0:0:0:
448,192,38771,1,4,3:0:0:0:
64,192,38771,1,0,0:0:0:0:
320,192,39009,1,8,0:0:0:0:
192,192,39009,1,2,0:0:0:0:
448,192,39247,1,4,3:0:0:0:
64,192,39247,1,0,0:0:0:0:
192,192,39485,1,2,0:0:0:0:
320,192,39485,1,8,0:0:0:0:
320,192,39605,1,8,0:0:0:0:
192,192,39605,1,2,0:0:0:0:
448,192,39724,1,4,3:0:0:0:
64,192,39724,1,0,0:0:0:0:
320,192,39962,1,8,0:0:0:0:
192,192,39962,1,2,0:0:0:0:
64,192,40081,1,0,0:0:0:0:
448,192,40081,1,4,3:0:0:0:
192,192,40200,1,0,0:0:0:0:
448,192,40319,1,4,3:0:0:0:
64,192,40319,1,0,0:0:0:0:
192,192,40438,1,2,0:0:0:0:
320,192,40438,1,8,0:0:0:0:
448,192,40676,1,4,3:0:0:0:
192,192,40676,1,0,0:0:0:0:
320,192,40914,1,2,0:0:0:0:
64,192,40914,1,8,0:0:0:0:
448,192,41152,1,0,0:0:0:0:
192,192,41152,1,4,3:0:0:0:
64,192,41390,1,8,0:0:0:0:
320,192,41390,1,2,0:0:0:0:
320,192,41509,1,2,0:0:0:0:
64,192,41509,1,8,0:0:0:0:
448,192,41628,1,0,0:0:0:0:
192,192,41628,1,4,3:0:0:0:
320,192,41866,1,2,0:0:0:0:
64,192,41866,1,8,0:0:0:0:
192,192,41985,1,4,3:0:0:0:
448,192,41985,1,0,0:0:0:0:
320,192,42105,1,0,0:0:0:0:
448,192,42224,1,0,0:0:0:0:
192,192,42224,1,4,3:0:0:0:
64,192,42343,1,8,0:0:0:0:
320,192,42343,1,2,0:0:0:0:
192,192,42581,1,4,0:0:0:0:
320,192,42581,1,4,3:0:0:0:
448,192,42581,1,0,0:0:0:0:
192,192,42819,1,2,0:0:0:0:
64,192,42819,1,8,0:0:0:0:
448,192,43057,1,0,0:0:0:0:
320,192,43057,1,4,3:0:0:0:
64,192,43295,1,8,0:0:0:0:
192,192,43295,1,2,0:0:0:0:
192,192,43414,1,2,0:0:0:0:
64,192,43414,1,8,0:0:0:0:
448,192,43533,1,0,0:0:0:0:
320,192,43533,1,4,3:0:0:0:
192,192,43771,1,2,0:0:0:0:
64,192,43771,1,8,0:0:0:0:
320,192,43890,1,4,3:0:0:0:
448,192,43890,1,0,0:0:0:0:
64,192,44009,1,0,0:0:0:0:
448,192,44128,1,0,0:0:0:0:
320,192,44128,1,4,3:0:0:0:
64,192,44247,1,8,0:0:0:0:
192,192,44247,1,2,0:0:0:0:
192,192,44485,1,4,3:0:0:0:
320,192,44485,1,0,0:0:0:0:
64,192,44724,1,8,0:0:0:0:
448,192,44724,1,2,0:0:0:0:
192,192,44962,1,4,3:0:0:0:
320,192,44962,1,0,0:0:0:0:
448,192,45200,1,2,0:0:0:0:
64,192,45200,1,8,0:0:0:0:
64,192,45319,1,8,0:0:0:0:
448,192,45319,1,2,0:0:0:0:
192,192,45438,1,4,3:0:0:0:
320,192,45438,1,0,0:0:0:0:
64,192,45676,1,8,0:0:0:0:
448,192,45676,1,2,0:0:0:0:
320,192,45795,1,0,0:0:0:0:
192,192,45795,1,4,3:0:0:0:
448,192,45914,1,0,0:0:0:0:
192,192,46033,1,4,3:0:0:0:
320,192,46033,1,0,0:0:0:0:
448,192,46152,1,2,0:0:0:0:
64,192,46152,1,8,0:0:0:0:
320,192,46390,1,4,0:0:0:0:
64,192,46390,1,4,3:0:0:0:
448,192,46390,1,0,0:0:0:0:
448,192,46628,1,8,0:0:0:0:
192,192,46628,1,2,0:0:0:0:
320,192,46866,1,4,3:0:0:0:
64,192,46866,1,0,0:0:0:0:
192,192,47105,1,2,0:0:0:0:
448,192,47105,1,8,0:0:0:0:
448,192,47224,1,8,0:0:0:0:
192,192,47224,1,2,0:0:0:0:
320,192,47343,1,4,3:0:0:0:
64,192,47343,1,0,0:0:0:0:
448,192,47581,1,8,0:0:0:0:
192,192,47581,1,2,0:0:0:0:
64,192,47700,1,0,0:0:0:0:
320,192,47700,1,4,3:0:0:0:
192,192,47819,1,0,0:0:0:0:
320,192,47938,1,4,3:0:0:0:
64,192,47938,1,0,0:0:0:0:
192,192,48057,1,2,0:0:0:0:
448,192,48057,1,8,0:0:0:0:
64,192,48295,1,0,0:0:0:0:
192,192,48295,1,4,3:0:0:0:
448,192,48533,1,8,0:0:0:0:
320,192,48533,1,2,0:0:0:0:
192,192,48771,1,4,3:0:0:0:
64,192,48771,1,0,0:0:0:0:
320,192,49009,1,2,0:0:0:0:
448,192,49009,1,8,0:0:0:0:
448,192,49128,1,8,0:0:0:0:
320,192,49128,1,2,0:0:0:0:
192,192,49247,1,4,3:0:0:0:
64,192,49247,1,0,0:0:0:0:
64,192,49485,1,0,0:0:0:0:
448,192,49485,1,8,0:0:0:0:
320,192,49485,1,2,0:0:0:0:
192,192,49605,1,0,0:0:0:0:
448,192,49724,128,8,50200:0:0:0:0:
64,192,49724,1,0,0:0:0:0:
320,192,49724,1,2,0:0:0:0:
64,192,50200,1,4,0:0:0:0:
320,192,50200,1,0,0:0:0:0:
192,192,50200,128,4,50319:3:0:0:0:
448,192,50319,128,0,50438:0:0:0:0:
320,192,50438,1,2,0:0:0:0:
64,192,50438,1,8,0:0:0:0:
320,192,50676,1,0,0:0:0:0:
192,192,50676,1,4,3:0:0:0:
192,192,50914,1,8,0:0:0:0:
448,192,50914,1,2,0:0:0:0:
320,192,51033,1,2,0:0:0:0:
64,192,51033,1,8,0:0:0:0:
448,192,51152,1,0,0:0:0:0:
192,192,51152,1,4,3:0:0:0:
320,192,51390,1,2,0:0:0:0:
64,192,51390,1,8,0:0:0:0:
192,192,51509,1,4,3:0:0:0:
448,192,51509,1,0,0:0:0:0:
64,192,51628,1,0,0:0:0:0:
448,192,51747,1,0,0:0:0:0:
320,192,51747,1,4,3:0:0:0:
64,192,51866,1,8,0:0:0:0:
192,192,51866,1,2,0:0:0:0:
448,192,52105,1,0,0:0:0:0:
64,192,52105,128,4,52224:3:0:0:0:
320,192,52224,128,0,52343:0:0:0:0:
448,192,52343,1,8,0:0:0:0:
192,192,52343,1,2,0:0:0:0:
192,192,52581,1,0,0:0:0:0:
320,192,52581,1,4,3:0:0:0:
320,192,52819,1,8,0:0:0:0:
448,192,52819,1,2,0:0:0:0:
192,192,52938,1,2,0:0:0:0:
64,192,52938,1,8,0:0:0:0:
448,192,53057,1,0,0:0:0:0:
320,192,53057,1,4,3:0:0:0:
448,192,53295,1,2,0:0:0:0:
64,192,53295,1,8,0:0:0:0:
320,192,53414,1,4,3:0:0:0:
192,192,53414,1,0,0:0:0:0:
64,192,53533,1,0,0:0:0:0:
320,192,53652,1,0,0:0:0:0:
448,192,53652,1,4,3:0:0:0:
64,192,53771,1,8,0:0:0:0:
192,192,53771,1,2,0:0:0:0:
192,192,54009,1,4,3:0:0:0:
448,192,54009,128,0,54128:0:0:0:0:
320,192,54128,128,0,54247:0:0:0:0:
192,192,54247,1,8,0:0:0:0:
64,192,54247,1,2,0:0:0:0:
448,192,54485,1,4,3:0:0:0:
320,192,54485,1,0,0:0:0:0:
192,192,54724,1,2,0:0:0:0:
448,192,54724,1,8,0:0:0:0:
64,192,54843,1,8,0:0:0:0:
320,192,54843,1,2,0:0:0:0:
192,192,54962,1,4,3:0:0:0:
448,192,54962,1,0,0:0:0:0:
192,192,55200,1,8,0:0:0:0:
320,192,55200,1,2,0:0:0:0:
448,192,55319,1,0,0:0:0:0:
64,192,55319,1,4,3:0:0:0:
320,192,55438,1,0,0:0:0:0:
192,192,55557,1,4,3:0:0:0:
64,192,55557,1,0,0:0:0:0:
448,192,55676,1,2,0:0:0:0:
320,192,55676,1,8,0:0:0:0:
448,192,55914,1,4,3:0:0:0:
192,192,55914,1,0,0:0:0:0:
320,192,56152,1,2,0:0:0:0:
64,192,56152,1,8,0:0:0:0:
448,192,56390,1,0,0:0:0:0:
192,192,56390,1,4,3:0:0:0:
64,192,56628,1,8,0:0:0:0:
192,192,56628,1,2,0:0:0:0:
320,192,56747,1,2,0:0:0:0:
448,192,56747,1,8,0:0:0:0:
192,192,56866,1,4,3:0:0:0:
64,192,56866,1,0,0:0:0:0:
192,192,57105,1,2,0:0:0:0:
320,192,57105,1,8,0:0:0:0:
448,192,57224,1,4,3:0:0:0:
64,192,57224,1,0,0:0:0:0:
320,192,57343,1,0,0:0:0:0:
448,192,57462,1,0,0:0:0:0:
192,192,57462,1,4,3:0:0:0:
64,192,57581,1,8,0:0:0:0:
320,192,57581,1,2,0:0:0:0:
448,192,57819,1,4,3:0:0:0:
64,192,57819,1,0,0:0:0:0:
192,192,57819,128,4,57938:0:0:0:0:
320,192,57938,128,0,58057:0:0:0:0:
64,192,58057,1,2,0:0:0:0:
448,192,58057,1,8,0:0:0:0:
192,192,58295,1,0,0:0:0:0:
320,192,58295,1,4,3:0:0:0:
448,192,58533,1,8,0:0:0:0:
64,192,58533,1,2,0:0:0:0:
320,192,58652,1,2,0:0:0:0:
192,192,58652,1,8,0:0:0:0:
448,192,58771,1,0,0:0:0:0:
64,192,58771,1,4,3:0:0:0:
320,192,59009,1,2,0:0:0:0:
448,192,59009,1,8,0:0:0:0:
192,192,59128,1,4,3:0:0:0:
64,192,59128,1,0,0:0:0:0:
448,192,59247,1,0,0:0:0:0:
64,192,59366,1,0,0:0:0:0:
320,192,59366,1,4,3:0:0:0:
448,192,59485,1,8,0:0:0:0:
192,192,59485,1,2,0:0:0:0:
64,192,59724,1,0,0:0:0:0:
320,192,59724,128,4,59843:3:0:0:0:
192,192,59843,128,0,59962:0:0:0:0:
448,192,59962,1,8,0:0:0:0:
64,192,59962,1,2,0:0:0:0:
320,192,60200,1,4,3:0:0:0:
192,192,60200,1,0,0:0:0:0:
64,192,60438,1,2,0:0:0:0:
448,192,60438,1,8,0:0:0:0:
320,192,60557,1,8,0:0:0:0:
192,192,60557,1,2,0:0:0:0:
448,192,60676,1,4,3:0:0:0:
64,192,60676,1,0,0:0:0:0:
448,192,60914,1,8,0:0:0:0:
192,192,60914,1,2,0:0:0:0:
64,192,61033,1,0,0:0:0:0:
320,192,61033,1,4,3:0:0:0:
192,192,61152,1,0,0:0:0:0:
320,192,61271,1,4,3:0:0:0:
448,192,61271,1,0,0:0:0:0:
64,192,61390,1,2,0:0:0:0:
192,192,61390,1,8,0:0:0:0:
448,192,61628,1,0,0:0:0:0:
64,192,61628,128,4,61747:3:0:0:0:
320,192,61747,128,0,61866:0:0:0:0:
192,192,61866,1,8,0:0:0:0:
448,192,61866,1,2,0:0:0:0:
64,192,62105,1,4,3:0:0:0:
320,192,62105,1,0,0:0:0:0:
192,192,62343,1,2,0:0:0:0:
64,192,62343,1,8,0:0:0:0:
448,192,62462,1,8,0:0:0:0:
320,192,62462,1,2,0:0:0:0:
192,192,62581,1,4,3:0:0:0:
64,192,62581,1,0,0:0:0:0:
448,192,62819,1,8,0:0:0:0:
320,192,62819,1,2,0:0:0:0:
64,192,62938,1,0,0:0:0:0:
192,192,62938,1,4,3:0:0:0:
320,192,63057,1,0,0:0:0:0:
64,192,63176,1,4,3:0:0:0:
448,192,63176,1,0,0:0:0:0:
320,192,63295,1,2,0:0:0:0:
192,192,63295,1,8,0:0:0:0:
448,192,63533,1,0,0:0:0:0:
64,192,63533,1,4,3:0:0:0:
64,192,63771,1,8,0:0:0:0:
192,192,63771,1,2,0:0:0:0:
320,192,64009,1,4,3:0:0:0:
448,192,64009,1,0,0:0:0:0:
192,192,64247,1,2,0:0:0:0:
64,192,64247,1,8,0:0:0:0:
320,192,64366,1,8,0:0:0:0:
448,192,64366,1,2,0:0:0:0:
64,192,64485,1,4,3:0:0:0:
192,192,64485,1,0,0:0:0:0:
64,192,64724,1,8,0:0:0:0:
320,192,64724,1,2,0:0:0:0:
192,192,64843,1,4,3:0:0:0:
448,192,64843,1,0,0:0:0:0:
64,192,64962,1,0,0:0:0:0:
320,192,65081,1,4,3:0:0:0:
448,192,65081,1,0,0:0:0:0:
64,192,65200,1,8,0:0:0:0:
192,192,65200,1,2,0:0:0:0:
192,192,65438,1,8,0:0:0:0:
320,192,65438,1,4,3:0:0:0:
448,192,65438,1,0,0:0:0:0:
448,192,65795,1,0,0:0:0:0:
64,192,65795,1,8,0:0:0:0:
320,192,65795,1,4,3:0:0:0:
64,192,66033,1,8,0:0:0:0:
192,192,66033,1,4,3:0:0:0:
448,192,66033,1,0,0:0:0:0:
448,192,66271,1,8,0:0:0:0:
320,192,66271,1,4,3:0:0:0:
64,192,66390,1,4,3:0:0:0:
192,192,66390,1,8,0:0:0:0:
320,192,66628,1,4,3:0:0:0:
192,192,66628,1,8,0:0:0:0:
448,192,66628,1,0,0:0:0:0:
64,192,66866,1,0,0:0:0:0:
192,192,66866,1,8,0:0:0:0:
320,192,66866,1,4,3:0:0:0:
448,192,67343,128,0,68295:0:0:0:0:
64,192,67343,1,4,3:0:0:0:
320,192,67343,1,4,0:0:0:0:
192,192,67581,1,8,0:0:0:0:
320,192,67581,1,2,0:0:0:0:
64,192,67819,1,4,3:0:0:0:
192,192,67819,1,0,0:0:0:0:
320,192,68057,1,2,0:0:0:0:
64,192,68057,1,8,0:0:0:0:
192,192,68295,1,4,3:0:0:0:
64,192,68295,128,0,69247:0:0:0:0:
192,192,68533,1,2,0:0:0:0:
320,192,68533,1,8,0:0:0:0:
448,192,68771,1,4,3:0:0:0:
320,192,68771,1,0,0:0:0:0:
192,192,69009,1,2,0:0:0:0:
448,192,69009,1,8,0:0:0:0:
320,192,69247,128,0,70200:0:0:0:0:
192,192,69247,1,4,3:0:0:0:
448,192,69485,1,8,0:0:0:0:
64,192,69485,1,2,0:0:0:0:
192,192,69724,1,0,0:0:0:0:
64,192,69724,1,4,3:0:0:0:
448,192,69962,1,8,0:0:0:0:
192,192,69962,1,2,0:0:0:0:
448,192,70200,1,4,3:0:0:0:
192,192,70200,128,0,71152:0:0:0:0:
64,192,70438,1,2,0:0:0:0:
320,192,70438,1,8,0:0:0:0:
448,192,70676,1,4,3:0:0:0:
320,192,70676,1,0,0:0:0:0:
64,192,70914,1,2,0:0:0:0:
448,192,70914,1,8,0:0:0:0:
448,192,71152,128,0,71628:0:0:0:0:
64,192,71152,1,4,3:0:0:0:
192,192,71390,1,8,0:0:0:0:
320,192,71390,1,2,0:0:0:0:
64,192,71628,1,4,3:0:0:0:
192,192,71628,1,0,0:0:0:0:
320,192,71747,1,0,0:0:0:0:
192,192,71866,1,2,0:0:0:0:
448,192,71866,1,8,0:0:0:0:
320,192,71985,1,4,0:0:0:0:
64,192,71985,128,0,72581:0:0:0:0:
448,192,72224,1,0,0:0:0:0:
192,192,72343,1,2,0:0:0:0:
320,192,72343,1,8,0:0:0:0:
192,192,72581,1,4,3:0:0:0:
448,192,72581,1,0,0:0:0:0:
64,192,72819,1,2,0:0:0:0:
320,192,72819,1,8,0:0:0:0:
448,192,73057,128,0,73533:0:0:0:0:
192,192,73057,1,4,3:0:0:0:
320,192,73295,1,8,0:0:0:0:
64,192,73295,1,2,0:0:0:0:
192,192,73414,1,0,0:0:0:0:
64,192,73533,1,0,0:0:0:0:
320,192,73533,1,4,3:0:0:0:
192,192,73652,1,0,0:0:0:0:
448,192,73771,1,8,0:0:0:0:
320,192,73771,1,2,0:0:0:0:
64,192,73890,128,0,74485:0:0:0:0:
192,192,73890,1,4,0:0:0:0:
320,192,74128,1,0,0:0:0:0:
448,192,74247,1,2,0:0:0:0:
192,192,74247,1,8,0:0:0:0:
320,192,74485,1,4,3:0:0:0:
192,192,74485,1,0,0:0:0:0:
448,192,74724,1,2,0:0:0:0:
64,192,74724,1,8,0:0:0:0:
64,192,74962,128,0,75914:0:0:0:0:
448,192,74962,1,4,3:0:0:0:
192,192,74962,1,4,0:0:0:0:
320,192,75200,1,8,0:0:0:0:
192,192,75200,1,2,0:0:0:0:
448,192,75438,1,4,3:0:0:0:
320,192,75438,1,0,0:0:0:0:
192,192,75676,1,2,0:0:0:0:
448,192,75676,1,8,0:0:0:0:
320,192,75914,1,4,3:0:0:0:
448,192,75914,128,0,76628:0:0:0:0:
320,192,76152,1,2,0:0:0:0:
192,192,76152,1,8,0:0:0:0:
64,192,76390,1,4,3:0:0:0:
192,192,76390,1,0,0:0:0:0:
320,192,76628,1,2,0:0:0:0:
64,192,76628,128,8,76866:0:0:0:0:
192,192,76866,1,0,0:0:0:0:
448,192,76866,128,4,77105:3:0:0:0:
64,192,77105,1,8,0:0:0:0:
320,192,77105,128,2,77343:0:0:0:0:
448,192,77343,1,4,3:0:0:0:
192,192,77343,128,0,77581:0:0:0:0:
320,192,77581,1,2,0:0:0:0:
64,192,77581,128,8,77819:0:0:0:0:
448,192,77819,1,4,3:0:0:0:
320,192,77819,128,0,78771:0:0:0:0:
64,192,78057,1,2,0:0:0:0:
192,192,78057,1,8,0:0:0:0:
64,192,78295,1,4,3:0:0:0:
448,192,78295,1,0,0:0:0:0:
448,192,78533,1,2,0:0:0:0:
192,192,78533,1,8,0:0:0:0:
64,192,78771,1,4,3:0:0:0:
448,192,78771,128,0,79724:0:0:0:0:
320,192,79009,1,2,0:0:0:0:
64,192,79009,1,8,0:0:0:0:
64,192,79247,1,4,3:0:0:0:
192,192,79247,1,0,0:0:0:0:
320,192,79485,1,2,0:0:0:0:
192,192,79485,1,8,0:0:0:0:
64,192,79724,128,0,80676:0:0:0:0:
320,192,79724,1,4,3:0:0:0:
192,192,79962,1,8,0:0:0:0:
448,192,79962,1,2,0:0:0:0:
320,192,80081,1,0,0:0:0:0:
192,192,80319,1,0,0:0:0:0:
320,192,80438,1,8,0:0:0:0:
448,192,80438,1,2,0:0:0:0:
192,192,80676,1,4,3:0:0:0:
448,192,80676,128,0,81628:0:0:0:0:
320,192,80914,1,2,0:0:0:0:
64,192,80914,1,8,0:0:0:0:
64,192,81152,1,4,3:0:0:0:
192,192,81152,1,0,0:0:0:0:
320,192,81390,1,2,0:0:0:0:
192,192,81390,1,8,0:0:0:0:
64,192,81628,128,0,82581:0:0:0:0:
320,192,81628,1,4,3:0:0:0:
192,192,81866,1,8,0:0:0:0:
448,192,81866,1,2,0:0:0:0:
320,192,81985,1,0,0:0:0:0:
192,192,82224,1,0,0:0:0:0:
320,192,82343,1,8,0:0:0:0:
448,192,82343,1,2,0:0:0:0:
320,192,82581,128,0,83533:0:0:0:0:
192,192,82581,1,4,3:0:0:0:
448,192,82819,1,8,0:0:0:0:
64,192,82819,1,2,0:0:0:0:
192,192,83057,1,0,0:0:0:0:
448,192,83057,1,4,3:0:0:0:
192,192,83295,1,8,0:0:0:0:
64,192,83295,1,2,0:0:0:0:
448,192,83533,1,4,3:0:0:0:
192,192,83533,128,0,84485:0:0:0:0:
64,192,83771,1,2,0:0:0:0:
320,192,83771,1,8,0:0:0:0:
448,192,83890,1,0,0:0:0:0:
64,192,84128,1,0,0:0:0:0:
320,192,84247,1,2,0:0:0:0:
448,192,84247,1,8,0:0:0:0:
320,192,84485,1,4,3:0:0:0:
64,192,84485,128,0,85438:0:0:0:0:
192,192,84724,1,2,0:0:0:0:
448,192,84724,1,8,0:0:0:0:
448,192,84962,1,4,3:0:0:0:
320,192,84962,1,0,0:0:0:0:
192,192,85200,1,2,0:0:0:0:
320,192,85200,1,8,0:0:0:0:
448,192,85438,128,0,85914:0:0:0:0:
192,192,85438,1,4,3:0:0:0:
320,192,85676,1,8,0:0:0:0:
64,192,85676,1,2,0:0:0:0:
192,192,85795,1,0,0:0:0:0:
320,192,85914,1,0,0:0:0:0:
192,192,86033,1,8,0:0:0:0:
64,192,86033,1,2,0:0:0:0:
448,192,86033,1,2,3:0:0:0:
