osu file format v14

[General]
AudioFilename: audio.mp3
AudioLeadIn: 0
PreviewTime: 65438
Countdown: 0
SampleSet: Soft
StackLeniency: 0.4
Mode: 0
LetterboxInBreaks: 0
WidescreenStoryboard: 0

[Editor]
Bookmarks: 4009,4485,19724,27343,34962,42581,50200,57819,65438,67343,74962,86033
DistanceSpacing: 1.4
BeatDivisor: 2
GridSize: 32
TimelineZoom: 2.35

[Metadata]
Title:DONUT HOLE
TitleUnicode:ドーナツホール
Artist:Rib
ArtistUnicode:りぶ
Creator:_FlameL
Version:lit120's Hard
Source:jubeat Qubell
Tags:Ayyri eiri- gumi utaite cover vocaloid puxtu short ver cut Akareh lit120 Kenshi Yonezu 米津玄師 Hachi ハチ -Hakurei- crossbeats REV. SUNSHINE MÚSECA 1+1/2 MUSECA pop'n music うさぎと猫と少年の夢 CAPCOM KONAMI BEMANI
BeatmapID:1356100
BeatmapSetID:623316

[Difficulty]
HPDrainRate:6
CircleSize:4
OverallDifficulty:6.5
ApproachRate:8.1
SliderMultiplier:1.095
SliderTickRate:1

[Events]
//Background and Video events
0,0,"DONUT.jpg",0,0
//Break Periods
//Storyboard Layer 0 (Background)
//Storyboard Layer 1 (Fail)
//Storyboard Layer 2 (Pass)
//Storyboard Layer 3 (Foreground)
//Storyboard Layer 4 (Overlay)
//Storyboard Sound Samples

[TimingPoints]
4486,238.095238095238,4,2,1,60,1,0
4486,-100,4,2,1,60,0,0
19724,-100,4,2,2,60,0,0
49724,-100,4,2,2,50,0,0
50200,-100,4,2,2,60,0,0
65438,-100,4,2,2,75,0,0
67105,-100,4,2,2,30,0,0
67343,-100,4,2,2,75,0,1
86033,-100,4,2,2,75,0,0
86152,-100,4,2,1,50,0,0

[Colours]
Combo1 : 72,200,249
Combo2 : 240,231,51
Combo3 : 55,232,156
Combo4 : 111,230,77
SliderBorder : 240,231,51
SliderTrackOverride : 18,35,45

[HitObjects]
115,189,4009,5,8,0:0:0:0:
115,189,4128,1,6,0:0:0:0:
115,189,4486,6,0,P|103:263|138:333,2,109.5,6|8|2,0:0|0:0|0:0,0:0:0:0:
165,131,5081,1,0,0:0:0:0:
240,145,5200,2,0,P|300:148|331:139,1,54.75,8|0,0:0|0:0,0:0:0:0:
338,211,5438,6,0,P|354:136|403:93,2,109.5,2|8|0,0:0|0:0|0:0,0:0:0:0:
366,282,6033,1,2,0:0:0:0:
413,222,6152,1,8,0:0:0:0:
413,222,6390,6,0,P|439:270|429:323,2,109.5,2|8|2,0:0|0:0|0:0,0:0:0:0:
366,282,6985,1,0,0:0:0:0:
290,270,7105,2,0,P|241:265|206:273,1,54.75,8|0,0:0|0:0,0:0:0:0:
178,316,7343,6,0,P|191:243|162:181,1,109.5,2|8,0:0|0:0,0:0:0:0:
124,157,7700,1,2,0:0:0:0:
124,157,7819,2,0,P|110:180|103:207,1,54.75,0|2,0:0|0:0,0:0:0:0:
181,210,8057,1,8,0:0:0:0:
181,210,8295,6,0,P|255:215|321:199,2,109.5,6|8|2,0:0|0:0|0:0,0:0:0:0:
124,157,8890,1,0,0:0:0:0:
141,81,9009,2,0,P|174:69|202:69,1,54.75,8|0,0:0|0:0,0:0:0:0:
269,63,9247,6,0,P|323:61|378:66,2,109.5,2|8|0,0:0|0:0|0:0,0:0:0:0:
193,68,9843,1,2,0:0:0:0:
236,132,9962,1,8,0:0:0:0:
236,132,10200,6,0,P|290:136|345:135,2,109.5,2|8|2,0:0|0:0|0:0,0:0:0:0:
193,68,10795,1,0,0:0:0:0:
159,137,10914,2,0,L|161:203,1,54.75,8|0,0:0|0:0,0:0:0:0:
207,252,11152,6,0,P|131:239|80:262,2,109.5,6|8|0,0:0|0:0|0:0,0:0:0:0:
256,310,11747,1,2,0:0:0:0:
305,252,11866,1,8,0:0:0:0:
305,252,12105,6,0,P|381:239|432:262,2,109.5,6|8|2,0:0|0:0|0:0,0:0:0:0:
256,192,12700,1,0,0:0:0:0:
283,119,12819,2,0,P|320:106|355:107,1,54.75,8|0,0:0|0:0,0:0:0:0:
404,136,13057,6,0,P|451:111|473:55,2,109.5,2|8|0,0:0|0:0|0:0,0:0:0:0:
335,105,13652,1,2,0:0:0:0:
397,61,13771,1,8,0:0:0:0:
397,61,14009,6,0,P|352:31|299:37,2,109.5,2|8|2,0:0|0:0|0:0,0:0:0:0:
404,137,14605,1,0,0:0:0:0:
335,105,14724,2,0,P|328:132|330:159,1,54.75,8|0,0:0|0:0,0:0:0:0:
385,210,14962,6,0,P|336:232|285:218,1,109.5,2|8,0:0|0:0,0:0:0:0:
224,173,15319,1,2,0:0:0:0:
224,173,15438,2,0,P|176:174|154:182,1,54.75,0|2,0:0|0:0,0:0:0:0:
110,224,15676,1,8,0:0:0:0:
110,224,15914,6,0,P|107:330|112:360,2,109.5,6|8|2,0:0|0:0|0:0,0:0:0:0:
98,148,16509,1,0,0:0:0:0:
169,175,16628,2,0,P|197:177|224:173,1,54.75,8|0,0:0|0:0,0:0:0:0:
290,135,16866,6,0,P|343:123|396:133,1,109.5,2|8,0:0|0:0,0:0:0:0:
452,185,17224,1,2,0:0:0:0:
435,260,17343,2,0,P|401:266|366:265,1,54.75,0|2,0:0|0:0,0:0:0:0:
304,262,17581,1,8,0:0:0:0:
304,262,17819,6,0,P|230:255|187:278,2,109.5,2|8|2,0:0|0:0|0:0,0:0:0:0:
338,330,18414,1,0,0:0:0:0:
380,266,18533,2,0,L|383:194,1,54.75,8|0,0:0|0:0,0:0:0:0:
325,160,18771,6,0,P|378:170|429:153,2,109.5,2|8|0,0:0|0:0|0:0,0:0:0:0:
256,126,19366,1,2,0:0:0:0:
187,160,19485,1,8,0:0:0:0:
187,160,19724,6,0,P|133:170|82:153,1,109.5,6|8,0:0|0:0,0:0:0:0:
18,292,20200,2,0,P|71:281|122:298,1,109.5,2|8,0:0|0:0,0:0:0:0:
171,357,20557,1,8,0:0:0:0:
219,298,20676,6,0,P|270:281|323:291,1,109.5,2|8,0:0|0:0,0:0:0:0:
387,333,21033,2,0,P|370:281|380:228,1,109.5,2|2,0:0|0:0,0:0:0:0:
422,165,21390,2,0,P|391:153|369:153,1,54.75,8|0,0:0|0:0,0:0:0:0:
310,199,21628,6,0,P|256:210|200:195,1,109.5,2|8,0:0|0:0,0:0:0:0:
90,94,22105,2,0,P|100:147|85:204,1,109.5,2|8,0:0|0:0,0:0:0:0:
50,266,22462,1,8,0:0:0:0:
50,266,22581,6,0,P|103:255|160:270,1,109.5,2|8,0:0|0:0,0:0:0:0:
212,319,22938,2,0,P|264:332|317:321,1,109.5,2|2,0:0|0:0,0:0:0:0:
380,277,23295,1,8,0:0:0:0:
380,277,23533,6,0,L|380:155,1,109.5,2|8,0:0|0:0,0:0:0:0:
254,79,24009,2,0,L|254:201,1,109.5,2|8,0:0|0:0,0:0:0:0:
295,252,24366,1,8,0:0:0:0:
295,252,24485,6,0,P|230:228|184:238,1,109.5,2|8,0:0|0:0,0:0:0:0:
135,287,24843,2,0,L|135:165,1,109.5,2|2,0:0|0:0,0:0:0:0:
176,112,25200,2,0,P|150:102|123:100,1,54.75,8|0,0:0|0:0,0:0:0:0:
62,149,25438,6,0,L|62:271,1,109.5,2|8,0:0|0:0,0:0:0:0:
73,336,25795,1,0,0:0:0:0:
135,287,25914,1,2,0:0:0:0:
135,287,26033,2,0,P|192:275|261:292,1,109.5,0|8,0:0|0:0,0:0:0:0:
279,350,26390,6,0,P|297:294|346:243,1,109.5,2|8,0:0|0:0,0:0:0:0:
405,256,26747,2,0,P|366:212|346:144,1,109.5,2|2,0:0|0:0,0:0:0:0:
387,99,27105,1,8,0:0:0:0:
387,99,27343,6,0,P|330:110|261:93,1,109.5,6|8,0:0|0:0,0:0:0:0:
137,45,27819,2,0,P|148:101|132:171,1,109.5,2|8,0:0|0:0,0:0:0:0:
109,221,28176,1,8,0:0:0:0:
109,221,28295,6,0,P|100:274|112:327,1,109.5,2|8,0:0|0:0,0:0:0:0:
180,363,28652,1,2,0:0:0:0:
180,363,28771,2,0,P|210:363|233:354,1,54.75,0|2,0:0|0:0,0:0:0:0:
270,287,29009,1,8,0:0:0:0:
270,287,29247,5,2,0:0:0:0:
270,287,29366,2,0,L|252:203,2,54.75,0|8|0,0:0|0:0|0:0,0:0:0:0:
308,352,29724,2,0,P|373:303|429:305,1,109.5,2|8,0:0|0:0,0:0:0:0:
464,338,30081,1,8,0:0:0:0:
464,338,30200,6,0,P|472:311|472:284,1,54.75,2|0,0:0|0:0,0:0:0:0:
422,228,30438,2,0,P|421:200|429:174,1,54.75,8|2,0:0|0:0,0:0:0:0:
489,126,30676,1,0,0:0:0:0:
440,66,30795,1,2,0:0:0:0:
380,114,30914,1,8,0:0:0:0:
380,114,31152,6,0,P|326:123|272:114,1,109.5,6|8,0:0|0:0,0:0:0:0:
180,236,31628,2,0,P|233:227|287:236,1,109.5,2|8,0:0|0:0,0:0:0:0:
351,193,31985,1,8,0:0:0:0:
351,193,32105,6,0,P|342:246|350:300,1,109.5,2|8,0:0|0:0,0:0:0:0:
408,351,32462,2,0,L|284:358,1,109.5,2|2,0:0|0:0,0:0:0:0:
222,364,32819,2,0,L|160:360,1,54.75,8|0,0:0|0:0,0:0:0:0:
92,377,33057,6,0,P|121:306|88:238,1,109.5,2|8,0:0|0:0,0:0:0:0:
36,144,33533,2,0,P|83:157|107:153,1,54.75,2|0,0:0|0:0,0:0:0:0:
153,116,33771,1,8,0:0:0:0:
230,114,33890,1,8,0:0:0:0:
297,150,34009,6,0,L|298:272,1,109.5,2|8,0:0|0:0,0:0:0:0:
271,331,34366,1,2,0:0:0:0:
223,271,34485,1,8,0:0:0:0:
223,271,34962,6,0,L|222:149,1,109.5,6|8,0:0|0:0,0:0:0:0:
371,137,35438,2,0,L|372:247,1,109.5,2|8,0:0|0:0,0:0:0:0:
345,319,35795,1,8,0:0:0:0:
297,259,35914,6,0,L|297:150,1,109.5,2|8,0:0|0:0,0:0:0:0:
322,78,36271,2,0,P|265:98|181:80,1,109.5,2|2,0:0|0:0,0:0:0:0:
151,53,36628,2,0,P|141:79|139:106,1,54.75,8|0,0:0|0:0,0:0:0:0:
189,166,36866,5,2,0:0:0:0:
189,166,36985,2,0,L|189:275,1,109.5,0|0,0:0|0:0,0:0:0:0:
243,330,37343,2,0,P|183:319|106:344,1,109.5,2|8,0:0|0:0,0:0:0:0:
74,373,37700,1,8,0:0:0:0:
74,373,37819,6,0,L|74:264,1,109.5,2|8,0:0|0:0,0:0:0:0:
20,209,38176,2,0,P|80:220|157:195,1,109.5,2|2,0:0|0:0,0:0:0:0:
189,166,38533,1,8,0:0:0:0:
189,166,38771,6,0,L|323:167,1,109.5,2|8,0:0|0:0,0:0:0:0:
432,92,39247,2,0,P|423:140|426:154,1,54.75,2|0,0:0|0:0,0:0:0:0:
479,197,39485,1,8,0:0:0:0:
427,252,39605,1,8,0:0:0:0:
372,200,39724,6,0,P|351:249|368:300,1,109.5,2|8,0:0|0:0,0:0:0:0:
439,326,40081,2,0,P|402:366|349:373,1,109.5,2|2,0:0|0:0,0:0:0:0:
294,319,40438,2,0,P|267:315|240:317,1,54.75,8|0,0:0|0:0,0:0:0:0:
178,362,40676,5,2,0:0:0:0:
178,362,40795,2,0,L|182:236,1,109.5,0|0,0:0|0:0,0:0:0:0:
228,192,41152,1,2,0:0:0:0:
228,192,41271,2,0,P|167:211|112:201,1,109.5,0|8,0:0|0:0,0:0:0:0:
54,240,41628,6,0,P|73:179|63:124,1,109.5,2|8,0:0|0:0,0:0:0:0:
12,81,41985,2,0,L|141:71,1,109.5,2|2,0:0|0:0,0:0:0:0:
198,71,42343,1,8,0:0:0:0:
198,71,42581,6,0,P|275:84|328:67,1,109.5,6|8,0:0|0:0,0:0:0:0:
456,59,43057,2,0,P|406:119|394:173,1,109.5,2|8,0:0|0:0,0:0:0:0:
368,219,43414,1,8,0:0:0:0:
337,288,43533,6,0,P|309:214|268:177,1,109.5,2|8,0:0|0:0,0:0:0:0:
218,163,43890,1,2,0:0:0:0:
218,163,44009,2,0,P|171:163|131:175,1,54.75,0|2,0:0|0:0,0:0:0:0:
96,201,44247,1,8,0:0:0:0:
96,201,44485,5,2,0:0:0:0:
96,201,44605,2,0,L|97:255,2,54.75,0|8|0,0:0|0:0|0:0,0:0:0:0:
98,124,44962,2,0,P|48:143|21:189,1,109.5,2|8,0:0|0:0,0:0:0:0:
22,266,45319,1,0,0:0:0:0:
22,266,45438,6,0,L|23:320,1,54.75,2|0,0:0|0:0,0:0:0:0:
99,310,45676,2,0,L|98:256,1,54.75,8|2,0:0|0:0,0:0:0:0:
174,246,45914,1,0,0:0:0:0:
221,307,46033,1,2,0:0:0:0:
297,297,46152,1,8,0:0:0:0:
297,297,46390,6,0,L|295:187,1,109.5,6|8,0:0|0:0,0:0:0:0:
220,53,46866,2,0,L|221:162,1,109.5,2|8,0:0|0:0,0:0:0:0:
295,187,47224,1,8,0:0:0:0:
354,136,47343,6,0,P|408:130|462:136,1,109.5,2|8,0:0|0:0,0:0:0:0:
477,212,47700,2,0,P|423:218|369:212,1,109.5,2|2,0:0|0:0,0:0:0:0:
295,187,48057,2,0,P|291:214|296:241,1,54.75,8|0,0:0|0:0,0:0:0:0:
358,289,48295,6,0,P|292:289|227:307,1,109.5,2|8,0:0|0:0,0:0:0:0:
192,348,48652,1,0,0:0:0:0:
192,348,48771,2,0,P|192:281|174:216,1,109.5,2|8,0:0|0:0,0:0:0:0:
133,181,49128,1,8,0:0:0:0:
107,254,49247,6,0,P|66:219|57:166,1,109.5,2|8,0:0|0:0,0:0:0:0:
106,107,49605,1,2,0:0:0:0:
133,181,49724,1,8,0:0:0:0:
133,181,50200,5,2,0:0:0:0:
235,61,50438,2,0,P|295:52|349:64,2,109.5,8|2|8,0:0|0:0|0:0,0:0:0:0:
184,121,51033,1,8,0:0:0:0:
211,195,51152,1,2,0:0:0:0:
211,195,51390,2,0,L|208:328,2,109.5,8|2|8,0:0|0:0|0:0,0:0:0:0:
157,47,52105,5,2,0:0:0:0:
57,166,52343,2,0,L|54:299,2,109.5,8|2|8,0:0|0:0|0:0,0:0:0:0:
106,107,52938,1,8,0:0:0:0:
133,181,53057,6,0,L|130:314,2,109.5,2|8|2,0:0|0:0|0:0,0:0:0:0:
184,121,53652,1,0,0:0:0:0:
262,135,53771,1,8,0:0:0:0:
262,135,54009,5,2,0:0:0:0:
315,283,54247,2,0,P|364:257|417:249,2,109.5,8|2|8,0:0|0:0|0:0,0:0:0:0:
256,332,54843,1,8,0:0:0:0:
196,283,54962,6,0,P|147:257|94:249,2,109.5,2|8|2,0:0|0:0|0:0,0:0:0:0:
256,332,55557,1,0,0:0:0:0:
315,283,55676,1,8,0:0:0:0:
315,283,55914,6,0,P|319:215|303:155,1,109.5,2|8,0:0|0:0,0:0:0:0:
222,49,56390,2,0,P|279:85|339:101,1,109.5,2|8,0:0|0:0,0:0:0:0:
380,143,56747,1,8,0:0:0:0:
387,64,56866,6,0,P|435:89|457:138,1,109.5,2|8,0:0|0:0,0:0:0:0:
421,206,57224,1,2,0:0:0:0:
421,206,57343,2,0,P|417:253|423:280,1,54.75,2|2,0:0|0:0,0:0:0:0:
445,332,57581,1,8,0:0:0:0:
445,332,57819,5,6,0:0:0:0:
295,297,58057,2,0,P|240:290|186:298,2,109.5,8|2|8,0:0|0:0|0:0,0:0:0:0:
342,237,58652,1,8,0:0:0:0:
313,166,58771,1,2,0:0:0:0:
313,166,59009,2,0,P|259:174|204:167,2,109.5,8|2|8,0:0|0:0|0:0,0:0:0:0:
406,44,59724,5,2,0:0:0:0:
466,186,59962,2,0,L|466:320,2,109.5,8|2|8,0:0|0:0|0:0,0:0:0:0:
437,115,60557,1,8,0:0:0:0:
361,104,60676,6,0,P|307:95|252:102,2,109.5,8|2|2,0:0|0:0|0:0,0:0:0:0:
437,115,61271,1,0,0:0:0:0:
390,175,61390,1,8,0:0:0:0:
390,175,61628,5,2,0:0:0:0:
253,102,61866,2,0,P|199:93|144:100,2,109.5,8|2|8,0:0|0:0|0:0,0:0:0:0:
302,161,62462,1,8,0:0:0:0:
275,232,62581,6,0,P|220:238|166:230,2,109.5,2|8|2,0:0|0:0|0:0,0:0:0:0:
302,161,63176,1,0,0:0:0:0:
349,219,63295,1,8,0:0:0:0:
349,219,63533,6,0,L|352:356,1,109.5,2|8,0:0|0:0,0:0:0:0:
465,225,64009,2,0,L|462:88,1,109.5,2|8,0:0|0:0,0:0:0:0:
407,62,64366,1,8,0:0:0:0:
353,117,64485,6,0,P|292:125|241:117,1,109.5,2|8,0:0|0:0,0:0:0:0:
182,68,64843,1,2,0:0:0:0:
182,68,64962,2,0,P|169:92|165:118,1,54.75,2|2,0:0|0:0,0:0:0:0:
207,187,65200,1,8,0:0:0:0:
207,187,65438,6,0,L|211:317,1,109.5,6|0,0:0|0:0,0:0:0:0:
229,370,65795,1,2,0:0:0:0:
303,240,66033,1,2,0:0:0:0:
383,373,66271,1,10,0:0:0:0:
383,373,66390,5,10,0:0:0:0:
303,240,66628,1,2,0:0:0:0:
377,110,66866,2,0,P|304:125|247:116,1,109.5,2|8,0:0|0:0,0:0:0:0:
122,77,67343,6,0,P|155:107|166:129,1,54.75,6|0,0:0|0:0,0:0:0:0:
194,183,67581,2,0,P|151:196|126:195,1,54.75,8|0,0:0|0:0,0:0:0:0:
66,192,67819,2,0,P|75:148|89:127,1,54.75,2|0,0:0|0:0,0:0:0:0:
122,77,68057,6,0,P|164:63|189:64,1,54.75,8|0,0:0|0:0,0:0:0:0:
249,67,68295,2,0,P|282:97|293:118,1,54.75,2|0,0:0|0:0,0:0:0:0:
321,171,68533,2,0,P|311:214|297:235,1,54.75,8|0,0:0|0:0,0:0:0:0:
266,285,68771,1,2,0:0:0:0:
142,197,69009,1,8,0:0:0:0:
128,349,69247,6,0,P|153:318|161:286,1,54.75,2|0,0:0|0:0,0:0:0:0:
90,269,69485,2,0,P|70:234|68:201,1,54.75,8|0,0:0|0:0,0:0:0:0:
142,197,69724,2,0,P|167:166|175:134,1,54.75,2|0,0:0|0:0,0:0:0:0:
103,116,69962,6,0,P|158:111|205:84,1,109.5,8|2,0:0|0:0,0:0:0:0:
347,27,70438,2,0,P|324:76|324:131,2,109.5,8|2|8,0:0|0:0|0:0,0:0:0:0:
465,125,71152,5,2,0:0:0:0:
367,243,71390,1,8,0:0:0:0:
249,145,71628,1,2,0:0:0:0:
249,145,71747,2,0,L|246:223,1,54.75,2|8,0:0|0:0,0:0:0:0:
282,267,71985,6,0,P|225:246|142:260,1,109.5,6|0,0:0|0:0,0:0:0:0:
107,282,72343,2,0,P|128:225|114:142,1,109.5,8|2,0:0|0:0,0:0:0:0:
92,107,72700,2,0,P|56:104|26:112,1,54.75,0|8,0:0|0:0,0:0:0:0:
12,179,72938,6,0,L|12:295,1,109.5,0|0,0:0|0:0,0:0:0:0:
8,365,73295,2,0,P|63:354|121:363,1,109.5,8|2,0:0|0:0,0:0:0:0:
189,376,73652,2,0,P|217:377|242:368,1,54.75,0|8,0:0|0:0,0:0:0:0:
282,302,73890,6,0,L|283:167,1,109.5,6|2,0:0|0:0,0:0:0:0:
244,126,74247,1,8,0:0:0:0:
95,87,74485,1,2,0:0:0:0:
56,236,74724,1,8,0:0:0:0:
205,275,74962,6,0,L|198:204,1,54.75,6|0,0:0|0:0,0:0:0:0:
131,256,75200,2,0,L|89:312,1,54.75,8|0,0:0|0:0,0:0:0:0:
56,236,75438,2,0,L|49:165,1,54.75,2|0,0:0|0:0,0:0:0:0:
126,174,75676,6,0,L|119:103,1,54.75,8|0,0:0|0:0,0:0:0:0:
196,112,75914,2,0,L|189:41,1,54.75,2|0,0:0|0:0,0:0:0:0:
265,49,76152,2,0,P|317:66|372:64,1,109.5,8|2,0:0|0:0,0:0:0:0:
456,192,76628,1,8,0:0:0:0:
372,319,76866,6,0,P|345:315|318:316,1,54.75,2|0,0:0|0:0,0:0:0:0:
244,340,77105,2,0,P|234:314|218:291,1,54.75,8|0,0:0|0:0,0:0:0:0:
161,239,77343,2,0,P|178:217|190:193,1,54.75,2|0,0:0|0:0,0:0:0:0:
207,117,77581,2,0,P|233:121|261:119,1,54.75,8|0,0:0|0:0,0:0:0:0:
335,95,77819,5,2,0:0:0:0:
483,135,78057,1,8,0:0:0:0:
443,283,78295,1,2,0:0:0:0:
295,243,78533,1,8,0:0:0:0:
335,95,78771,5,2,0:0:0:0:
295,243,79009,1,8,0:0:0:0:
443,283,79247,1,2,0:0:0:0:
443,283,79366,2,0,L|446:218,1,54.75,0|8,0:0|0:0,0:0:0:0:
492,166,79605,6,0,P|439:182|385:178,1,109.5,0|0,0:0|0:0,0:0:0:0:
310,164,79962,2,0,P|266:159|245:161,1,54.75,8|2,0:0|0:0,0:0:0:0:
192,116,80200,2,0,P|207:168|203:222,1,109.5,2|8,0:0|0:0,0:0:0:0:
127,233,80557,6,0,P|111:180|115:126,1,109.5,0|0,0:0|0:0,0:0:0:0:
144,54,80914,2,0,P|91:69|37:65,1,109.5,8|2,0:0|0:0,0:0:0:0:
0,132,81271,1,0,0:0:0:0:
2,209,81390,1,8,0:0:0:0:
2,209,81509,6,0,P|28:258|37:311,1,109.5,0|0,0:0|0:0,0:0:0:0:
111,323,81866,2,0,P|139:276|182:242,1,109.5,8|0,0:0|0:0,0:0:0:0:
256,219,82224,1,2,0:0:0:0:
329,242,82343,1,8,0:0:0:0:
329,242,82581,5,2,0:0:0:0:
216,346,82819,1,8,0:0:0:0:
112,235,83057,1,2,0:0:0:0:
112,235,83176,2,0,L|112:168,1,54.75,0|8,0:0|0:0,0:0:0:0:
82,109,83414,6,0,P|145:127|190:112,1,109.5,0|0,0:0|0:0,0:0:0:0:
250,75,83771,2,0,P|277:70|305:72,1,54.75,8|2,0:0|0:0,0:0:0:0:
371,33,84009,2,0,P|353:96|368:141,1,109.5,2|8,0:0|0:0,0:0:0:0:
411,197,84366,6,0,P|348:179|303:194,1,109.5,0|0,0:0|0:0,0:0:0:0:
247,237,84724,2,0,P|194:249|143:231,1,109.5,8|2,0:0|0:0,0:0:0:0:
98,168,85081,1,0,0:0:0:0:
67,240,85200,1,8,0:0:0:0:
67,240,85319,6,0,P|28:202|21:149,1,109.5,0|0,0:0|0:0,0:0:0:0:
75,92,85676,1,8,0:0:0:0:
98,168,85795,1,2,0:0:0:0:
37,313,86033,1,6,0:0:0:0:
