osu file format v14

[General]
AudioFilename: audio.mp3
AudioLeadIn: 0
PreviewTime: 65438
Countdown: 0
SampleSet: Soft
StackLeniency: 0.7
Mode: 0
LetterboxInBreaks: 0
WidescreenStoryboard: 0

[Editor]
Bookmarks: 4009,4485,12105,19724,34962,50200,65438,67343
DistanceSpacing: 0.9
BeatDivisor: 1
GridSize: 32
TimelineZoom: 1.55

[Metadata]
Title:DONUT HOLE
TitleUnicode:ドーナツホール
Artist:Rib
ArtistUnicode:りぶ
Creator:_FlameL
Version:Easy
Source:jubeat Qubell
Tags:Ayyri eiri- gumi utaite cover vocaloid puxtu short ver cut Akareh lit120 Kenshi Yonezu 米津玄師 Hachi ハチ -Hakurei- crossbeats REV. SUNSHINE MÚSECA 1+1/2 MUSECA pop'n music うさぎと猫と少年の夢 CAPCOM KONAMI BEMANI
BeatmapID:1317048
BeatmapSetID:623316

[Difficulty]
HPDrainRate:2
CircleSize:2.8
OverallDifficulty:2.5
ApproachRate:3
SliderMultiplier:0.5
SliderTickRate:1

[Events]
//Background and Video events
0,0,"DONUT.jpg",0,0
//Break Periods
//Storyboard Layer 0 (Background)
//Storyboard Layer 1 (Fail)
//Storyboard Layer 2 (Pass)
//Storyboard Layer 3 (Foreground)
//Storyboard Sound Samples

[TimingPoints]
4486,238.095238095238,4,2,1,55,1,0
4486,-100,4,2,1,55,0,0
19724,-100,4,2,2,55,0,0
49724,-100,4,2,2,50,0,0
50200,-100,4,2,2,60,0,0
67343,-100,4,2,2,65,0,1
82581,-100,4,2,2,70,0,1
86152,-100,4,2,1,15,0,0

[Colours]
Combo1 : 72,200,249
Combo2 : 240,231,51
Combo3 : 55,232,156
Combo4 : 111,230,77
SliderBorder : 240,231,51
SliderTrackOverride : 18,35,45

[HitObjects]
63,193,4009,5,8,0:0:0:0:
74,103,4485,6,0,P|147:40|241:62,1,200,6|2,0:0|0:0,0:0:0:0:
292,136,5914,1,2,0:0:0:0:
241,210,6390,2,0,B|144:235,1,100,2|2,0:0|0:0,0:0:0:0:
110,318,7343,2,0,P|158:327|202:352,1,100,2|2,0:0|0:0,0:0:0:0:
280,307,8295,6,0,P|373:328|446:265,1,200,6|2,0:0|0:0,0:0:0:0:
448,175,9724,1,2,0:0:0:0:
369,131,10200,2,0,B|272:156,1,100,2|2,0:0|0:0,0:0:0:0:
203,99,11152,2,0,P|246:75|280:39,1,100,2|2,0:0|0:0,0:0:0:0:
370,39,12105,6,0,P|408:152|491:193,1,200,6|2,0:0|0:0,0:0:0:0:
449,276,13533,1,2,0:0:0:0:
368,316,14009,2,0,L|304:233,1,100,2|2,0:0|0:0,0:0:0:0:
217,245,14962,2,0,P|231:311|230:365,1,100,2|2,0:0|0:0,0:0:0:0:
142,345,15914,6,0,P|104:232|21:191,1,200,6|2,0:0|0:0,0:0:0:0:
81,115,17343,1,2,0:0:0:0:
164,78,17819,2,0,P|211:92|244:129,1,100,2|2,0:0|0:0,0:0:0:0:
273,215,18771,2,0,P|314:187|332:142,1,100,2|2,0:0|0:0,0:0:0:0:
302,57,19724,6,0,B|373:48|373:48|415:112|469:130,1,200,6|2,0:0|0:0,0:0:0:0:
431,211,21152,1,2,0:0:0:0:
390,291,21628,2,0,L|290:304,1,100,2|2,0:0|0:0,0:0:0:0:
227,367,22581,2,0,P|195:327|152:304,1,100,2|2,0:0|0:0,0:0:0:0:
64,288,23533,6,0,P|76:185|138:215,1,200,2|2,0:0|0:0,0:0:0:0:
217,241,24962,1,2,0:0:0:0:
301,210,25438,2,0,P|280:164|288:113,1,100,2|2,0:0|0:0,0:0:0:0:
356,60,26390,2,0,P|405:60|452:94,1,100,2|2,0:0|0:0,0:0:0:0:
378,146,27343,6,0,L|302:217,1,100,6|2,0:0|0:0,0:0:0:0:
364,282,28295,2,0,L|436:213,1,100,2|2,0:0|0:0,0:0:0:0:
378,146,29247,2,0,P|333:154|247:132,1,100,2|2,0:0|0:0,0:0:0:0:
224,218,30200,2,0,P|236:270|205:347,1,100,2|2,0:0|0:0,0:0:0:0:
142,348,31152,6,0,B|107:321|48:322|48:322|64:260|29:214,1,200,6|2,0:0|0:0,0:0:0:0:
82,147,32581,1,2,0:0:0:0:
127,69,33057,2,0,P|181:61|235:38,1,100,2|2,0:0|0:0,0:0:0:0:
305,80,34009,2,0,P|313:129|331:175,1,100,2|8,0:0|0:0,0:0:0:0:
412,213,34962,6,0,B|423:259|396:317|396:317|375:271|318:264,1,200,6|2,0:0|0:0,0:0:0:0:
316,354,36390,1,2,0:0:0:0:
239,307,36866,2,0,L|119:318,1,100,2|2,0:0|0:0,0:0:0:0:
60,271,37819,2,0,P|85:244|158:228,1,100,2|2,0:0|0:0,0:0:0:0:
223,182,38771,6,0,B|191:134|140:135|140:135|158:72|215:55,1,200,2|2,0:0|0:0,0:0:0:0:
284,26,40200,1,2,0:0:0:0:
361,72,40676,2,0,P|418:97|482:99,1,100,2|2,0:0|0:0,0:0:0:0:
457,191,41628,2,0,P|383:208|345:241,1,100,2|2,0:0|0:0,0:0:0:0:
284,259,42581,6,0,L|301:388,1,100,6|2,0:0|0:0,0:0:0:0:
209,360,43533,2,0,L|194:260,1,100,2|2,0:0|0:0,0:0:0:0:
284,259,44485,2,0,P|271:211|234:178,1,100,2|2,0:0|0:0,0:0:0:0:
145,184,45438,2,0,P|112:221|104:270,1,100,2|2,0:0|0:0,0:0:0:0:
14,278,46390,6,0,P|31:180|97:107,1,200,6|2,0:0|0:0,0:0:0:0:
186,102,47819,1,2,0:0:0:0:
234,178,48295,2,0,P|293:179|339:166,1,100,2|2,0:0|0:0,0:0:0:0:
393,235,49247,2,0,P|397:294|377:350,1,100,2|8,0:0|0:0,0:0:0:0:
305,374,50200,6,0,L|189:354,1,100,6|2,0:0|0:0,0:0:0:0:
118,336,51152,1,2,0:0:0:0:
85,252,51628,1,2,0:0:0:0:
141,181,52105,2,0,P|208:181|252:209,1,100,2|2,0:0|0:0,0:0:0:0:
296,262,53057,1,2,0:0:0:0:
322,176,53533,1,2,0:0:0:0:
350,90,54009,6,0,P|304:71|254:75,1,100,2|2,0:0|0:0,0:0:0:0:
183,130,54962,2,0,P|134:135|87:118,1,100,2|2,0:0|0:0,0:0:0:0:
106,30,55914,1,2,0:0:0:0:
195,42,56390,1,2,0:0:0:0:
183,130,56866,2,0,P|134:125|87:142,1,100,2|2,0:0|0:0,0:0:0:0:
86,232,57819,6,0,P|132:248|181:243,1,100,6|2,0:0|0:0,0:0:0:0:
261,202,58771,1,2,0:0:0:0:
257,291,59247,1,2,0:0:0:0:
333,338,59724,2,0,L|458:320,1,100,2|2,0:0|0:0,0:0:0:0:
493,258,60676,1,2,0:0:0:0:
463,173,61152,1,2,0:0:0:0:
394,115,61628,6,0,P|332:107|282:75,1,100,2|2,0:0|0:0,0:0:0:0:
257,169,62581,1,2,0:0:0:0:
168,186,63057,1,2,0:0:0:0:
199,101,63533,2,0,P|158:75|91:70,1,100,2|2,0:0|0:0,0:0:0:0:
25,31,64485,2,0,P|7:96|21:148,1,100,2|2,0:0|0:0,0:0:0:0:
0,216,65438,5,6,0:0:0:0:
105,224,67343,6,0,L|219:233,1,100,6|2,0:0|0:0,0:0:0:0:
249,310,68295,2,0,P|294:342|340:348,1,100,2|2,0:0|0:0,0:0:0:0:
425,329,69247,2,0,P|478:248|465:165,1,150,2|8,0:0|0:0,0:0:0:0:
440,115,70438,2,0,P|384:99|335:71,1,100,8|8,0:0|0:0,0:0:0:0:
311,106,71152,5,2,0:0:0:0:
228,142,71628,2,0,L|125:151,2,100,2|0|2,0:0|3:0|0:0,0:0:0:0:
270,221,73057,1,2,0:0:0:0:
308,302,73533,2,0,L|407:312,2,100,2|0|2,0:0|3:0|0:0,0:0:0:0:
218,296,74962,6,0,P|158:310|122:338,1,100,6|2,0:0|0:0,0:0:0:0:
57,275,75914,2,0,P|102:236|165:210,1,100,2|2,0:0|0:0,0:0:0:0:
226,202,76866,2,0,P|117:151|98:99,1,150,2|8,0:0|0:0,0:0:0:0:
135,45,78057,2,0,P|198:30|247:13,1,100,8|8,0:0|0:0,0:0:0:0:
262,51,78771,5,2,0:0:0:0:
344,87,79247,2,0,P|365:155|393:189,1,100,2|2,0:0|0:0,0:0:0:0:
471,177,80200,1,2,0:0:0:0:
426,256,80676,2,0,L|295:269,1,100,2|2,0:0|0:0,0:0:0:0:
261,328,81628,2,0,P|201:360|155:361,1,100,2|2,0:0|0:0,0:0:0:0:
88,324,82581,5,2,0:0:0:0:
67,236,83057,2,0,P|82:189|126:153,1,100,2|2,0:0|0:0,0:0:0:0:
197,112,84009,1,2,0:0:0:0:
199,201,84485,2,0,L|324:223,1,100,2|2,0:0|0:0,0:0:0:0:
362,281,85438,6,0,P|388:223|368:160,1,125,2|6,0:0|0:0,0:0:0:0:
