osu file format v14

[General]
AudioFilename: audio.mp3
AudioLeadIn: 0
PreviewTime: 65438
Countdown: 0
SampleSet: Normal
StackLeniency: 0.3
Mode: 1
LetterboxInBreaks: 0
WidescreenStoryboard: 0

[Editor]
Bookmarks: 4009,4485,12105,19724,27343,34962,42581,50200,57819,65438,67343,86033
DistanceSpacing: 1.2
BeatDivisor: 4
GridSize: 32
TimelineZoom: 3.049999

[Metadata]
Title:DONUT HOLE
TitleUnicode:ドーナツホール
Artist:Rib
ArtistUnicode:りぶ
Creator:_FlameL
Version:Ayyri's Muzukashii
Source:jubeat Qubell
Tags:Ayyri eiri- gumi utaite cover vocaloid puxtu short ver cut Akareh lit120 Kenshi Yonezu 米津玄師 Hachi ハチ -Hakurei- crossbeats REV. SUNSHINE MÚSECA 1+1/2 MUSECA pop'n music うさぎと猫と少年の夢 CAPCOM KONAMI BEMANI
BeatmapID:1571374
BeatmapSetID:623316

[Difficulty]
HPDrainRate:5
CircleSize:2
OverallDifficulty:5
ApproachRate:10
SliderMultiplier:1.4
SliderTickRate:1

[Events]
//Background and Video events
0,0,"DONUT.jpg",0,85
//Break Periods
//Storyboard Layer 0 (Background)
//Storyboard Layer 1 (Fail)
//Storyboard Layer 2 (Pass)
//Storyboard Layer 3 (Foreground)
//Storyboard Layer 4 (Overlay)
//Storyboard Sound Samples

[TimingPoints]
4486,238.095238095238,4,1,0,75,1,0
67343,-100,4,1,0,75,0,1
86033,-100,4,1,0,75,0,0

[Colours]
Combo1 : 72,200,249
Combo2 : 240,231,51
Combo3 : 55,232,156
Combo4 : 111,230,77
SliderBorder : 240,231,51
SliderTrackOverride : 18,35,45

[HitObjects]
256,192,4009,5,8,0:0:0:0:
256,192,4128,1,0,0:0:0:0:
256,192,4486,1,12,0:0:0:0:
256,192,4724,1,8,0:0:0:0:
256,192,4843,1,0,0:0:0:0:
256,192,4962,1,8,0:0:0:0:
256,192,5438,1,0,0:0:0:0:
256,192,5676,1,8,0:0:0:0:
256,192,5914,1,0,0:0:0:0:
256,192,6033,1,0,0:0:0:0:
256,192,6152,1,8,0:0:0:0:
256,192,6390,1,8,0:0:0:0:
256,192,6628,1,8,0:0:0:0:
256,192,6747,1,0,0:0:0:0:
256,192,6866,1,8,0:0:0:0:
256,192,7343,1,0,0:0:0:0:
256,192,7581,1,8,0:0:0:0:
256,192,7700,1,8,0:0:0:0:
256,192,7819,1,0,0:0:0:0:
256,192,8057,1,8,0:0:0:0:
256,192,8295,1,12,0:0:0:0:
256,192,8533,1,8,0:0:0:0:
256,192,8652,1,0,0:0:0:0:
256,192,8771,1,8,0:0:0:0:
256,192,9247,1,0,0:0:0:0:
256,192,9485,1,8,0:0:0:0:
256,192,9724,1,0,0:0:0:0:
256,192,9843,1,0,0:0:0:0:
256,192,9962,1,8,0:0:0:0:
256,192,10200,1,8,0:0:0:0:
256,192,10438,1,8,0:0:0:0:
256,192,10557,1,0,0:0:0:0:
256,192,10676,1,8,0:0:0:0:
256,192,11152,1,0,0:0:0:0:
256,192,11390,1,8,0:0:0:0:
256,192,11509,1,8,0:0:0:0:
256,192,11628,1,0,0:0:0:0:
256,192,11866,1,8,0:0:0:0:
256,192,12105,1,12,0:0:0:0:
256,192,12343,1,8,0:0:0:0:
256,192,12462,1,0,0:0:0:0:
256,192,12581,1,8,0:0:0:0:
256,192,12819,1,8,0:0:0:0:
256,192,13057,1,0,0:0:0:0:
256,192,13295,1,8,0:0:0:0:
256,192,13533,1,0,0:0:0:0:
256,192,13652,1,0,0:0:0:0:
256,192,13771,1,8,0:0:0:0:
256,192,14009,1,8,0:0:0:0:
256,192,14247,1,8,0:0:0:0:
256,192,14366,1,0,0:0:0:0:
256,192,14485,1,8,0:0:0:0:
256,192,14962,1,0,0:0:0:0:
256,192,15200,1,8,0:0:0:0:
256,192,15319,1,8,0:0:0:0:
256,192,15438,1,0,0:0:0:0:
256,192,15676,1,8,0:0:0:0:
256,192,15914,1,12,0:0:0:0:
256,192,16152,1,8,0:0:0:0:
256,192,16271,1,0,0:0:0:0:
256,192,16390,1,8,0:0:0:0:
256,192,16628,1,8,0:0:0:0:
256,192,16866,1,0,0:0:0:0:
256,192,17105,1,8,0:0:0:0:
256,192,17343,1,0,0:0:0:0:
256,192,17462,1,0,0:0:0:0:
256,192,17581,1,8,0:0:0:0:
256,192,17819,1,8,0:0:0:0:
256,192,18057,1,8,0:0:0:0:
256,192,18176,1,0,0:0:0:0:
256,192,18295,1,8,0:0:0:0:
256,192,18771,1,0,0:0:0:0:
256,192,19009,1,8,0:0:0:0:
256,192,19128,1,8,0:0:0:0:
256,192,19247,1,0,0:0:0:0:
256,192,19485,1,8,0:0:0:0:
256,192,19724,1,12,0:0:0:0:
256,192,19962,1,8,0:0:0:0:
256,192,20081,1,0,0:0:0:0:
256,192,20200,1,8,0:0:0:0:
256,192,20438,1,8,0:0:0:0:
256,192,20676,1,0,0:0:0:0:
256,192,20914,1,8,0:0:0:0:
256,192,21033,1,0,0:0:0:0:
256,192,21390,1,8,0:0:0:0:
256,192,21628,1,0,0:0:0:0:
256,192,21866,1,8,0:0:0:0:
256,192,22105,1,0,0:0:0:0:
256,192,22224,1,0,0:0:0:0:
256,192,22343,1,8,0:0:0:0:
256,192,22581,1,0,0:0:0:0:
256,192,22819,1,8,0:0:0:0:
256,192,22938,1,0,0:0:0:0:
256,192,23295,1,8,0:0:0:0:
256,192,23533,1,0,0:0:0:0:
256,192,23771,1,8,0:0:0:0:
256,192,23890,1,0,0:0:0:0:
256,192,24009,1,0,0:0:0:0:
256,192,24247,1,8,0:0:0:0:
256,192,24485,1,0,0:0:0:0:
256,192,24724,1,8,0:0:0:0:
256,192,24843,1,0,0:0:0:0:
256,192,25200,1,8,0:0:0:0:
256,192,25438,1,0,0:0:0:0:
256,192,25676,1,8,0:0:0:0:
256,192,25795,1,0,0:0:0:0:
256,192,25914,1,0,0:0:0:0:
256,192,26152,1,8,0:0:0:0:
256,192,26390,1,0,0:0:0:0:
256,192,26628,1,8,0:0:0:0:
256,192,26747,1,0,0:0:0:0:
256,192,26866,1,0,0:0:0:0:
256,192,27343,1,12,0:0:0:0:
256,192,27581,1,8,0:0:0:0:
256,192,27819,1,0,0:0:0:0:
256,192,28057,1,8,0:0:0:0:
256,192,28295,1,0,0:0:0:0:
256,192,28533,1,8,0:0:0:0:
256,192,28771,1,0,0:0:0:0:
256,192,29009,1,8,0:0:0:0:
256,192,29366,1,0,0:0:0:0:
256,192,29485,1,8,0:0:0:0:
256,192,29724,1,0,0:0:0:0:
256,192,29962,1,8,0:0:0:0:
256,192,30081,1,8,0:0:0:0:
256,192,30200,1,0,0:0:0:0:
256,192,30438,1,8,0:0:0:0:
256,192,30676,1,0,0:0:0:0:
256,192,30914,1,8,0:0:0:0:
256,192,31152,1,12,0:0:0:0:
256,192,31390,1,8,0:0:0:0:
256,192,31509,1,0,0:0:0:0:
256,192,31628,1,8,0:0:0:0:
256,192,31866,1,8,0:0:0:0:
256,192,32105,1,0,0:0:0:0:
256,192,32343,1,8,0:0:0:0:
256,192,32462,1,0,0:0:0:0:
256,192,32819,1,8,0:0:0:0:
256,192,33057,1,0,0:0:0:0:
256,192,33295,1,8,0:0:0:0:
256,192,33533,1,0,0:0:0:0:
256,192,33652,1,0,0:0:0:0:
256,192,33771,1,8,0:0:0:0:
256,192,34009,1,0,0:0:0:0:
256,192,34247,1,8,0:0:0:0:
256,192,34366,1,0,0:0:0:0:
256,192,34485,1,8,0:0:0:0:
256,192,34962,1,12,0:0:0:0:
256,192,35200,1,8,0:0:0:0:
256,192,35319,1,0,0:0:0:0:
256,192,35438,1,8,0:0:0:0:
256,192,35676,1,8,0:0:0:0:
256,192,35914,1,0,0:0:0:0:
256,192,36152,1,8,0:0:0:0:
256,192,36271,1,0,0:0:0:0:
256,192,36628,1,8,0:0:0:0:
256,192,36866,1,0,0:0:0:0:
256,192,37105,1,8,0:0:0:0:
256,192,37343,1,0,0:0:0:0:
256,192,37462,1,0,0:0:0:0:
256,192,37581,1,8,0:0:0:0:
256,192,37819,1,0,0:0:0:0:
256,192,38057,1,8,0:0:0:0:
256,192,38176,1,0,0:0:0:0:
256,192,38533,1,8,0:0:0:0:
256,192,38771,1,0,0:0:0:0:
256,192,39009,1,8,0:0:0:0:
256,192,39128,1,0,0:0:0:0:
256,192,39247,1,0,0:0:0:0:
256,192,39485,1,8,0:0:0:0:
256,192,39724,1,0,0:0:0:0:
256,192,39962,1,8,0:0:0:0:
256,192,40081,1,0,0:0:0:0:
256,192,40438,1,8,0:0:0:0:
256,192,40676,1,0,0:0:0:0:
256,192,40914,1,8,0:0:0:0:
256,192,41033,1,0,0:0:0:0:
256,192,41152,1,0,0:0:0:0:
256,192,41390,1,8,0:0:0:0:
256,192,41628,1,0,0:0:0:0:
256,192,41866,1,8,0:0:0:0:
256,192,41985,1,0,0:0:0:0:
256,192,42105,1,0,0:0:0:0:
256,192,42581,1,12,0:0:0:0:
256,192,42819,1,8,0:0:0:0:
256,192,43057,1,0,0:0:0:0:
256,192,43295,1,8,0:0:0:0:
256,192,43533,1,0,0:0:0:0:
256,192,43771,1,8,0:0:0:0:
256,192,44009,1,0,0:0:0:0:
256,192,44247,1,8,0:0:0:0:
256,192,44605,1,0,0:0:0:0:
256,192,44724,1,8,0:0:0:0:
256,192,44962,1,0,0:0:0:0:
256,192,45200,1,8,0:0:0:0:
256,192,45319,1,8,0:0:0:0:
256,192,45438,1,0,0:0:0:0:
256,192,45676,1,8,0:0:0:0:
256,192,45914,1,0,0:0:0:0:
256,192,46152,1,8,0:0:0:0:
256,192,46390,1,12,0:0:0:0:
256,192,46628,1,8,0:0:0:0:
256,192,46747,1,0,0:0:0:0:
256,192,46866,1,8,0:0:0:0:
256,192,47105,1,8,0:0:0:0:
256,192,47343,1,0,0:0:0:0:
256,192,47581,1,8,0:0:0:0:
256,192,47700,1,0,0:0:0:0:
256,192,48057,1,8,0:0:0:0:
256,192,48295,1,0,0:0:0:0:
256,192,48533,1,8,0:0:0:0:
256,192,48771,1,0,0:0:0:0:
256,192,48890,1,0,0:0:0:0:
256,192,49009,1,8,0:0:0:0:
256,192,49247,1,0,0:0:0:0:
256,192,49485,1,8,0:0:0:0:
256,192,49605,1,0,0:0:0:0:
256,192,49724,1,8,0:0:0:0:
256,192,50200,1,12,0:0:0:0:
256,192,50438,1,8,0:0:0:0:
256,192,50676,1,0,0:0:0:0:
256,192,50914,1,8,0:0:0:0:
256,192,51390,1,8,0:0:0:0:
256,192,51628,1,0,0:0:0:0:
256,192,51866,1,8,0:0:0:0:
256,192,52343,1,8,0:0:0:0:
256,192,52581,1,0,0:0:0:0:
256,192,52819,1,8,0:0:0:0:
256,192,52938,1,8,0:0:0:0:
256,192,53057,1,0,0:0:0:0:
256,192,53295,1,8,0:0:0:0:
256,192,53533,1,0,0:0:0:0:
256,192,53771,1,8,0:0:0:0:
256,192,54247,1,8,0:0:0:0:
256,192,54485,1,0,0:0:0:0:
256,192,54724,1,8,0:0:0:0:
256,192,54843,1,8,0:0:0:0:
256,192,54962,1,0,0:0:0:0:
256,192,55200,1,8,0:0:0:0:
256,192,55438,1,0,0:0:0:0:
256,192,55557,1,0,0:0:0:0:
256,192,55676,1,8,0:0:0:0:
256,192,55914,1,0,0:0:0:0:
256,192,56152,1,8,0:0:0:0:
256,192,56390,1,0,0:0:0:0:
256,192,56628,1,8,0:0:0:0:
256,192,56747,1,8,0:0:0:0:
256,192,56866,1,0,0:0:0:0:
256,192,57105,1,8,0:0:0:0:
256,192,57343,1,0,0:0:0:0:
256,192,57819,1,12,0:0:0:0:
256,192,58057,1,8,0:0:0:0:
256,192,58295,1,0,0:0:0:0:
256,192,58533,1,8,0:0:0:0:
256,192,59009,1,8,0:0:0:0:
256,192,59247,1,0,0:0:0:0:
256,192,59485,1,8,0:0:0:0:
256,192,59962,1,8,0:0:0:0:
256,192,60200,1,0,0:0:0:0:
256,192,60438,1,8,0:0:0:0:
256,192,60557,1,8,0:0:0:0:
256,192,60676,1,0,0:0:0:0:
256,192,60914,1,8,0:0:0:0:
256,192,61152,1,0,0:0:0:0:
256,192,61390,1,8,0:0:0:0:
256,192,61866,1,8,0:0:0:0:
256,192,62105,1,0,0:0:0:0:
256,192,62343,1,8,0:0:0:0:
256,192,62462,1,8,0:0:0:0:
256,192,62581,1,0,0:0:0:0:
256,192,62819,1,8,0:0:0:0:
256,192,63057,1,0,0:0:0:0:
256,192,63176,1,0,0:0:0:0:
256,192,63295,1,8,0:0:0:0:
256,192,63533,1,0,0:0:0:0:
256,192,63771,1,8,0:0:0:0:
256,192,64009,1,0,0:0:0:0:
256,192,64247,1,8,0:0:0:0:
256,192,64366,1,8,0:0:0:0:
256,192,64485,1,0,0:0:0:0:
256,192,64724,1,8,0:0:0:0:
256,192,64962,1,0,0:0:0:0:
256,192,65438,1,12,0:0:0:0:
256,192,65795,1,12,0:0:0:0:
256,192,66033,1,12,0:0:0:0:
256,192,66271,1,12,0:0:0:0:
256,192,66390,1,12,0:0:0:0:
256,192,66628,1,12,0:0:0:0:
256,192,66866,1,12,0:0:0:0:
256,192,67343,1,12,0:0:0:0:
256,192,67581,1,8,0:0:0:0:
256,192,67819,1,0,0:0:0:0:
256,192,67938,1,0,0:0:0:0:
256,192,68057,1,8,0:0:0:0:
256,192,68295,1,0,0:0:0:0:
256,192,68533,1,8,0:0:0:0:
256,192,69009,1,8,0:0:0:0:
256,192,69247,1,0,0:0:0:0:
256,192,69485,1,8,0:0:0:0:
256,192,69724,1,0,0:0:0:0:
256,192,69962,1,8,0:0:0:0:
256,192,70438,1,8,0:0:0:0:
256,192,70557,1,0,0:0:0:0:
256,192,70676,1,8,0:0:0:0:
256,192,70914,1,8,0:0:0:0:
256,192,71152,1,0,0:0:0:0:
256,192,71390,1,8,0:0:0:0:
256,192,71628,1,0,0:0:0:0:
256,192,71747,1,8,0:0:0:0:
256,192,71866,1,0,0:0:0:0:
256,192,71985,1,12,0:0:0:0:
256,192,72343,1,8,0:0:0:0:
256,192,72581,1,0,0:0:0:0:
256,192,72700,1,8,0:0:0:0:
256,192,72938,1,8,0:0:0:0:
256,192,73057,1,0,0:0:0:0:
256,192,73295,1,8,0:0:0:0:
256,192,73414,1,0,0:0:0:0:
256,192,73533,1,8,0:0:0:0:
256,192,73771,1,0,0:0:0:0:
256,192,73890,1,12,0:0:0:0:
256,192,74247,1,8,0:0:0:0:
256,192,74485,1,0,0:0:0:0:
256,192,74724,1,8,0:0:0:0:
256,192,74962,1,12,0:0:0:0:
256,192,75200,1,8,0:0:0:0:
256,192,75438,1,0,0:0:0:0:
256,192,75676,1,8,0:0:0:0:
256,192,75914,1,0,0:0:0:0:
256,192,76152,1,8,0:0:0:0:
256,192,76628,1,8,0:0:0:0:
256,192,76866,1,8,0:0:0:0:
256,192,76985,1,0,0:0:0:0:
256,192,77105,1,8,0:0:0:0:
256,192,77343,1,0,0:0:0:0:
256,192,77581,1,8,0:0:0:0:
256,192,78057,1,8,0:0:0:0:
256,192,78295,1,8,0:0:0:0:
256,192,78414,1,0,0:0:0:0:
256,192,78533,1,8,0:0:0:0:
256,192,78771,1,0,0:0:0:0:
256,192,79009,1,8,0:0:0:0:
256,192,79247,1,0,0:0:0:0:
256,192,79366,1,8,0:0:0:0:
256,192,79605,1,0,0:0:0:0:
256,192,79962,1,8,0:0:0:0:
256,192,80200,1,0,0:0:0:0:
256,192,80438,1,8,0:0:0:0:
256,192,80557,1,0,0:0:0:0:
256,192,80676,1,8,0:0:0:0:
256,192,80914,1,8,0:0:0:0:
256,192,81152,1,0,0:0:0:0:
256,192,81271,1,8,0:0:0:0:
256,192,81509,1,0,0:0:0:0:
256,192,81628,1,8,0:0:0:0:
256,192,81866,1,8,0:0:0:0:
256,192,82105,1,0,0:0:0:0:
256,192,82224,1,0,0:0:0:0:
256,192,82343,1,8,0:0:0:0:
256,192,82581,1,0,0:0:0:0:
256,192,82819,1,8,0:0:0:0:
256,192,83057,1,0,0:0:0:0:
256,192,83176,1,8,0:0:0:0:
256,192,83414,1,8,0:0:0:0:
256,192,83533,1,0,0:0:0:0:
256,192,83771,1,8,0:0:0:0:
256,192,84009,1,0,0:0:0:0:
256,192,84366,1,8,0:0:0:0:
256,192,84724,1,8,0:0:0:0:
256,192,84962,1,0,0:0:0:0:
256,192,85081,1,0,0:0:0:0:
256,192,85200,1,8,0:0:0:0:
256,192,85319,1,0,0:0:0:0:
256,192,85676,1,8,0:0:0:0:
256,192,86033,1,12,0:0:0:0:
