osu file format v14

[General]
AudioFilename: Donut Hole.mp3
AudioLeadIn: 0
PreviewTime: 162366
Countdown: 0
SampleSet: Normal
StackLeniency: 0.3
Mode: 0
LetterboxInBreaks: 0
WidescreenStoryboard: 1

[Editor]
Bookmarks: 4005,34957,67338,109243,145434,177815
DistanceSpacing: 1
BeatDivisor: 2
GridSize: 8
TimelineZoom: 1.4

[Metadata]
Title:DONUT HOLE
TitleUnicode:ドーナツホール
Artist:Rib
ArtistUnicode:りぶ
Creator:Beren
Version:Anata no Namae wa
Source:
Tags:Pop jpop j-pop cover japanese novelty utaite axey cmn_891127 Lobelia kanor arronchu1207 hachi 米津玄師 vivicat ハチ Yu Suto Masaki Hori REC Yasuhisa Kataoka
BeatmapID:2391843
BeatmapSetID:191759

[Difficulty]
HPDrainRate:6
CircleSize:4
OverallDifficulty:9
ApproachRate:9.5
SliderMultiplier:1.8
SliderTickRate:1

[Events]
//Background and Video events
0,0,"42084000.jpg",0,0
Video,0,"video.avi"
//Break Periods
2,12258,19152
2,86544,93438
2,145591,156295
//Storyboard Layer 0 (Background)
//Storyboard Layer 1 (Fail)
//Storyboard Layer 2 (Pass)
//Storyboard Layer 3 (Foreground)
//Storyboard Layer 4 (Overlay)
//Storyboard Sound Samples

[TimingPoints]
630,238.095238095238,4,2,1,80,1,0
3963,-50,4,2,1,80,0,0
4439,-100,4,1,1,60,0,0
5749,-66.6666666666667,4,1,1,60,0,0
5987,-100,4,1,1,60,0,0
6344,-100,4,1,1,60,0,0
7654,-66.6666666666667,4,1,1,60,0,0
7892,-100,4,1,1,60,0,0
8249,-100,4,1,1,60,0,0
9558,-66.6666666666667,4,1,1,60,0,0
9796,-100,4,1,1,60,0,0
10154,-100,4,1,1,60,0,0
11463,-66.6666666666667,4,1,1,60,0,0
11701,-100,4,1,1,60,0,0
49677,-200,4,1,1,60,0,0
50273,-100,4,1,1,60,0,0
52058,-133.333333333333,4,1,1,60,0,0
57892,-100,4,1,1,60,0,0
65392,-50,4,2,1,60,0,0
65630,-50,4,2,1,20,0,0
65749,-66.6666666666667,4,2,1,60,0,0
66820,-200,4,2,1,60,0,0
67296,-80,4,1,1,70,0,0
85392,-66.6666666666667,4,1,1,70,0,0
85987,-80,4,2,1,70,0,0
93963,-100,4,1,1,60,0,0
109201,-133.333333333333,4,1,1,60,0,0
116939,-100,4,1,1,60,0,0
124439,-50,4,2,1,60,0,0
124677,-100,4,2,1,20,0,0
124796,-66.6666666666667,4,2,1,60,0,0
125868,-200,4,2,1,60,0,0
126344,-80,4,1,1,70,0,0
145034,-80,4,2,1,70,0,0
145094,-80,4,1,1,70,0,0
156344,-80,4,1,1,60,0,0
162534,-125,4,1,1,50,0,0
177296,-200,4,1,1,60,0,0
177773,-80,4,1,1,70,0,0
205392,-76.9230769230769,4,1,1,70,0,0
205868,-38.4615384615385,4,2,1,70,0,0
205987,-50,4,1,1,70,0,0

[Colours]
Combo1 : 216,170,12
Combo2 : 190,29,29
Combo3 : 17,111,89
Combo4 : 142,173,48

[HitObjects]
80,272,3963,6,0,P|114:293|88:272,1,179.999995231629,0|6,0:0|0:0,0:0:0:0:
496,200,4439,6,0,P|496:280|416:328,1,179.999995231629,0|8,0:0|0:0,0:0:0:0:
328,328,4796,1,0,0:0:0:0:
304,120,4915,2,0,P|373:80|454:125,1,179.999995231629,0|8,0:0|0:0,0:0:0:0:
496,200,5273,1,0,0:0:0:0:
328,328,5392,2,0,P|258:288|257:194,1,179.999995231629,0|8,0:0|0:0,0:0:0:0:
296,32,5749,6,0,B|276:83|276:83|304:120|304:120|320:80,1,135.000001573563,0|2,0:0|2:0,0:0:0:0:
192,128,5987,6,0,P|113:88|28:131,1,179.999995231629
0,299,6344,6,0,P|78:338|163:295,1,179.999995231629,0|8,0:0|0:0,0:0:0:0:
352,224,6701,1,0,0:0:0:0:
256,176,6820,2,0,B|224:264|288:264|256:352,1,179.999995231629,0|8,0:0|0:0,0:0:0:0:
157,303,7177,1,0,0:0:0:0:
352,224,7296,2,0,P|431:259|509:219,1,179.999995231629,0|8,0:0|0:0,0:0:0:0:
488,64,7654,6,0,P|440:56|472:104,1,135.000001573563,0|2,0:0|2:0,0:0:0:0:
344,64,7892,6,0,P|264:28|186:68,1,179.999995231629
0,160,8249,6,0,P|60:212|53:308,1,179.999995231629,4|8,2:0|0:0,0:0:0:0:
45,384,8606,1,0,0:0:0:0:
250,154,8725,2,0,P|174:179|94:126,1,179.999995231629,0|8,0:0|0:0,0:0:0:0:
27,86,9082,1,0,0:0:0:0:
125,374,9201,2,0,P|139:294|225:252,1,179.999995231629,0|8,0:0|0:0,0:0:0:0:
488,192,9558,6,0,B|441:222|441:222|454:319,1,135.000001573563,0|2,0:0|2:0,0:0:0:0:
352,360,9796,6,0,L|328:176,1,179.999995231629
472,52,10154,6,0,B|424:52|424:52|344:84|344:84|296:84|296:84,1,179.999995231629,0|8,0:0|0:0,0:0:0:0:
208,48,10511,1,0,0:0:0:0:
34,122,10630,2,0,B|31:122|79:122|79:122|159:154|159:154|207:154,1,179.999995231629,0|8,0:0|0:0,0:0:0:0:
328,181,10987,1,0,0:0:0:0:
512,256,11106,2,0,B|384:256|384:256|296:288,1,179.999995231629,0|8,0:0|0:0,0:0:0:0:
128,312,11463,6,0,B|216:312|216:312|112:344,1,135.000001573563,0|2,0:0|2:0,0:0:0:0:
0,200,11701,6,0,B|64:200|64:200|112:184|112:184|196:184,1,179.999995231629
328,181,12058,5,4,1:0:0:0:
65,143,19677,6,0,L|80:232,1,89.9999976158143,4|0,2:0|0:0,0:0:0:0:
280,128,19915,2,0,L|265:39,1,89.9999976158143,8|0,0:0|0:0,0:0:0:0:
128,320,20154,2,0,P|216:352|288:296,1,179.999995231629,0|8,0:0|0:0,0:0:0:0:
280,128,20511,1,0,0:0:0:0:
488,232,20630,6,0,P|400:264|328:208,1,179.999995231629,0|8,0:0|0:0,0:0:0:0:
345,48,20987,2,0,P|433:16|505:72,1,179.999995231629,0|0,0:0|0:0,0:0:0:0:
488,232,21344,1,8,0:0:0:0:
280,128,21463,1,8,0:0:0:0:
281,307,21582,6,0,L|191:299,1,89.9999976158143,0|0,0:0|0:0,0:0:0:0:
57,243,21820,2,0,P|25:323|97:387,1,179.999995231629,8|0,0:0|0:0,0:0:0:0:
191,299,22177,1,0,0:0:0:0:
280,128,22296,1,8,1:0:0:0:
88,136,22415,1,0,0:0:0:0:
281,307,22534,6,0,B|331:307|331:307|408:320|408:320|464:320,1,179.999995231629,0|8,0:0|1:0,0:0:0:0:
496,168,22892,2,0,P|528:88|456:24,1,179.999995231629,0|8,0:0|0:0,0:0:0:0:
280,128,23249,2,0,L|399:117,1,89.9999976158143,8|0,0:0|0:0,0:0:0:0:
104,24,23487,6,0,L|14:16,1,89.9999976158143,4|0,2:0|0:0,0:0:0:0:
0,256,23725,2,0,L|89:263,1,89.9999976158143,8|0,0:0|0:0,0:0:0:0:
280,128,23963,2,0,P|214:172|121:147,1,179.999995231629,0|8,0:0|1:0,0:0:0:0:
104,24,24320,1,0,0:0:0:0:
320,40,24439,6,0,L|499:23,1,179.999995231629,0|8,0:0|1:0,0:0:0:0:
280,128,24796,2,0,P|214:172|121:147,1,179.999995231629
0,271,25154,2,0,L|119:261,1,89.9999976158143,8|8,0:0|0:0,0:0:0:0:
208,296,25392,5,0,0:0:0:0:
0,136,25511,1,0,0:0:0:0:
208,296,25630,2,0,L|387:312,1,179.999995231629,8|0,0:0|0:0,0:0:0:0:
512,384,25987,1,0,0:0:0:0:
504,232,26106,1,8,1:0:0:0:
387,312,26225,1,0,0:0:0:0:
376,192,26344,6,0,P|432:112|392:40,1,179.999995231629,0|8,0:0|1:0,0:0:0:0:
168,104,26701,2,0,P|112:184|152:256,1,179.999995231629,0|8,0:0|0:0,0:0:0:0:
280,96,27058,2,0,L|296:-16,1,89.9999976158143,8|0,0:0|0:0,0:0:0:0:
376,192,27296,6,0,L|466:192,1,89.9999976158143,4|0,2:0|0:0,0:0:0:0:
456,368,27534,2,0,L|344:368,1,89.9999976158143,8|0,0:0|0:0,0:0:0:0:
168,216,27773,2,0,P|134:307|191:366,1,179.999995231629,0|8,0:0|1:0,0:0:0:0:
272,280,28130,1,8,0:0:0:0:
96,296,28249,6,0,L|0:304,1,89.9999976158143,0|0,0:0|0:0,0:0:0:0:
32,112,28487,2,0,L|121:119,1,89.9999976158143,8|0,1:0|0:0,0:0:0:0:
240,32,28725,2,0,P|290:101|254:178,1,179.999995231629,0|8,0:0|0:0,0:0:0:0:
288,384,29082,5,8,0:0:0:0:
160,216,29201,1,0,0:0:0:0:
184,360,29320,1,0,0:0:0:0:
252,178,29439,1,8,0:0:0:0:
96,296,29558,1,0,0:0:0:0:
297,276,29677,2,0,P|369:316|457:284,1,179.999995231629,0|8,0:0|1:0,0:0:0:0:
512,160,30034,5,8,0:0:0:0:
304,88,30154,1,0,0:0:0:0:
446,76,30273,1,0,1:0:0:0:
252,178,30392,1,8,0:0:0:0:
368,0,30511,1,0,0:0:0:0:
384,192,30630,2,0,B|384:246|384:246|360:312|360:312|360:368,1,179.999990463257,0|8,0:0|0:0,0:0:0:0:
360,367,30987,1,8,0:0:0:0:
16,240,31106,6,0,L|32:336,1,89.9999952316285,4|0,2:0|0:0,0:0:0:0:
160,216,31344,2,0,L|144:120,1,89.9999952316285,8|0,0:0|0:0,0:0:0:0:
303,243,31582,2,0,P|375:291|456:260,1,179.999995231629,0|8,0:0|1:0,0:0:0:0:
512,192,31939,1,8,0:0:0:0:
360,40,32058,6,0,P|282:78|268:164,1,179.999995231629,0|8,0:0|1:0,0:0:0:0:
512,192,32415,2,0,P|517:105|450:50,1,179.999995231629,0|0,0:0|0:0,0:0:0:0:
393,157,32773,1,8,0:0:0:0:
216,32,32892,1,8,0:0:0:0:
6,144,33011,6,0,L|96:152,1,89.9999976158143,0|0,0:0|0:0,0:0:0:0:
280,280,33249,2,0,P|225:331|128:300,1,179.999995231629,8|0,0:0|0:0,0:0:0:0:
95,151,33606,1,0,0:0:0:0:
272,120,33725,1,8,1:0:0:0:
72,240,33844,1,8,0:0:0:0:
326,197,33963,6,0,P|381:248|478:217,1,179.999995231629,0|8,0:0|0:0,0:0:0:0:
512,138,34320,1,0,0:0:0:0:
272,120,34439,1,8,0:0:0:0:
272,120,34796,6,0,P|217:69|120:100,1,179.999995231629,4|0,2:0|0:0,0:0:0:0:
54,276,35154,2,0,L|24:373,1,89.9999976158143,8|0,0:0|0:0,0:0:0:0:
232,302,35392,2,0,L|262:191,1,89.9999976158143
32,104,35630,2,0,L|2:201,1,89.9999976158143,8|0,1:0|0:0,0:0:0:0:
176,376,35868,6,0,B|240:376|240:376|296:360|296:360|360:360,1,179.999995231629,0|8,0:0|1:0,0:0:0:0:
256,216,36225,2,0,B|198:216|198:216|136:232|136:232|78:232,1,179.999995231629,0|8,0:0|0:0,0:0:0:0:
27,361,36582,1,8,0:0:0:0:
136,96,36701,1,0,0:0:0:0:
353,360,36820,5,0,0:0:0:0:
353,360,36939,2,0,L|441:345,1,89.9999976158143,0|8,0:0|0:0,0:0:0:0:
492,177,37177,1,0,0:0:0:0:
492,177,37296,2,0,L|404:192,1,89.9999976158143
336,64,37534,2,0,L|424:50,1,89.9999976158143,8|0,1:0|0:0,0:0:0:0:
432,319,37773,6,0,P|355:361|272:336,1,179.999995231629,0|8,0:0|1:0,0:0:0:0:
24,208,38130,2,0,B|88:208|88:208|144:192|144:192|208:192,1,179.999995231629,0|8,1:0|0:0,0:0:0:0:
464,112,38487,1,8,1:0:0:0:
336,40,38606,6,0,P|304:132|349:200,1,179.999995231629,4|0,2:0|0:0,0:0:0:0:
496,264,38963,2,0,L|400:272,1,89.9999976158143,8|0,0:0|0:0,0:0:0:0:
284,292,39201,1,0,0:0:0:0:
284,292,39320,1,0,0:0:0:0:
460,372,39439,1,8,1:0:0:0:
460,372,39558,1,0,0:0:0:0:
344,196,39677,6,0,P|258:172|189:241,1,179.999995231629,0|8,0:0|1:0,0:0:0:0:
176,360,40034,2,0,B|120:360|120:360|64:328|64:328|0:328,1,179.999995231629,0|0,0:0|0:0,0:0:0:0:
64,112,40392,2,8,L|168:112,1,89.9999976158143,8|8,0:0|0:0,0:0:0:0:
392,224,40630,5,0,0:0:0:0:
392,224,40749,2,0,L|407:135,1,89.9999976158143,0|8,0:0|0:0,0:0:0:0:
509,61,40987,1,0,0:0:0:0:
264,168,41106,1,0,0:0:0:0:
264,168,41225,2,0,L|248:256,1,89.9999976158143,0|8,0:0|1:0,0:0:0:0:
320,360,41463,1,0,0:0:0:0:
472,341,41582,6,0,P|396:310|316:366,1,179.999995231629,0|8,0:0|1:0,0:0:0:0:
160,336,41939,2,0,P|88:384|7:354,1,179.999995231629,0|8,0:0|0:0,0:0:0:0:
231,168,42296,2,0,L|247:256,1,89.9999976158143,8|0,0:0|0:0,0:0:0:0:
56,160,42534,6,0,L|40:72,1,89.9999976158143,4|0,2:0|0:0,0:0:0:0:
344,24,42773,2,0,L|360:112,1,89.9999976158143,8|0,0:0|1:0,0:0:0:0:
512,296,43011,2,0,L|496:208,1,89.9999976158143
231,168,43249,2,0,L|247:256,1,89.9999976158143,8|8,0:0|0:0,0:0:0:0:
400,360,43487,6,0,P|318:387|248:336,1,179.999995231629,0|8,0:0|1:0,0:0:0:0:
48,336,43844,1,0,1:0:0:0:
0,152,43963,2,0,P|82:125|152:176,1,179.999995231629,0|8,0:0|0:0,0:0:0:0:
247,335,44320,1,8,0:0:0:0:
414,223,44439,6,0,L|513:215,1,89.9999976158143,0|0,0:0|0:0,0:0:0:0:
247,335,44677,2,0,L|148:327,1,89.9999976158143,8|0,0:0|0:0,0:0:0:0:
0,152,44915,2,0,P|69:203|152:176,1,179.999995231629,0|8,0:0|1:0,0:0:0:0:
256,24,45273,1,8,0:0:0:0:
503,215,45392,6,0,L|413:222,1,89.9999976158143,0|0,0:0|0:0,0:0:0:0:
166,16,45630,2,0,L|256:24,1,89.9999976158143,8|0,1:0|0:0,0:0:0:0:
332,128,45868,2,0,P|276:184|308:280,1,179.999995231629,0|8,0:0|0:0,0:0:0:0:
512,384,46225,6,0,B|459:365|459:365|328:376,1,179.999995231629,4|0,2:0|0:0,0:0:0:0:
413,221,46582,2,0,L|528:212,1,89.9999976158143,8|0,0:0|0:0,0:0:0:0:
332,128,46820,2,0,L|242:120,1,89.9999976158143
408,36,47058,2,0,L|523:27,1,89.9999976158143,8|8,0:0|0:0,0:0:0:0:
264,216,47296,6,0,P|220:293|244:384,1,179.999995231629,0|8,0:0|1:0,0:0:0:0:
84,204,47654,2,0,P|128:127|104:36,1,179.999995231629,0|0,0:0|0:0,0:0:0:0:
0,107,48011,1,8,0:0:0:0:
264,216,48130,1,8,0:0:0:0:
240,48,48249,6,0,L|347:67,1,89.9999976158143,0|0,0:0|0:0,0:0:0:0:
512,104,48487,1,8,0:0:0:0:
512,104,48606,1,0,0:0:0:0:
452,248,48725,2,0,L|363:232,1,89.9999976158143
175,231,48963,6,0,L|282:212,1,89.9999976158143,8|0,1:0|0:0,0:0:0:0:
356,381,49201,2,0,L|267:365,1,89.9999976158143
136,340,49439,1,8,1:0:0:0:
452,248,49558,1,0,0:0:0:0:
328,63,49677,6,0,P|269:36|314:82,1,179.999995231629,8|4,0:0|2:0,0:0:0:0:
0,68,50392,5,8,0:0:0:0:
187,192,50630,1,0,0:0:0:0:
0,68,50868,1,8,0:0:0:0:
0,68,50987,1,8,0:0:0:0:
155,32,51106,5,0,0:0:0:0:
31,219,51344,1,8,0:0:0:0:
155,32,51582,1,0,0:0:0:0:
31,219,51820,1,8,0:0:0:0:
31,219,51939,1,8,0:0:0:0:
155,32,52058,6,0,B|219:12|219:12|291:20,2,135.000001573563,0|8|0,0:0|0:0|0:0,0:0:0:0:
187,192,52773,1,8,0:0:0:0:
31,219,52892,1,8,0:0:0:0:
0,68,53011,6,0,L|89:85,1,67.5000007867814,0|0,0:0|2:0,0:0:0:0:
132,332,53249,2,0,L|198:344,1,67.5000007867814,8|0,0:0|2:0,0:0:0:0:
264,100,53487,2,0,L|330:112,1,67.5000007867814,0|0,0:0|2:0,0:0:0:0:
364,296,53725,2,8,L|453:313,1,67.5000007867814,8|8,0:0|1:0,0:0:0:0:
464,109,53963,5,0,0:0:0:0:
464,109,54201,2,0,L|397:121,1,67.5000007867814,8|0,0:0|2:0,0:0:0:0:
296,240,54439,2,0,L|362:227,1,67.5000007867814,0|0,0:0|2:0,0:0:0:0:
216,160,54677,2,0,L|149:172,1,67.5000007867814,8|8,0:0|0:0,0:0:0:0:
56,232,54915,6,0,P|40:192|40:168,1,67.5000007867814,0|0,0:0|2:0,0:0:0:0:
152,24,55154,2,0,P|168:64|168:88,1,67.5000007867814,8|0,0:0|2:0,0:0:0:0:
216,328,55392,2,0,P|200:288|200:264,1,67.5000007867814,0|0,0:0|2:0,0:0:0:0:
304,104,55630,2,0,P|320:144|320:168,1,67.5000007867814,8|8,0:0|1:0,0:0:0:0:
424,336,55868,6,0,L|344:320,1,67.5000007867814,0|0,0:0|2:0,0:0:0:0:
133,277,56106,2,0,L|199:263,1,67.5000007867814,8|0,0:0|2:0,0:0:0:0:
466,106,56344,2,0,L|400:120,1,67.5000007867814,0|0,0:0|2:0,0:0:0:0:
146,51,56582,2,0,L|212:64,1,67.5000007867814,8|8,0:0|0:0,0:0:0:0:
288,256,56820,6,0,B|288:208|288:208|304:168|304:168|304:96,1,135.000001573563,0|8,0:0|0:0,0:0:0:0:
213,65,57177,1,0,0:0:0:0:
118,173,57296,2,0,B|118:216|118:216|104:264|104:264|104:312,2,135.000001573563,0|8|4,0:0|0:0|2:0,0:0:0:0:
360,240,58011,5,8,0:0:0:0:
118,173,58249,1,0,0:0:0:0:
360,240,58487,1,8,0:0:0:0:
360,240,58606,1,8,0:0:0:0:
102,304,58725,5,0,0:0:0:0:
344,104,58963,1,8,0:0:0:0:
102,304,59201,1,0,0:0:0:0:
344,104,59439,1,8,0:0:0:0:
344,104,59558,1,8,0:0:0:0:
102,304,59677,6,0,B|196:293|196:293|280:312,1,179.999995231629,0|8,0:0|0:0,0:0:0:0:
432,88,60154,2,0,L|312:104,1,89.9999976158143,0|0,0:0|2:0,0:0:0:0:
384,296,60392,2,0,L|473:284,1,89.9999976158143,8|8,0:0|0:0,0:0:0:0:
312,208,60630,6,0,B|218:219|218:219|134:200,1,179.999995231629,0|8,0:0|0:0,0:0:0:0:
0,152,60987,1,0,0:0:0:0:
136,224,61106,2,0,B|220:243|220:243|314:232,1,179.999995231629,0|8,0:0|0:0,0:0:0:0:
152,336,61582,6,0,P|74:335|26:247,2,179.999995231629,0|8|0,0:0|0:0|0:0,0:0:0:0:
353,161,62296,1,8,0:0:0:0:
376,64,62415,1,8,0:0:0:0:
480,80,62534,6,0,P|439:156|353:161,1,179.999995231629,0|8,0:0|0:0,0:0:0:0:
376,64,62892,1,8,0:0:0:0:
376,64,63011,2,0,L|192:88,1,179.999995231629,0|8,0:0|0:0,0:0:0:0:
72,280,63368,5,8,0:0:0:0:
72,280,63487,2,0,L|250:303,1,179.999995231629,0|8,0:0|0:0,0:0:0:0:
482,168,63963,2,0,L|304:192,1,179.999995231629,0|8,0:0|0:0,0:0:0:0:
80,24,64439,6,0,L|192:40,1,89.9999976158143,0|0,0:0|2:0,0:0:0:0:
432,48,64677,2,0,L|320:64,1,89.9999976158143,8|8,0:0|1:0,0:0:0:0:
80,144,64915,2,0,L|192:160,1,89.9999976158143,0|0,0:0|2:0,0:0:0:0:
432,168,65154,2,0,L|320:184,1,89.9999976158143,8|0,0:0|2:0,0:0:0:0:
256,240,65392,6,0,P|281:380|370:268,1,359.999990463257,4|0,0:0|0:0,0:0:0:0:
476,160,65749,6,0,L|343:180,1,135.000001573563,4|0,0:0|0:0,0:0:0:0:
210,83,65987,2,0,L|344:64,1,135.000001573563,4|0,0:0|0:0,0:0:0:0:
456,48,66225,1,4,0:0:0:0:
104,16,66344,2,0,P|72:64|112:144,1,135.000001573563,4|0,0:0|0:0,0:0:0:0:
136,352,66582,2,0,P|168:304|128:224,1,135.000001573563,4|0,0:0|0:0,0:0:0:0:
0,290,66820,6,0,L|96:290,1,89.9999976158143,4|8,0:0|1:0,0:0:0:0:
464,120,67296,6,0,P|416:104|352:136,1,112.499997019768,4|0,2:0|2:0,0:0:0:0:
240,304,67534,2,0,P|288:320|352:288,1,112.499997019768,8|0,0:0|2:0,0:0:0:0:
320,32,67773,2,0,P|272:16|208:48,1,112.499997019768,0|0,0:0|2:0,0:0:0:0:
120,216,68011,2,0,P|168:232|232:200,1,112.499997019768,8|0,0:0|2:0,0:0:0:0:
418,222,68249,2,0,P|448:272|440:328,1,112.499997019768
120,216,68487,2,0,P|79:114|159:20,1,224.999994039536,8|0,0:0|0:0,0:0:0:0:
343,297,68963,5,8,0:0:0:0:
128,312,69082,1,0,0:0:0:0:
192,128,69201,2,0,L|304:136,1,112.499997019768,0|0,0:0|2:0,0:0:0:0:
343,297,69439,2,0,L|455:289,1,112.499997019768,8|0,0:0|2:0,0:0:0:0:
500,16,69677,2,0,L|388:24,1,112.499997019768,0|0,0:0|2:0,0:0:0:0:
33,62,69915,2,0,P|89:151|191:127,1,225,8|0,0:0|0:0,0:0:0:0:
455,289,70392,6,0,L|343:297,1,112.499997019768,8|0,0:0|2:0,0:0:0:0:
140,27,70630,1,0,0:0:0:0:
303,135,70749,1,0,0:0:0:0:
232,288,70868,2,0,L|117:297,1,112.499997019768,8|0,0:0|2:0,0:0:0:0:
191,127,71106,2,0,L|303:135,1,112.499997019768,0|0,1:0|2:0,0:0:0:0:
140,27,71344,2,0,P|66:95|114:196,1,225,8|0,0:0|0:0,0:0:0:0:
312,376,71701,2,0,L|424:384,1,112.499997019768,0|8,0:0|0:0,0:0:0:0:
449,97,71939,6,0,P|493:193|415:264,1,224.999994039536,4|0,2:0|0:0,0:0:0:0:
112,196,72296,2,0,L|0:204,1,112.499997019768,8|0,0:0|0:0,0:0:0:0:
140,27,72534,1,0,0:0:0:0:
256,224,72653,1,0,0:0:0:0:
88,384,72773,1,8,0:0:0:0:
0,205,72892,1,0,0:0:0:0:
277,97,73011,6,0,P|372:37|451:100,1,224.999994039536,0|8,0:0|0:0,0:0:0:0:
512,256,73368,1,0,0:0:0:0:
320,384,73487,1,0,0:0:0:0:
256,224,73606,1,0,0:0:0:0:
450,97,73725,1,8,0:0:0:0:
239,23,73844,6,0,B|175:23|175:23|87:55|87:55|7:55,1,224.999994039536,4|0,2:0|0:0,0:0:0:0:
256,224,74201,2,0,P|351:164|430:227,1,224.999994039536,8|0,0:0|0:0,0:0:0:0:
464,384,74558,1,0,0:0:0:0:
143,262,74677,2,0,P|137:207|161:156,1,112.499994039536,8|0,0:0|2:0,0:0:0:0:
352,15,74915,6,0,L|240:23,1,112.499997019768,4|0,2:0|2:0,0:0:0:0:
2,371,75154,2,0,L|114:363,1,112.499997019768,8|0,0:0|2:0,0:0:0:0:
512,136,75392,1,0,0:0:0:0:
336,327,75511,1,0,0:0:0:0:
160,156,75630,1,8,0:0:0:0:
2,371,75749,1,0,0:0:0:0:
224,336,75868,6,0,L|336:328,1,112.499997019768,0|0,0:0|2:0,0:0:0:0:
512,136,76106,2,0,P|408:96|328:184,1,224.999988079071,8|0,0:0|0:0,0:0:0:0:
432,224,76463,1,0,0:0:0:0:
192,216,76582,2,0,L|80:208,1,112.499997019768,8|0,1:0|2:0,0:0:0:0:
224,336,76820,1,0,0:0:0:0:
432,224,76939,5,0,0:0:0:0:
312,56,77058,2,0,P|256:40|208:64,1,112.499997019768,8|0,0:0|2:0,0:0:0:0:
0,328,77296,2,8,P|56:344|104:320,1,112.499997019768,0|0,0:0|2:0,0:0:0:0:
264,176,77534,2,0,B|148:163|159:226|43:214,1,224.999994039536,8|0,0:0|0:0,0:0:0:0:
232,320,78011,6,0,L|344:312,1,112.499997019768,8|0,0:0|0:0,0:0:0:0:
512,296,78249,1,0,0:0:0:0:
232,320,78368,1,0,0:0:0:0:
80,96,78487,2,0,L|192:88,1,112.499997019768,8|0,0:0|0:0,0:0:0:0:
320,32,78725,6,0,P|340:73|318:136,1,112.499997019768,4|0,2:0|0:0,0:0:0:0:
464,384,78963,2,0,P|408:288|472:208,1,224.999994039536,8|0,0:0|0:0,0:0:0:0:
512,88,79320,1,0,0:0:0:0:
512,296,79439,1,8,0:0:0:0:
321,133,79558,1,0,0:0:0:0:
320,336,79677,6,0,L|208:344,1,112.499997019768,0|0,0:0|2:0,0:0:0:0:
0,384,79915,1,8,0:0:0:0:
0,64,80034,1,0,0:0:0:0:
88,208,80154,2,0,L|200:216,1,112.499997019768,0|0,0:0|2:0,0:0:0:0:
400,328,80392,1,8,0:0:0:0:
402,50,80511,1,0,0:0:0:0:
304,136,80630,6,0,P|394:191|496:144,1,224.999994039536,0|8,0:0|0:0,0:0:0:0:
402,50,80987,1,0,0:0:0:0:
400,328,81106,1,0,0:0:0:0:
304,136,81225,1,0,0:0:0:0:
498,242,81344,1,8,0:0:0:0:
200,216,81463,2,0,L|88:208,1,112.499997019768
0,112,81701,5,0,0:0:0:0:
209,318,81820,2,0,P|299:373|401:326,1,224.999994039536,8|0,0:0|0:0,0:0:0:0:
494,145,82177,1,0,0:0:0:0:
200,216,82296,2,0,L|88:208,1,112.499997019768,8|0,0:0|2:0,0:0:0:0:
400,328,82534,6,0,L|512:320,1,112.499997019768,4|0,2:0|0:0,0:0:0:0:
494,145,82773,2,0,P|404:90|302:137,1,224.999994039536,8|0,0:0|0:0,0:0:0:0:
200,216,83130,1,0,0:0:0:0:
400,328,83249,1,8,0:0:0:0:
494,145,83368,1,0,0:0:0:0:
200,216,83487,6,0,L|88:224,1,112.499997019768,0|0,0:0|2:0,0:0:0:0:
0,320,83725,1,8,0:0:0:0:
218,39,83844,1,0,0:0:0:0:
303,135,83963,2,0,L|415:143,1,112.499997019768
512,272,84201,1,8,0:0:0:0:
472,24,84320,1,0,0:0:0:0:
218,39,84439,6,0,P|152:120|216:224,1,225,0|8,0:0|0:0,0:0:0:0:
399,263,84796,2,0,L|511:271,1,112.499997019768
512,384,85034,1,0,0:0:0:0:
304,344,85154,1,8,0:0:0:0:
415,143,85273,1,0,0:0:0:0:
200,216,85392,6,0,P|102:287|36:186,1,270.000003147125,4|0,2:0|0:0,0:0:0:0:
35,186,85749,2,0,P|133:116|201:216,1,270.000003147125,4|4,2:0|0:0,0:0:0:0:
200,217,86344,5,4,1:0:0:0:
56,216,93963,6,0,P|102:223|138:202,1,89.9999976158143,4|0,2:0|2:0,0:0:0:0:
415,93,94201,2,0,P|369:86|333:107,1,89.9999976158143,8|0,0:0|2:0,0:0:0:0:
240,312,94439,2,0,P|324:334|397:285,1,179.999995231629,0|8,0:0|1:0,0:0:0:0:
448,192,94796,1,0,0:0:0:0:
175,184,94915,6,0,P|90:161|17:210,1,179.999995231629,0|8,0:0|1:0,0:0:0:0:
296,112,95273,2,0,P|368:64|456:88,1,179.999995231629,0|0,0:0|0:0,0:0:0:0:
448,192,95630,1,8,0:0:0:0:
240,312,95749,1,0,0:0:0:0:
176,184,95868,6,0,P|152:136|160:96,1,89.9999976158143
240,312,96106,2,0,P|168:360|80:336,1,179.999995231629,8|0,0:0|0:0,0:0:0:0:
0,184,96463,1,0,0:0:0:0:
176,184,96582,1,8,1:0:0:0:
82,338,96701,1,0,0:0:0:0:
240,312,96820,6,0,B|290:312|290:312|367:325|367:325|423:325,1,179.999995231629,0|8,0:0|1:0,0:0:0:0:
448,200,97177,2,0,P|480:120|408:56,1,179.999995231629,0|8,0:0|0:0,0:0:0:0:
288,152,97534,2,8,L|407:141,1,89.9999976158143,8|0,0:0|0:0,0:0:0:0:
240,312,97773,6,0,L|150:304,1,89.9999976158143,4|0,2:0|2:0,0:0:0:0:
0,56,98011,2,8,L|119:45,1,89.9999976158143,8|0,0:0|2:0,0:0:0:0:
288,152,98249,2,0,P|222:196|129:171,1,179.999995231629,0|8,0:0|1:0,0:0:0:0:
89,47,98606,1,0,0:0:0:0:
360,63,98725,6,0,P|404:128|379:222,1,179.999995231629,0|8,0:0|1:0,0:0:0:0:
149,329,99082,2,0,P|105:264|130:170,1,179.999995231629,0|0,0:0|0:0,0:0:0:0:
305,232,99439,2,0,L|216:240,1,89.9999976158143,8|0,0:0|0:0,0:0:0:0:
129,171,99677,5,0,0:0:0:0:
149,329,99796,1,0,0:0:0:0:
327,335,99915,2,0,L|506:351,1,179.999995231629,8|0,0:0|0:0,0:0:0:0:
507,352,100273,1,0,0:0:0:0:
496,248,100392,1,8,1:0:0:0:
305,232,100511,1,0,0:0:0:0:
408,176,100630,6,0,P|464:96|424:24,1,179.999995231629,0|8,0:0|1:0,0:0:0:0:
192,24,100987,2,0,P|136:104|176:176,1,179.999995231629,0|8,0:0|0:0,0:0:0:0:
296,96,101344,2,0,L|312:-16,1,89.9999976158143,8|0,0:0|0:0,0:0:0:0:
167,170,101582,6,0,L|63:170,1,89.9999952316285,4|0,2:0|0:0,0:0:0:0:
8,352,101820,2,0,L|120:352,1,89.9999976158143,8|0,0:0|0:0,0:0:0:0:
288,224,102058,2,0,P|322:315|265:374,1,179.999995231629,0|8,0:0|1:0,0:0:0:0:
200,288,102415,1,8,0:0:0:0:
416,296,102534,6,0,L|512:304,1,89.9999976158143
480,112,102773,2,0,L|391:119,1,89.9999976158143,8|0,1:0|0:0,0:0:0:0:
272,32,103011,2,0,P|222:101|258:178,1,179.999995231629,0|8,0:0|0:0,0:0:0:0:
512,251,103368,5,8,0:0:0:0:
390,119,103487,1,0,0:0:0:0:
416,296,103606,1,0,0:0:0:0:
499,141,103725,1,8,0:0:0:0:
335,215,103844,1,0,0:0:0:0:
265,325,103963,2,0,P|193:365|105:333,1,179.999995231629,0|8,0:0|1:0,0:0:0:0:
22,174,104320,5,8,0:0:0:0:
107,335,104439,1,0,0:0:0:0:
134,157,104558,1,0,0:0:0:0:
6,284,104677,1,8,1:0:0:0:
183,256,104796,1,0,0:0:0:0:
176,55,104915,2,0,P|248:15|336:47,1,179.999995231629,0|8,0:0|0:0,0:0:0:0:
504,72,105273,1,0,0:0:0:0:
422,228,105392,6,0,L|512:232,1,89.9999976158143,4|0,2:0|0:0,0:0:0:0:
346,140,105630,2,0,L|256:136,1,89.9999976158143,8|0,0:0|0:0,0:0:0:0:
184,312,105868,2,0,P|265:343|342:302,1,179.999995231629,0|8,0:0|1:0,0:0:0:0:
422,228,106225,1,8,0:0:0:0:
104,216,106344,6,0,P|48:280|72:368,1,179.999995231629,0|8,0:0|1:0,0:0:0:0:
259,178,106701,2,0,P|315:114|291:26,1,179.999995231629,0|0,0:0|0:0,0:0:0:0:
56,80,107058,2,0,L|146:88,1,89.9999976158143,8|0,0:0|0:0,0:0:0:0:
259,178,107296,5,0,0:0:0:0:
293,28,107415,1,0,0:0:0:0:
259,178,107534,2,0,L|438:161,1,179.999995231629,8|0,0:0|0:0,0:0:0:0:
512,80,107892,1,0,0:0:0:0:
360,264,108011,1,8,1:0:0:0:
408,56,108130,1,0,0:0:0:0:
456,304,108249,6,0,P|392:360|296:344,1,179.999995231629,0|8,0:0|0:0,0:0:0:0:
152,288,108606,1,0,0:0:0:0:
27,339,108725,1,8,0:0:0:0:
152,288,109201,6,0,L|27:339,2,135.000001573563,4|8|0,2:0|0:0|0:0,0:0:0:0:
374,157,109915,1,8,0:0:0:0:
282,114,110034,1,8,0:0:0:0:
200,72,110154,6,0,L|45:8,2,135.000001573563,0|8|0,0:0|0:0|0:0,0:0:0:0:
440,192,110868,1,8,0:0:0:0:
354,230,110987,1,8,0:0:0:0:
267,207,111106,6,0,B|202:184|202:184|136:210,1,135.000001573563,0|8,0:0|0:0,0:0:0:0:
277,86,111582,2,0,B|341:109|341:109|406:82,1,135.000001573563,0|8,0:0|0:0,0:0:0:0:
476,25,111939,1,8,0:0:0:0:
424,100,112058,6,0,L|269:164,1,135.000001573563,0|8,0:0|0:0,0:0:0:0:
69,136,112534,2,0,P|122:93|189:108,1,135.000001573563,0|8,0:0|0:0,0:0:0:0:
423,99,113011,6,0,L|299:151,2,135.000001573563,0|8|0,0:0|0:0|0:0,0:0:0:0:
184,152,113725,1,8,0:0:0:0:
72,144,113844,1,8,0:0:0:0:
304,64,113963,6,0,L|371:72,1,67.5000007867814,0|0,0:0|2:0,0:0:0:0:
263,239,114201,2,0,L|180:229,1,67.5000007867814,8|0,0:0|2:0,0:0:0:0:
249,145,114439,2,0,L|335:156,1,67.5000007867814,0|0,0:0|2:0,0:0:0:0:
206,319,114677,2,0,L|140:311,1,67.5000007867814,8|8,0:0|0:0,0:0:0:0:
101,334,114915,6,0,P|136:343|175:340,1,67.5000007867814,0|0,0:0|2:0,0:0:0:0:
315,153,115154,2,0,P|280:144|241:147,1,67.5000007867814,8|0,0:0|2:0,0:0:0:0:
197,231,115392,2,0,P|232:240|271:237,1,67.5000007867814,0|0,0:0|2:0,0:0:0:0:
410,49,115630,2,0,P|375:40|336:43,1,67.5000007867814,8|8,0:0|1:0,0:0:0:0:
353,239,115868,6,0,L|419:226,1,67.5000007867814,0|0,0:0|2:0,0:0:0:0:
248,145,116106,2,0,L|182:133,1,67.5000007867814,8|0,0:0|0:0,0:0:0:0:
48,232,116344,1,0,0:0:0:0:
197,231,116463,1,0,0:0:0:0:
0,144,116582,1,8,0:0:0:0:
248,145,116701,1,8,0:0:0:0:
48,48,116820,1,4,2:0:0:0:
48,48,117058,6,0,L|240:16,2,179.999995231629,8|0|8,0:0|0:0|0:0,0:0:0:0:
48,48,117654,1,8,0:0:0:0:
296,336,117773,5,0,0:0:0:0:
296,336,118011,2,0,L|118:306,2,179.999995231629,8|0|8,0:0|0:0|0:0,0:0:0:0:
296,336,118606,1,8,0:0:0:0:
314,71,118725,5,0,0:0:0:0:
314,71,118963,2,0,L|403:57,1,89.9999976158143,8|0,0:0|2:0,0:0:0:0:
135,207,119201,2,0,L|31:207,1,89.9999976158143,0|0,0:0|2:0,0:0:0:0:
408,336,119439,2,0,L|497:350,1,89.9999976158143,8|8,0:0|0:0,0:0:0:0:
408,216,119677,6,0,P|336:168|248:192,1,179.999995231629,0|8,0:0|0:0,0:0:0:0:
22,80,120154,2,0,P|94:128|182:104,1,179.999995231629,0|8,0:0|0:0,0:0:0:0:
179,106,120511,1,8,0:0:0:0:
260,341,120630,6,0,L|72:320,1,179.999995231629,0|8,0:0|0:0,0:0:0:0:
252,43,121106,2,0,L|440:64,1,179.999995231629,0|8,0:0|0:0,0:0:0:0:
430,62,121463,1,8,0:0:0:0:
58,162,121582,6,0,L|137:204,1,89.9999976158143,0|0,0:0|0:0,0:0:0:0:
294,158,121820,2,0,L|322:73,1,89.9999976158143,8|0,0:0|0:0,0:0:0:0:
190,73,122058,2,0,L|221:171,1,89.9999976158143,0|0,0:0|0:0,0:0:0:0:
384,180,122296,2,0,L|496:120,1,89.9999976158143,8|0,0:0|0:0,0:0:0:0:
454,162,122534,6,0,L|348:219,1,89.9999976158143,0|0,0:0|2:0,0:0:0:0:
294,158,122773,2,0,L|322:73,1,89.9999976158143,8|0,0:0|2:0,0:0:0:0:
190,73,123011,2,0,L|221:171,1,89.9999976158143,0|0,0:0|2:0,0:0:0:0:
137,204,123249,2,0,L|58:162,1,89.9999976158143,8|8,0:0|1:0,0:0:0:0:
42,295,123487,6,0,L|155:304,1,89.9999976158143,0|0,0:0|2:0,0:0:0:0:
470,295,123725,2,0,L|357:304,1,89.9999976158143,8|0,0:0|2:0,0:0:0:0:
133,282,123963,2,0,L|43:274,1,89.9999976158143,0|0,0:0|2:0,0:0:0:0:
381,282,124201,2,0,L|470:274,1,89.9999976158143,8|8,0:0|1:0,0:0:0:0:
268,70,124439,6,0,P|206:193|330:133,1,359.999990463257,4|0,0:0|0:0,0:0:0:0:
160,24,124796,6,0,L|8:40,1,135.000001573563,4|0,0:0|0:0,0:0:0:0:
257,142,125034,2,0,L|391:127,1,135.000001573563,4|0,0:0|0:0,0:0:0:0:
496,120,125273,1,4,0:0:0:0:
152,208,125392,2,0,P|120:280|152:336,1,135.000001573563,4|0,0:0|0:0,0:0:0:0:
360,352,125630,2,0,P|392:280|360:224,1,135.000001573563,4|0,0:0|0:0,0:0:0:0:
256,280,125868,6,0,L|256:384,1,89.9999976158143,4|8,0:0|1:0,0:0:0:0:
128,40,126344,6,0,P|136:104|166:139,1,112.499997019768,4|0,2:0|2:0,0:0:0:0:
384,344,126582,2,0,P|376:280|346:245,1,112.499997019768,8|0,0:0|2:0,0:0:0:0:
408,64,126820,2,0,P|344:72|309:102,1,112.499997019768,0|0,0:0|2:0,0:0:0:0:
104,320,127058,2,0,P|168:312|203:282,1,112.499997019768,8|0,0:0|2:0,0:0:0:0:
345,244,127296,1,0,0:0:0:0:
166,139,127415,1,0,0:0:0:0:
15,258,127534,2,0,P|92:319|202:282,1,224.999994039536,8|0,0:0|0:0,0:0:0:0:
392,168,128011,5,8,0:0:0:0:
128,40,128130,1,0,0:0:0:0:
276,321,128249,2,0,P|328:291|344:235,1,112.499997019768,0|0,0:0|2:0,0:0:0:0:
83,181,128487,2,0,P|34:206|14:258,1,112.499997019768,8|0,0:0|2:0,0:0:0:0:
440,288,128725,2,0,P|492:258|508:202,1,112.499997019768,0|0,0:0|2:0,0:0:0:0:
392,40,128963,2,0,P|288:64|264:168,1,224.999994039536,8|0,0:0|0:0,0:0:0:0:
252,191,129439,6,0,L|266:320,1,112.499997019768,8|0,0:0|2:0,0:0:0:0:
402,222,129677,2,0,L|423:105,1,112.499997019768,0|0,0:0|2:0,0:0:0:0:
82,35,129915,2,0,L|55:167,1,112.499997019768,8|0,0:0|2:0,0:0:0:0:
264,302,130154,6,0,L|395:311,1,112.499997019768,0|0,1:0|2:0,0:0:0:0:
194,42,130392,2,0,L|73:34,1,112.499997019768,8|0,0:0|2:0,0:0:0:0:
152,288,130630,1,0,0:0:0:0:
40,336,130749,2,0,P|28:276|48:224,1,112.499997019768,0|8,0:0|0:0,0:0:0:0:
399,65,130987,6,0,P|319:76|340:209,1,224.999994039536,4|0,2:0|0:0,0:0:0:0:
487,325,131344,2,0,L|366:308,1,112.499997019768,8|0,0:0|2:0,0:0:0:0:
44,228,131582,1,0,0:0:0:0:
152,288,131701,2,0,L|270:270,1,112.499997019768,0|8,0:0|0:0,0:0:0:0:
309,86,131939,6,0,P|218:142|125:89,1,224.999994039536,0|0,0:0|0:0,0:0:0:0:
217,36,132296,1,8,0:0:0:0:
320,272,132415,1,0,0:0:0:0:
69,337,132534,2,0,L|43:227,1,112.499997019768,0|0,0:0|0:0,0:0:0:0:
124,88,132773,1,8,0:0:0:0:
208,288,132892,6,0,P|206:183|307:158,1,224.999994039536,4|0,2:0|0:0,0:0:0:0:
448,0,133249,2,0,L|409:136,1,112.499997019768,8|0,0:0|0:0,0:0:0:0:
460,220,133487,1,0,0:0:0:0:
307,158,133606,1,0,0:0:0:0:
208,288,133725,1,8,0:0:0:0:
55,226,133844,1,0,0:0:0:0:
307,158,133963,6,0,P|332:104|314:55,1,112.499997019768,4|0,2:0|2:0,0:0:0:0:
168,2,134201,2,0,P|143:56|161:105,1,112.499997019768,8|0,0:0|2:0,0:0:0:0:
208,288,134439,2,0,P|233:234|215:185,1,112.499997019768,0|0,0:0|2:0,0:0:0:0:
464,32,134677,2,0,P|439:86|457:135,1,112.499997019768,8|0,0:0|2:0,0:0:0:0:
487,325,134915,1,0,0:0:0:0:
159,103,135034,1,0,0:0:0:0:
59,335,135154,2,0,P|139:383|256:328,1,224.999994039536,8|0,0:0|0:0,0:0:0:0:
168,2,135630,5,8,0:0:0:0:
160,184,135749,1,0,0:0:0:0:
343,295,135868,2,0,L|487:285,1,112.499994039536,0|0,0:0|2:0,0:0:0:0:
160,184,136106,2,0,L|16:174,1,112.499994039536,8|0,0:0|3:0,0:0:0:0:
351,39,136344,2,0,L|495:29,1,112.499994039536
251,334,136582,2,0,P|155:384|59:335,1,224.999994039536,8|0,0:0|0:0,0:0:0:0:
433,176,137058,6,0,L|455:286,1,112.499997019768,8|0,0:0|2:0,0:0:0:0:
248,132,137296,2,0,L|227:15,1,112.499997019768,0|0,0:0|2:0,0:0:0:0:
151,271,137534,2,0,L|173:381,1,112.499997019768,8|0,0:0|2:0,0:0:0:0:
257,252,137773,6,0,B|202:244|202:244|126:285,1,112.499997019768,0|0,0:0|2:0,0:0:0:0:
322,97,138011,2,0,B|382:103|382:103|449:74,1,112.499997019768,8|0,0:0|2:0,0:0:0:0:
480,216,138249,1,0,0:0:0:0:
368,368,138368,2,0,L|345:257,1,112.499997019768,0|8,0:0|0:0,0:0:0:0:
53,57,138606,6,0,P|133:68|112:201,1,224.999994039536,4|0,2:0|0:0,0:0:0:0:
58,334,138963,2,0,L|170:344,1,112.499997019768,8|0,0:0|0:0,0:0:0:0:
480,216,139201,1,0,0:0:0:0:
345,257,139320,2,0,L|216:248,1,112.499997019768,0|8,0:0|0:0,0:0:0:0:
260,19,139558,6,0,P|325:103|429:82,1,224.999994039536
512,0,139915,1,8,0:0:0:0:
260,19,140034,1,0,0:0:0:0:
53,57,140154,2,0,L|79:166,1,112.499997019768
58,334,140392,1,8,0:0:0:0:
412,305,140510,6,0,P|413:201|312:176,1,224.999994039536
179,353,140868,2,0,L|288:384,1,112.499997019768,8|0,0:0|2:0,0:0:0:0:
512,200,141106,1,0,0:0:0:0:
412,306,141225,1,0,0:0:0:0:
232,248,141344,1,8,0:0:0:0:
58,334,141463,1,8,0:0:0:0:
64,136,141582,6,0,L|175:152,1,112.499997019768,4|0,2:0|2:0,0:0:0:0:
455,39,141820,2,0,L|344:56,1,112.499997019768,8|0,0:0|1:0,0:0:0:0:
327,308,142058,1,0,0:0:0:0:
401,217,142177,2,0,L|512:200,1,112.499997019768,0|8,0:0|0:0,0:0:0:0:
327,308,142415,6,0,P|243:373|147:328,1,224.999994039536,0|0,0:0|0:0,0:0:0:0:
292,1,142773,2,0,L|312:112,1,112.499997019768,8|0,0:0|2:0,0:0:0:0:
80,376,143011,2,0,L|61:266,1,112.499997019768,0|0,0:0|2:0,0:0:0:0:
0,176,143249,1,8,0:0:0:0:
152,56,143368,6,0,B|163:119|163:119|209:200|209:200|221:266,1,224.999994039536,4|0,2:0|0:0,0:0:0:0:
240,376,143725,1,8,0:0:0:0:
60,265,143844,1,0,0:0:0:0:
311,111,143963,2,0,P|357:74|408:78,1,112.499997019768,0|0,0:0|0:0,0:0:0:0:
512,128,144201,1,8,0:0:0:0:
320,304,144320,6,0,P|192:368|136:328,1,224.999994039536,0|0,0:0|0:0,0:0:0:0:
216,48,144677,2,0,L|236:176,1,112.499997019768,8|8,0:0|0:0,0:0:0:0:
188,84,145034,2,0,L|200:160,1,56.2499985098839,4|0,0:0|2:0,0:0:0:0:
224,276,145391,5,4,1:0:0:0:
191,50,156820,5,4,2:0:0:0:
320,333,157058,1,8,0:0:0:0:
310,46,157296,5,4,2:0:0:0:
201,336,157534,1,8,0:0:0:0:
397,127,157773,5,4,2:0:0:0:
114,256,158011,1,8,0:0:0:0:
400,245,158249,5,4,2:0:0:0:
110,136,158487,1,8,0:0:0:0:
320,333,158725,5,4,2:0:0:0:
192,48,158963,1,8,0:0:0:0:
201,336,159201,5,4,2:0:0:0:
310,46,159439,1,8,0:0:0:0:
78,274,159677,5,4,2:0:0:0:
433,109,159915,1,8,0:0:0:0:
71,125,160153,5,12,0:0:0:0:
439,257,160391,1,12,0:0:0:0:
439,257,162534,5,0,0:0:0:0:
376,345,162772,1,8,0:0:0:0:
273,311,163011,1,0,0:0:0:0:
273,203,163249,1,8,0:0:0:0:
376,170,163487,1,0,0:0:0:0:
416,32,163725,1,8,0:0:0:0:
392,184,163963,1,0,0:0:0:0:
400,40,164201,1,8,0:0:0:0:
136,39,164439,5,0,0:0:0:0:
73,127,164677,1,8,0:0:0:0:
136,214,164916,1,0,0:0:0:0:
239,181,165153,1,8,0:0:0:0:
240,72,165392,1,0,0:0:0:0:
400,40,165630,1,8,0:0:0:0:
224,56,165868,1,0,0:0:0:0:
392,56,166106,1,8,0:0:0:0:
239,203,166344,5,0,0:0:0:0:
239,311,166582,1,8,0:0:0:0:
136,345,166820,1,0,0:0:0:0:
73,257,167059,1,8,0:0:0:0:
136,170,167297,1,0,0:0:0:0:
96,32,167535,1,8,0:0:0:0:
120,184,167773,1,0,0:0:0:0:
112,40,168011,1,8,0:0:0:0:
376,39,168249,5,0,0:0:0:0:
439,127,168487,1,8,0:0:0:0:
376,214,168726,1,0,0:0:0:0:
273,181,168963,1,8,0:0:0:0:
272,72,169202,1,0,0:0:0:0:
112,40,169440,1,8,0:0:0:0:
288,56,169678,1,0,0:0:0:0:
120,56,169915,5,8,0:0:0:0:
120,56,170034,1,8,0:0:0:0:
120,56,170153,2,0,L|269:45,1,143.999992370606,4|8,2:0|0:0,0:0:0:0:
440,32,170630,1,0,0:0:0:0:
263,45,170868,1,8,0:0:0:0:
368,144,171106,2,0,L|511:154,1,143.999992370606,0|8,0:0|0:0,0:0:0:0:
440,32,171582,1,0,0:0:0:0:
432,264,171820,1,8,0:0:0:0:
160,180,172058,6,0,L|17:191,1,143.999992370606,0|8,0:0|0:0,0:0:0:0:
96,304,172534,1,8,0:0:0:0:
88,72,172773,1,0,0:0:0:0:
352,96,173011,2,0,P|386:157|378:228,1,143.999992370606,0|8,0:0|0:0,0:0:0:0:
200,312,173487,1,0,0:0:0:0:
352,96,173725,1,8,0:0:0:0:
119,224,173963,6,0,P|86:286|94:356,1,143.999992370606,0|8,0:0|0:0,0:0:0:0:
336,360,174439,1,0,0:0:0:0:
168,96,174677,1,8,0:0:0:0:
472,72,174915,2,0,P|506:133|498:204,1,143.999992370606,0|8,0:0|0:0,0:0:0:0:
256,352,175392,1,0,0:0:0:0:
472,72,175630,1,8,0:0:0:0:
40,72,175868,1,8,0:0:0:0:
256,192,177296,6,0,L|134:198,1,89.9999976158143,8|2,0:0|2:0,0:0:0:0:
400,240,177773,6,0,P|418:290|418:354,1,112.499994039536,4|0,2:0|2:0,0:0:0:0:
112,144,178011,2,0,P|94:94|94:30,1,112.499994039536,8|0,0:0|2:0,0:0:0:0:
468,81,178249,2,0,P|417:103|361:106,1,112.499994039536,0|0,0:0|2:0,0:0:0:0:
43,302,178487,2,0,P|94:280|150:277,1,112.499994039536,8|0,0:0|2:0,0:0:0:0:
418,348,178725,1,0,0:0:0:0:
112,144,178844,1,0,0:0:0:0:
252,370,178963,2,0,P|312:282|256:192,1,224.999988079071,8|0,0:0|0:0,0:0:0:0:
149,277,179439,5,8,0:0:0:0:
418,348,179558,1,0,0:0:0:0:
361,106,179677,2,0,L|488:88,1,112.499994039536,0|0,0:0|2:0,0:0:0:0:
112,40,179915,2,0,L|-16:56,1,112.499994039536,8|0,0:0|2:0,0:0:0:0:
376,288,180153,2,0,L|503:270,1,112.499994039536
252,369,180392,2,0,P|196:273|276:185,1,224.999988079071,8|0,0:0|0:0,0:0:0:0:
78,225,180868,6,0,L|56:336,1,112.499994039536,8|0,0:0|2:0,0:0:0:0:
362,353,181106,2,0,L|383:243,1,112.499994039536,0|0,0:0|2:0,0:0:0:0:
288,0,181344,2,0,L|264:120,1,112.499994039536,8|0,0:0|2:0,0:0:0:0:
363,354,181582,6,0,P|407:360|477:386,1,112.499994039536
152,98,181820,2,0,P|102:97|40:80,1,112.499994039536,8|0,0:0|2:0,0:0:0:0:
0,192,182058,1,0,0:0:0:0:
216,376,182177,2,0,L|238:265,1,112.499994039536,0|8,0:0|0:0,0:0:0:0:
399,31,182415,6,0,P|312:76|340:188,1,224.999988079071,4|0,2:0|0:0,0:0:0:0:
473,330,182773,2,0,L|361:354,1,112.499994039536,8|0,0:0|2:0,0:0:0:0:
216,376,183011,1,0,0:0:0:0:
0,191,183130,2,0,L|110:215,1,112.499994039536,0|8,0:0|0:0,0:0:0:0:
416,80,183368,6,0,P|344:152|232:112,1,224.999988079071
72,0,183725,1,8,0:0:0:0:
304,16,183844,1,0,0:0:0:0:
342,242,183963,2,0,L|365:367,1,112.499994039536
496,272,184201,1,8,0:0:0:0:
235,117,184320,6,0,P|128:116|120:228,1,224.999988079071,4|0,2:0|0:0,0:0:0:0:
400,88,184677,2,0,L|520:64,1,112.499994039536,8|0,0:0|0:0,0:0:0:0:
496,272,184915,1,0,0:0:0:0:
342,242,185034,1,0,0:0:0:0:
213,347,185154,1,8,0:0:0:0:
59,317,185273,1,8,0:0:0:0:
288,144,185392,6,0,P|304:109|296:32,1,112.499994039536,4|0,2:0|2:0,0:0:0:0:
224,240,185630,2,0,P|208:275|216:352,1,112.499994039536,8|0,0:0|2:0,0:0:0:0:
464,304,185868,2,0,P|480:269|472:192,1,112.499994039536,0|0,0:0|2:0,0:0:0:0:
48,80,186106,2,0,P|32:115|40:192,1,112.499994039536,8|0,0:0|2:0,0:0:0:0:
59,317,186344,5,0,0:0:0:0:
453,67,186463,1,0,0:0:0:0:
160,120,186582,2,0,P|235:196|335:160,1,224.999988079071,8|0,0:0|0:0,0:0:0:0:
453,67,187058,5,8,0:0:0:0:
474,196,187177,1,0,0:0:0:0:
387,328,187296,2,0,B|328:328|328:328|224:296|224:296|160:296,1,224.999988079071,4|8,2:0|0:0,0:0:0:0:
125,56,187773,2,0,B|184:56|184:56|288:88|288:88|352:88,1,224.999988079071,0|8,0:0|0:0,0:0:0:0:
345,88,188130,1,8,0:0:0:0:
120,384,188249,6,0,P|56:304|128:208,1,224.999988079071,4|8,2:0|0:0,0:0:0:0:
392,0,188725,2,0,P|456:80|384:176,1,224.999988079071,0|8,0:0|0:0,0:0:0:0:
256,336,189201,6,0,L|134:355,1,112.499994039536,0|0,0:0|2:0,0:0:0:0:
384,48,189439,2,0,L|248:72,1,112.499994039536,8|0,0:0|2:0,0:0:0:0:
144,248,189677,2,0,L|22:267,1,112.499994039536,0|0,0:0|2:0,0:0:0:0:
496,136,189915,2,0,L|368:160,1,112.499994039536,8|0,0:0|2:0,0:0:0:0:
360,280,190154,6,0,L|474:307,1,112.499994039536,0|0,0:0|2:0,0:0:0:0:
165,35,190392,2,0,L|301:75,1,112.499994039536,8|0,0:0|2:0,0:0:0:0:
246,357,190630,2,0,L|368:392,1,112.499994039536,0|0,0:0|2:0,0:0:0:0:
48,112,190868,2,0,L|184:152,1,112.499994039536,8|8,0:0|0:0,0:0:0:0:
88,200,191106,6,0,L|64:320,1,112.499994039536,0|0,0:0|2:0,0:0:0:0:
464,120,191344,2,0,L|440:240,1,112.499994039536,8|0,0:0|2:0,0:0:0:0:
184,272,191582,2,0,L|160:392,1,112.499994039536,0|0,0:0|2:0,0:0:0:0:
368,48,191820,2,0,L|345:158,1,112.499994039536,8|0,0:0|2:0,0:0:0:0:
368,251,192058,6,0,L|392:376,1,112.499994039536,0|0,0:0|2:0,0:0:0:0:
129,95,192296,2,0,L|152:208,1,112.499994039536,8|0,0:0|2:0,0:0:0:0:
46,212,192534,1,0,0:0:0:0:
129,95,192654,1,0,0:0:0:0:
265,182,192773,1,8,0:0:0:0:
339,69,192892,1,8,0:0:0:0:
487,155,193011,6,0,L|373:168,1,112.499994039536,4|0,2:0|0:0,0:0:0:0:
17,82,193249,2,0,L|131:95,1,112.499994039536,8|0,0:0|2:0,0:0:0:0:
426,272,193487,1,0,0:0:0:0:
168,336,193606,2,0,L|54:325,1,112.499994039536,0|8,0:0|0:0,0:0:0:0:
263,183,193844,6,0,P|318:275|425:272,1,224.999988079071
152,40,194201,2,0,L|136:152,1,112.499994039536,8|0,0:0|0:0,0:0:0:0:
376,168,194439,2,0,L|392:40,1,112.499994039536,0|0,0:0|2:0,0:0:0:0:
512,24,194677,1,8,0:0:0:0:
256,112,194796,6,0,L|224:336,1,224.999988079071
368,384,195154,1,8,0:0:0:0:
56,256,195273,1,0,0:0:0:0:
376,168,195392,2,0,L|499:141,1,112.499994039536
152,40,195630,1,8,0:0:0:0:
280,256,195749,6,0,L|528:296,1,224.999988079071
112,152,196106,2,0,L|0:136,1,112.499994039536,8|0,0:0|0:0,0:0:0:0:
278,40,196344,2,0,L|390:56,1,112.499994039536
263,360,196582,2,0,P|255:304|287:248,1,112.499994039536,8|0,0:0|0:0,0:0:0:0:
389,55,196820,6,0,L|397:167,1,112.499994039536,4|0,2:0|0:0,0:0:0:0:
112,152,197058,2,0,L|123:305,1,112.5,8|0,0:0|0:0,0:0:0:0:
263,360,197296,1,0,0:0:0:0:
397,167,197415,1,0,0:0:0:0:
96,48,197534,1,8,0:0:0:0:
255,235,197654,6,0,B|244:160|244:160|268:88|268:88|256:16,1,224.999988079071
456,280,198011,2,0,P|440:336|384:376,1,112.499994039536,8|0,0:0|2:0,0:0:0:0:
32,296,198249,2,0,L|174:304,1,112.499994039536
397,167,198487,1,8,0:0:0:0:
72,24,198606,6,0,P|24:104|112:176,1,225
397,167,198963,2,0,L|424:56,1,112.499994039536,8|0,0:0|0:0,0:0:0:0:
255,235,199201,2,0,L|223:371,1,112.499994039536
168,80,199439,1,8,0:0:0:0:
364,192,199558,6,0,B|292:204|292:204|220:180|220:180|140:192,1,224.999988079071
37,286,199915,2,0,L|10:175,1,112.499994039536,8|0,0:0|2:0,0:0:0:0:
280,0,200153,2,0,L|253:109,1,112.499994039536,0|0,0:0|2:0,0:0:0:0:
364,192,200392,1,8,0:0:0:0:
474,312,200511,1,8,0:0:0:0:
224,264,200630,6,0,P|124:223|37:287,1,224.999988079071,4|8,2:0|0:0,0:0:0:0:
0,376,200987,1,0,0:0:0:0:
288,336,201106,2,0,P|387:376|474:312,1,224.999988079071,4|8,2:0|0:0,0:0:0:0:
512,224,201463,1,0,0:0:0:0:
256,64,201582,6,0,P|156:23|69:87,1,224.999988079071,4|8,2:0|0:0,0:0:0:0:
0,224,201939,1,0,0:0:0:0:
256,208,202058,2,0,P|355:248|442:184,1,224.999988079071,4|8,2:0|0:0,0:0:0:0:
512,48,202415,1,0,0:0:0:0:
192,16,202534,6,0,L|136:248,1,224.999988079071,4|8,2:0|0:0,0:0:0:0:
24,352,202892,1,0,0:0:0:0:
320,16,203011,2,0,L|368:256,1,224.999988079071,4|8,2:0|0:0,0:0:0:0:
488,352,203368,1,0,0:0:0:0:
152,32,203487,6,0,L|96:264,1,224.999988079071,4|8,2:0|0:0,0:0:0:0:
0,384,203844,1,0,0:0:0:0:
344,32,203963,2,0,L|400:264,1,224.999988079071,4|8,2:0|0:0,0:0:0:0:
512,384,204320,1,0,0:0:0:0:
208,256,204439,6,0,L|-32:272,1,224.999988079071,4|8,2:0|0:0,0:0:0:0:
211,49,204915,1,4,2:0:0:0:
304,128,205034,2,0,L|544:112,1,224.999988079071,4|0,2:0|0:0,0:0:0:0:
92,54,205392,6,0,P|48:160|128:256,1,233.999976890565,4|0,2:0|0:0,0:0:0:0:
420,330,205868,6,0,P|464:224|384:128,1,233.999976890565,4|0,2:0|0:0,0:0:0:0:
