osu file format v14

[General]
AudioFilename: audio.mp3
AudioLeadIn: 0
PreviewTime: 69071
Countdown: 0
SampleSet: None
StackLeniency: 0.7
Mode: 2
LetterboxInBreaks: 0
WidescreenStoryboard: 0

[Editor]
DistanceSpacing: 0.9
BeatDivisor: 4
GridSize: 8
TimelineZoom: 2.2

[Metadata]
Title:Akaito
TitleUnicode:アカイト
Artist:Rib
ArtistUnicode:りぶ
Creator:RoseusJaeger
Version:Our Red Thread of Fate
Source:
Tags:sarishinohara サリシノハラ vocaloid utaite utau singing MikitoP みきとP red thread Ascendance
BeatmapID:1289910
BeatmapSetID:610994

[Difficulty]
HPDrainRate:6
CircleSize:4
OverallDifficulty:9.3
ApproachRate:9.3
SliderMultiplier:2.16
SliderTickRate:2

[Events]
//Background and Video events
Video,-200,"Rib-Akaito.avi"
0,0,"together1080.jpg",0,0
//Break Periods
2,243536,253193
//Storyboard Layer 0 (Background)
//Storyboard Layer 1 (Fail)
//Storyboard Layer 2 (Pass)
//Storyboard Layer 3 (Foreground)
//Storyboard Sound Samples

[TimingPoints]
689,352.941176470588,4,2,3,60,1,0
689,-100,4,2,3,60,0,0
6336,-100,4,2,1,40,0,0
7041,-100,4,2,1,50,0,0
8100,-100,4,2,3,60,0,0
8453,-100,4,2,1,60,0,0
8806,-100,4,2,3,60,0,0
10130,-100,4,2,3,35,0,0
10218,-100,4,2,3,60,0,0
11277,-100,4,2,3,75,0,0
11806,-100,4,3,1,80,0,0
20100,-100,4,3,1,55,0,0
22041,-100,4,2,1,55,0,0
23100,-100,4,3,1,65,0,0
23188,-100,4,3,1,65,0,0
34394,-100,4,2,1,40,0,0
34483,-100,4,3,1,65,0,0
45336,-100,4,3,0,65,0,0
45512,-100,4,3,1,65,0,0
45688,-100,4,2,0,55,0,0
45777,-100,4,1,1,65,0,0
48512,-100,4,3,1,65,0,0
48600,-100,4,1,1,65,0,0
50806,-100,4,3,0,65,0,0
50983,-100,4,3,1,65,0,0
51159,-100,4,3,0,65,0,0
51336,-100,4,2,0,65,0,0
51424,-100,4,1,1,65,0,0
54159,-100,4,3,1,65,0,0
54247,-100,4,1,1,65,0,0
55394,-100,4,3,1,65,0,0
56100,-100,4,3,0,65,0,0
56630,-100,4,3,1,65,0,0
56983,-100,4,3,1,70,0,0
59806,-100,4,2,3,70,0,0
59894,-100,4,3,1,70,0,0
62806,-100,4,3,1,70,0,0
62894,-100,4,3,0,70,0,0
64218,-100,4,3,1,70,0,0
64306,-100,4,3,0,70,0,0
65630,-100,4,3,1,70,0,0
65718,-100,4,3,0,70,0,0
67041,-100,4,2,1,35,0,0
67130,-100,4,2,0,35,0,0
68453,-100,4,3,0,55,0,0
68806,-100,4,3,0,70,0,0
69159,-100,4,2,1,70,0,0
69688,-100,4,3,1,85,0,1
87688,-100,4,3,0,55,0,1
87865,-100,4,3,1,85,0,1
89100,-100,4,3,0,55,0,1
89277,-100,4,3,1,85,0,1
90512,-100,4,3,0,55,0,1
90688,-100,4,3,1,85,0,1
95100,-100,4,3,1,70,0,0
105336,-100,4,2,1,25,0,0
106394,-100,4,3,1,70,0,0
106483,-100,4,3,1,70,0,0
109218,-100,4,3,1,70,0,0
109306,-100,4,3,1,70,0,0
114865,-100,4,3,1,70,0,0
114953,-100,4,3,1,70,0,0
116453,-100,4,2,3,70,0,0
117777,-100,4,3,1,70,0,0
122983,-100,4,2,3,70,0,0
123159,-100,4,3,1,70,0,0
123336,-100,4,3,1,70,0,0
123512,-100,4,3,1,70,0,0
128277,-100,4,3,0,70,0,0
128806,-100,4,3,1,70,0,0
128983,-100,4,1,1,70,0,0
131806,-100,4,2,3,70,0,0
131894,-100,4,1,1,70,0,0
133924,-100,4,3,1,70,0,0
134100,-100,4,3,0,70,0,0
134277,-100,4,3,1,70,0,0
134453,-100,4,3,0,70,0,0
134630,-100,4,2,0,70,0,0
134718,-100,4,1,1,70,0,0
139041,-100,4,3,1,70,0,0
140277,-100,4,3,1,70,0,0
146100,-100,4,3,1,70,0,0
146188,-100,4,3,0,70,0,0
147512,-100,4,3,1,70,0,0
147777,-100,4,3,0,70,0,0
148924,-100,4,3,1,70,0,0
149012,-100,4,3,0,70,0,0
149630,-100,4,3,1,70,0,0
149718,-100,4,3,0,70,0,0
150336,-100,4,2,1,40,0,0
151747,-100,4,3,1,70,0,0
152453,-100,4,3,1,80,0,0
152983,-100,4,3,1,85,0,1
170983,-100,4,3,0,85,0,1
171071,-100,4,3,1,85,0,1
172394,-100,4,3,0,85,0,1
172483,-100,4,3,1,85,0,1
175571,-100,4,3,1,100,0,0
175659,-100,4,3,1,70,0,0
178394,-100,4,3,1,45,0,0
178483,-100,4,3,1,70,0,0
181218,-100,4,3,1,100,0,0
181306,-100,4,3,1,70,0,0
185630,-100,4,3,0,70,0,0
185983,-100,4,3,1,70,0,0
186865,-100,4,3,1,80,0,0
195336,-100,4,3,1,80,0,0
195424,-100,4,3,1,80,0,0
195865,-100,4,3,1,80,0,0
196041,-100,4,3,1,80,0,0
196394,-100,4,3,1,80,0,0
196571,-100,4,3,1,80,0,0
196924,-100,4,3,1,50,0,0
197100,-100,4,3,1,80,0,0
198159,-100,4,3,0,80,0,0
215630,-100,4,3,1,80,0,0
217747,-100,4,2,0,80,0,0
217836,-100,4,3,1,80,0,0
219512,-100,4,3,1,50,0,0
219630,-100,4,3,1,30,0,0
219865,-100,4,3,0,60,0,0
220218,-100,4,1,1,50,0,0
220571,-100,4,3,0,50,0,0
220924,-100,4,2,0,50,0,0
221012,-100,4,2,1,50,0,0
223747,-100,4,2,0,50,0,0
223836,-100,4,2,1,50,0,0
226571,-100,4,2,0,45,0,0
226659,-100,4,2,1,45,0,0
229041,-100,4,3,0,35,0,0
229747,-100,4,2,1,35,0,0
231159,-100,4,2,1,40,0,0
232218,-100,4,3,1,45,0,0
235041,-100,4,3,1,55,0,0
237512,-100,4,3,1,55,0,0
237865,-100,4,1,1,60,0,0
238571,-100,4,1,1,70,0,0
239277,-100,4,1,1,80,0,0
239983,-100,4,1,1,90,0,0
240688,-100,4,1,1,100,0,0
240865,-100,4,3,1,70,0,0
241218,-100,4,1,1,70,0,0
241747,-100,4,1,1,40,0,0
253747,-100,4,3,1,50,0,0
253836,-100,4,3,1,50,0,0
261865,-100,4,3,1,70,0,0
262571,-100,4,3,1,90,0,0
263100,-100,4,3,1,90,0,1
281100,-100,4,3,0,70,0,1
281277,-100,4,3,1,90,0,1
282512,-100,4,3,0,90,0,1
282600,-100,4,3,1,90,0,1
285688,-100,4,3,0,90,0,1
286218,-100,4,3,1,90,0,1
286394,-100,4,3,0,90,0,1
286747,-100,4,3,1,90,0,1
286924,-100,4,3,0,90,0,1
287983,-100,4,3,1,90,0,1
288512,-100,4,3,1,80,0,0
291336,-100,4,3,1,80,0,0
291424,-100,4,3,1,80,0,0
299277,-100,4,3,0,80,0,0
299806,-100,4,3,1,80,0,0
302630,-100,4,3,1,80,0,0
302718,-100,4,3,1,80,0,0
305630,-100,4,3,1,70,0,0
306159,-100,4,3,1,60,0,0
306688,-100,4,3,1,50,0,0
307394,-100,4,3,1,40,0,0
308277,-100,4,3,1,70,0,0
308453,-100,4,3,1,5,0,0

[Colours]
Combo1 : 0,168,84
Combo2 : 255,55,55
Combo3 : 197,197,197
Combo4 : 255,255,128

[HitObjects]
352,288,689,6,0,P|416:216|320:136,1,216,4|0,0:0|0:0,0:0:0:0:
168,208,1394,2,0,P|104:160|208:80,1,216,2|0,0:0|0:0,0:0:0:0:
344,192,2100,2,0,P|464:136|504:56,1,216,0|0,0:0|0:0,0:0:0:0:
320,168,2806,2,0,P|440:112|480:32,1,216,2|0,0:0|0:0,0:0:0:0:
64,224,3512,6,0,P|8:176|96:96,1,216,4|0,0:0|0:0,0:0:0:0:
272,192,4218,2,0,P|344:200|480:136,1,216,2|0,0:0|0:0,0:0:0:0:
288,144,4924,2,0,P|200:168|72:96,1,216,0|0,0:0|0:0,0:0:0:0:
392,208,5630,2,0,P|472:176|416:56,1,216,2|0,0:0|0:0,0:0:0:0:
24,224,6336,6,0,L|16:104,1,108,4|0,0:0|0:0,0:0:0:0:
192,184,6688,2,0,L|208:56,1,108,0|0,3:0|0:0,0:0:0:0:
390,184,7041,2,0,L|414:64,1,108,2|0,0:3|0:0,0:0:0:0:
218,184,7394,2,0,L|202:56,1,108,2|0,0:3|0:0,0:0:0:0:
449,197,7747,6,0,L|465:53,1,108,2|0,0:3|0:0,0:0:0:0:
192,192,8100,2,0,L|144:64,1,108,4|0,0:0|0:0,0:0:0:0:
499,207,8453,2,0,L|511:73,1,108,2|0,0:3|0:0,0:0:0:0:
160,208,8806,2,0,L|68:97,1,108,4|0,0:0|0:0,0:0:0:0:
440,304,9159,6,0,P|512:144|331:9,1,432,4|0,0:0|0:0,0:0:0:0:
176,24,10130,1,2,3:0:0:0:
360,200,10218,2,0,L|448:120,1,108,2|0,3:0|0:0,0:0:0:0:
192,200,10571,5,4,0:0:0:0:
136,176,10659,1,0,0:0:0:0:
136,176,10747,1,0,0:0:0:0:
192,200,10836,1,0,0:0:0:0:
376,208,10924,1,4,0:0:0:0:
432,176,11012,1,0,0:0:0:0:
432,176,11100,1,0,0:0:0:0:
376,208,11189,1,0,0:0:0:0:
176,200,11277,6,0,L|96:200,1,54,4|0,0:0|0:0,0:0:0:0:
312,216,11453,2,0,L|392:216,1,54,0|0,3:0|3:0,0:0:0:0:
128,200,11630,2,0,L|32:200,1,54,0|0,1:0|0:0,0:0:0:0:
408,216,11806,6,0,P|480:152|384:88,1,216,6|2,0:2|0:0,0:0:0:0:
160,208,12336,2,0,L|280:208,1,108,8|0,0:0|0:0,0:0:0:0:
440,208,12688,2,0,L|296:208,1,108,2|2,0:0|0:0,0:0:0:0:
80,224,13041,2,0,L|72:96,1,108,8|0,0:0|0:0,0:0:0:0:
328,208,13394,6,0,P|384:176|296:96,1,216,2|8,0:2|0:0,0:0:0:0:
200,104,13924,1,0,0:0:0:0:
376,104,14100,2,0,L|248:104,1,108,2|2,0:2|0:0,0:0:0:0:
448,112,14453,1,8,0:0:0:0:
192,192,14630,6,0,P|128:120|216:72,1,216,6|2,0:2|0:0,0:0:0:0:
384,200,15159,2,0,P|440:160|456:96,1,108,8|0,0:0|0:0,0:0:0:0:
280,200,15512,2,0,L|128:200,1,108,2|2,0:0|0:0,0:0:0:0:
424,200,15865,2,0,L|448:80,1,108,8|0,0:0|0:0,0:0:0:0:
192,208,16218,5,2,0:2:0:0:
96,200,16394,1,2,0:0:0:0:
208,216,16571,1,8,0:0:0:0:
112,208,16747,1,0,0:0:0:0:
448,216,16924,2,0,L|360:136,1,108,2|2,0:2|0:0,0:0:0:0:
192,192,17277,1,8,0:0:0:0:
440,192,17453,6,0,P|504:112|408:64,1,216,6|2,0:2|0:0,0:0:0:0:
176,200,17983,2,0,L|136:88,1,108,8|0,0:0|0:0,0:0:0:0:
320,112,18336,2,0,L|440:112,1,108,2|2,0:0|0:0,0:0:0:0:
176,200,18688,2,0,L|104:96,1,108,8|0,0:0|0:0,0:0:0:0:
368,200,19041,5,2,0:2:0:0:
464,144,19218,1,0,0:0:0:0:
464,144,19394,1,8,0:0:0:0:
368,192,19571,1,0,0:0:0:0:
192,208,19747,2,0,L|64:208,1,108,2|0,0:0|0:0,0:0:0:0:
136,208,20012,1,0,0:0:0:0:
352,216,20100,2,0,L|440:136,1,108,8|0,1:3|0:0,0:0:0:0:
176,200,20453,5,2,0:0:0:0:
432,144,20630,1,2,0:0:0:0:
256,144,20983,1,2,0:0:0:0:
504,136,21159,1,2,0:0:0:0:
328,200,21512,1,2,0:0:0:0:
48,192,21688,1,8,0:0:0:0:
264,200,22041,5,0,0:0:0:0:
320,160,22130,1,0,0:0:0:0:
120,160,22218,1,2,0:0:0:0:
48,104,22394,1,0,0:0:0:0:
288,184,22571,1,2,0:0:0:0:
184,120,22748,1,0,0:0:0:0:
80,56,22924,1,2,0:0:0:0:
400,232,23100,6,0,P|448:208|368:112,1,216,4|2,0:2|0:0,0:0:0:0:
200,192,23630,2,0,L|104:104,1,108,8|0,0:0|0:0,0:0:0:0:
304,192,23983,2,0,L|424:192,1,108,2|0,0:0|0:0,0:0:0:0:
152,216,24336,2,0,P|120:168|160:128,1,108,8|0,0:0|0:0,0:0:0:0:
400,200,24688,6,0,L|288:200,2,108,0|0|8,0:0|0:0|0:0,0:0:0:0:
224,216,25218,2,0,L|320:160,1,108,2|0,0:0|0:0,0:0:0:0:
144,216,25571,2,0,L|184:104,1,108,2|8,0:0|0:0,0:0:0:0:
440,248,25924,6,0,P|496:192|408:88,1,216,2|2,0:0|0:0,0:0:0:0:
176,208,26453,1,8,0:0:0:0:
288,208,26630,1,0,0:0:0:0:
472,224,26806,2,0,L|416:128,1,108,2|0,0:0|0:0,0:0:0:0:
160,208,27159,2,0,P|112:152|136:96,1,108,8|0,0:0|0:0,0:0:0:0:
376,208,27512,6,0,L|408:104,1,108,2|0,0:0|0:0,0:0:0:0:
304,80,27865,1,8,0:0:0:0:
128,200,28041,2,0,P|56:136|160:96,1,216,2|2,0:0|0:0,0:0:0:0:
304,200,28571,1,8,0:0:0:0:
40,208,28747,6,0,P|96:136|256:144,1,216,2|2,0:0|0:0,0:0:0:0:
480,208,29277,2,0,L|336:208,1,108,8|0,0:0|0:0,0:0:0:0:
192,208,29630,2,0,P|144:136|144:80,1,108,2|0,0:0|0:0,0:0:0:0:
408,192,29983,2,0,P|424:96|408:64,1,108,8|0,0:0|0:0,0:0:0:0:
152,192,30336,6,0,L|248:120,1,108,2|0,0:0|0:0,0:0:0:0:
504,216,30688,2,0,P|480:144|408:120,1,108,8|2,0:0|0:0,0:0:0:0:
336,120,31041,1,0,0:0:0:0:
224,120,31218,1,2,0:0:0:0:
400,168,31394,1,8,0:0:0:0:
136,192,31571,6,0,P|64:128|160:80,1,216,2|2,0:0|0:0,0:0:0:0:
400,200,32100,2,0,P|440:104|416:80,1,108,8|0,0:0|0:0,0:0:0:0:
328,112,32453,2,0,L|208:112,1,108,2|0,0:0|0:0,0:0:0:0:
480,160,32806,2,0,L|344:160,1,108,8|0,0:0|0:0,0:0:0:0:
200,192,33159,6,0,P|128:144|104:96,1,108,2|0,0:0|0:0,0:0:0:0:
384,200,33512,2,0,P|408:128|376:88,1,108,8|0,0:0|0:0,0:0:0:0:
216,96,33865,1,2,0:0:0:0:
480,112,34041,1,8,0:0:0:0:
304,112,34218,1,2,0:0:0:0:
40,200,34394,6,0,P|16:120|128:56,1,216,4|2,0:0|0:0,0:0:0:0:
376,200,34924,2,0,L|336:96,1,108,8|0,0:0|0:0,0:0:0:0:
224,80,35277,2,0,L|352:80,1,108,2|0,0:0|0:0,0:0:0:0:
72,208,35630,2,0,P|64:104|80:64,1,108,8|0,0:0|0:0,0:0:0:0:
240,88,35983,6,0,L|104:88,1,108,2|0,0:0|0:0,0:0:0:0:
392,192,36336,2,0,L|336:64,1,108,8|2,0:0|0:0,0:0:0:0:
232,88,36688,1,0,0:0:0:0:
56,96,36865,1,2,0:0:0:0:
304,136,37041,1,8,0:0:0:0:
144,208,37218,6,0,P|88:152|184:80,1,216,2|2,0:0|0:0,0:0:0:0:
488,208,37747,2,0,L|352:208,1,108,8|0,0:0|0:0,0:0:0:0:
208,224,38100,2,0,P|168:152|192:96,1,108,2|0,0:0|0:0,0:0:0:0:
416,184,38453,2,0,P|384:80|352:64,1,108,8|0,0:0|0:0,0:0:0:0:
144,200,38806,5,2,0:0:0:0:
390,85,38983,2,0,L|247:85,1,108,0|8,0:0|0:0,0:0:0:0:
144,200,39336,2,0,P|88:152|160:56,1,216,2|2,0:0|0:0,0:0:0:0:
400,192,39865,1,8,0:0:0:0:
240,72,40041,6,0,P|352:64|448:144,1,216,2|2,0:0|0:0,0:0:0:0:
112,224,40571,2,0,P|80:128|80:96,1,108,8|0,0:0|0:0,0:0:0:0:
256,184,40924,2,0,L|376:184,1,108,2|0,0:0|0:0,0:0:0:0:
120,96,41277,2,0,P|168:40|232:24,1,108,8|0,0:0|0:0,0:0:0:0:
376,200,41630,6,0,L|256:200,1,108,2|0,0:0|0:0,0:0:0:0:
24,216,41983,1,8,0:0:0:0:
176,224,42159,2,0,P|224:128|208:88,1,108,2|0,0:0|0:0,0:0:0:0:
56,128,42512,2,0,L|176:128,1,108,2|8,0:0|0:0,0:0:0:0:
424,272,42865,6,0,P|488:208|400:128,1,216,2|2,0:0|0:0,0:0:0:0:
176,136,43394,1,8,0:0:0:0:
352,240,43571,2,0,P|400:216|440:128,2,108,0|2|0,0:0|0:0|0:0,0:0:0:0:
104,200,44100,2,0,L|32:80,1,108,8|0,0:0|0:0,0:0:0:0:
320,208,44453,6,0,P|392:200|432:104,1,162,2|0,0:0|0:0,0:0:0:0:
248,288,44806,2,0,L|144:248,1,108,8|0,0:0|0:0,0:0:0:0:
208,232,45071,1,2,0:0:0:0:
392,184,45159,2,0,L|328:112,1,54,2|0,0:0|0:0,0:0:0:0:
147,73,45336,2,0,L|200:24,1,54,8|0,0:0|0:0,0:0:0:0:
424,56,45512,2,0,L|459:96,1,54,8|0,0:0|0:0,0:0:0:0:
112,216,45688,6,0,P|48:144|136:80,1,216,4|0,0:0|0:0,0:0:0:0:
240,88,46218,2,0,L|384:88,1,108,2|0,1:3|0:0,0:0:0:0:
168,184,46571,2,0,L|224:64,1,108,8|0,0:3|0:0,0:0:0:0:
392,184,46924,2,0,L|360:48,1,108,0|0,1:0|1:0,0:0:0:0:
112,208,47277,5,2,0:3:0:0:
224,208,47453,2,0,L|376:208,1,108,0|2,0:0|0:3,0:0:0:0:
160,208,47806,2,0,P|112:184|88:96,2,108,0|8|0,0:0|1:3|0:0,0:0:0:0:
344,192,48336,1,0,0:0:0:0:
104,192,48512,6,0,P|184:152|328:192,1,216,4|0,0:2|3:0,0:0:0:0:
416,200,49041,2,0,L|296:200,1,108,2|0,0:3|0:0,0:0:0:0:
64,288,49394,2,0,P|8:200|96:112,1,216,8|0,0:3|1:0,0:0:0:0:
176,112,49924,1,0,1:0:0:0:
424,200,50100,6,0,P|352:144|216:128,1,216,2|2,0:3|0:3,0:0:0:0:
400,144,50630,1,8,0:3:0:0:
231,125,50806,1,8,0:0:0:0:
328,128,50983,1,8,0:0:0:0:
160,128,51159,1,4,0:0:0:0:
416,280,51336,6,0,P|488:216|408:152,1,216,4|0,3:2|0:0,0:0:0:0:
240,200,51865,2,0,L|208:96,1,108,2|0,0:3|0:0,0:0:0:0:
456,200,52218,2,0,P|456:112|416:80,1,108,8|0,0:3|0:0,0:0:0:0:
144,200,52571,2,0,P|64:152|56:96,1,108,0|0,1:0|1:0,0:0:0:0:
304,72,52924,6,0,P|408:88|488:176,2,216,2|2|8,0:3|0:3|1:3,0:0:0:0:
120,216,53806,1,0,0:0:0:0:
376,208,53983,1,2,0:3:0:0:
96,208,54159,6,0,P|48:136|144:72,1,216,4|0,0:2|3:0,0:0:0:0:
312,200,54688,2,0,P|360:192|432:160,1,108,2|0,0:3|0:0,0:0:0:0:
168,200,55041,2,0,L|104:80,1,108,8|0,0:3|0:0,0:0:0:0:
368,64,55394,2,0,P|320:32|240:24,1,108,0|8,0:0|0:0,0:0:0:0:
32,192,55747,5,0,0:0:0:0:
328,208,55924,1,8,0:0:0:0:
80,216,56100,2,0,P|64:144|112:96,1,108,8|2,0:0|0:0,0:0:0:0:
120,88,56365,1,0,0:0:0:0:
328,208,56453,2,0,L|472:208,1,108,12|2,0:0|0:0,0:0:0:0:
192,208,56806,1,8,0:0:0:0:
436,208,56983,6,0,P|436:136|308:72,1,216,4|0,0:2|0:0,0:0:0:0:
224,88,57512,2,0,L|352:64,1,108,8|0,0:0|0:0,0:0:0:0:
152,168,57865,2,0,P|120:128|136:40,1,108,2|2,0:0|0:0,0:0:0:0:
360,208,58218,2,0,P|384:144|360:80,1,108,8|0,0:0|0:0,0:0:0:0:
112,200,58571,6,0,L|272:200,1,108,2|0,0:0|0:0,0:0:0:0:
464,224,58924,1,8,0:0:0:0:
360,232,59100,2,0,P|296:160|384:112,1,216,2|2,0:0|0:0,0:0:0:0:
480,104,59630,1,8,0:0:0:0:
184,200,59806,6,0,P|248:136|400:160,1,216,4|2,0:0|0:0,0:0:0:0:
184,168,60336,2,0,L|88:120,1,108,8|0,0:0|0:0,0:0:0:0:
328,240,60688,2,0,L|441:166,1,108,2|2,0:0|0:0,0:0:0:0:
176,152,61041,2,0,L|48:152,1,108,8|0,0:0|0:0,0:0:0:0:
352,216,61394,6,0,P|432:192|408:64,1,216,2|8,0:0|0:0,0:0:0:0:
320,40,61924,1,0,0:0:0:0:
144,160,62100,1,2,0:0:0:0:
384,208,62277,1,0,0:0:0:0:
398,156,62365,1,0,0:0:0:0:
192,160,62453,1,8,0:0:0:0:
88,160,62630,1,0,0:0:0:0:
398,156,62806,6,0,P|470:84|366:52,1,216,4|0,0:2|0:0,0:0:0:0:
280,56,63336,2,0,L|128:56,1,108,8|0,0:0|0:0,0:0:0:0:
280,56,63688,2,0,L|416:56,1,108,0|8,0:0|0:0,0:0:0:0:
280,56,64041,1,0,0:0:0:0:
40,200,64218,5,4,0:2:0:0:
192,208,64394,2,0,L|232:88,1,108,0|0,0:0|0:0,0:0:0:0:
64,80,64747,2,0,P|160:40|272:96,1,216,8|0,0:0|0:0,0:0:0:0:
504,208,65277,2,0,P|480:136|416:104,1,108,4|0,0:0|0:0,0:0:0:0:
152,272,65630,6,0,P|88:200|184:160,1,216,4|0,0:2|0:0,0:0:0:0:
344,184,66159,1,8,0:0:0:0:
248,176,66335,1,0,0:0:0:0:
360,192,66512,1,0,0:0:0:0:
264,184,66688,1,8,0:0:0:0:
440,208,66865,1,0,0:0:0:0:
192,376,67041,6,0,P|88:288|336:40,1,594,4|0,0:2|0:0,0:0:0:0:
120,192,68100,2,0,P|80:144|80:56,1,108,8|0,0:0|0:0,0:0:0:0:
320,240,68453,6,0,L|464:240,1,108,0|0,0:0|0:0,0:0:0:0:
168,240,68806,2,0,L|40:240,1,108,0|0,0:0|0:0,0:0:0:0:
444,288,69159,2,0,P|496:200|408:120,1,216,2|2,0:2|0:2,0:0:0:0:
40,208,69688,6,0,P|144:136|264:168,1,216,6|2,0:2|0:2,0:0:0:0:
408,192,70218,2,0,L|272:192,1,108,8|0,0:0|0:0,0:0:0:0:
120,184,70571,2,0,L|264:184,1,108,2|2,0:0|0:2,0:0:0:0:
408,192,70924,1,8,0:0:0:0:
160,208,71100,6,0,P|200:144|344:136,1,216,2|2,0:0|0:2,0:0:0:0:
224,216,71630,1,8,0:0:0:0:
128,128,71806,1,0,0:0:0:0:
384,128,71983,1,2,0:0:0:0:
280,216,72159,1,2,0:2:0:0:
104,224,72336,1,8,0:0:0:0:
416,256,72512,6,0,P|328:176|192:184,1,216,6|2,1:2|0:2,0:0:0:0:
56,216,73041,2,0,P|80:144|152:120,1,108,8|0,0:0|0:0,0:0:0:0:
296,120,73394,2,0,P|208:88|96:128,1,216,2|8,0:0|0:0,0:0:0:0:
352,216,73924,2,0,L|288:104,1,108,2|0,0:0|0:0,0:0:0:0:
120,208,74277,2,0,P|64:168|160:80,1,216,2|0,0:2|0:0,0:0:0:0:
320,200,74806,5,2,0:0:0:0:
224,200,74983,1,2,0:2:0:0:
400,200,75159,1,8,0:0:0:0:
88,192,75336,2,0,P|128:128|272:120,1,216,6|2,1:2|0:2,0:0:0:0:
360,128,75865,2,0,L|136:128,1,216,8|2,0:0|0:0,0:0:0:0:
304,200,76394,2,0,P|336:128|336:72,1,108,2|8,0:2|0:0,0:0:0:0:
89,155,76747,6,0,P|74:87|197:37,1,216
368,64,77277,2,0,L|248:64,1,108,8|0,0:0|0:0,0:0:0:0:
80,200,77630,1,2,0:0:0:0:
256,64,77806,2,0,P|288:144|256:200,1,108,2|8,0:0|0:0,0:0:0:0:
24,200,78159,6,0,P|128:168|256:224,1,216,6|2,1:2|0:2,0:0:0:0:
408,248,78688,2,0,P|448:200|416:136,1,108,8|0,0:0|0:0,0:0:0:0:
336,128,79041,2,0,L|224:128,1,108,2|2,0:0|0:0,0:0:0:0:
64,200,79394,1,8,0:0:0:0:
328,248,79571,6,0,P|392:192|304:104,1,216,6|2,1:2|0:2,0:0:0:0:
219,102,80100,2,0,L|355:102,1,108,8|2,0:0|0:0,0:0:0:0:
160,192,80453,1,2,0:0:0:0:
416,192,80630,2,0,L|488:192,1,54,10|0,0:0|0:0,0:0:0:0:
272,192,80806,2,0,L|192:192,1,54,8|0,0:0|0:0,0:0:0:0:
454,216,80983,6,0,P|526:152|422:96,1,216,6|2,0:2|0:2,0:0:0:0:
368,88,81512,1,8,0:0:0:0:
280,96,81688,1,0,0:0:0:0:
16,192,81865,2,0,P|72:104|208:80,1,216,2|8,0:0|0:0,0:0:0:0:
352,272,82394,6,0,P|392:256|416:168,1,108,2|0,1:2|0:0,0:0:0:0:
304,120,82747,2,0,L|203:158,2,108,2|8|0,0:2|0:0|0:0,0:0:0:0:
120,200,83277,2,0,L|152:88,1,108,2|2,0:0|0:2,0:0:0:0:
392,144,83630,1,8,0:0:0:0:
104,176,83806,6,0,P|224:72|296:80,1,216,6|2,0:2|0:2,0:0:0:0:
456,208,84336,2,0,P|488:136|464:72,1,108,8|0,0:0|0:0,0:0:0:0:
304,192,84688,2,2,L|184:192,1,108,2|2,0:0|0:2,0:0:0:0:
369,101,85041,1,10,0:0:0:0:
120,280,85218,6,2,P|216:248|320:288,1,216,2|2,1:2|0:0,0:0:0:0:
229,231,85747,1,8,0:0:0:0:
53,151,85924,2,0,L|172:152,1,108,2|0,0:0|1:2,0:0:0:0:
327,204,86277,2,0,L|456:203,1,108,2|8,0:0|0:0,0:0:0:0:
256,96,86630,1,2,0:0:0:0:
8,208,86806,6,0,P|144:152|240:200,1,216,6|8,0:2|0:0,0:0:0:0:
312,200,87336,2,0,L|160:200,1,108,2|0,0:2|0:0,0:0:0:0:
384,200,87688,1,8,0:0:0:0:
112,200,87865,1,8,0:0:0:0:
64,88,88041,1,0,0:0:0:0:
320,272,88218,6,0,P|384:224|320:128,1,216,2|8,1:2|0:0,0:0:0:0:
144,152,88747,2,0,L|264:88,1,108,2|0,0:2|0:0,0:0:0:0:
64,104,89100,2,0,L|184:40,1,108,8|8,0:0|0:0,0:0:0:0:
336,104,89453,1,0,0:0:0:0:
80,296,89630,6,0,P|71:214|96:168,1,108,6|0,0:2|0:0,0:0:0:0:
256,200,89983,2,0,L|400:200,1,108,8|2,0:0|0:2,0:0:0:0:
256,200,90336,2,0,L|128:136,1,108,2|8,0:0|0:0,0:0:0:0:
264,112,90688,2,0,L|144:48,1,108,8|0,0:0|0:0,0:0:0:0:
440,224,91041,5,2,0:0:0:0:
488,192,91129,1,0,0:0:0:0:
487,191,91217,1,2,0:0:0:0:
440,224,91305,1,0,0:0:0:0:
248,240,91394,1,8,0:0:0:0:
192,240,91483,1,0,0:0:0:0:
248,240,91571,1,2,0:2:0:0:
304,240,91659,1,0,0:0:0:0:
120,232,91747,5,0,0:0:0:0:
64,184,91836,1,0,0:0:0:0:
64,184,91924,1,0,0:0:0:0:
120,232,92012,1,0,0:0:0:0:
328,256,92100,2,0,L|424:256,1,54,8|0,0:0|0:0,0:0:0:0:
174,232,92277,2,0,L|78:232,1,54,2|0,0:0|0:0,0:0:0:0:
422,264,92453,6,0,P|488:192|398:104,1,216,6|8,0:2|0:0,0:0:0:0:
320,104,92983,1,2,0:0:0:0:
144,200,93159,1,0,0:0:0:0:
320,104,93336,2,0,L|184:104,1,108,2|8,0:0|0:0,0:0:0:0:
32,208,93688,1,0,0:0:0:0:
320,104,93865,5,0,1:0:0:0:
128,192,94218,1,0,1:0:0:0:
296,200,94571,1,0,1:0:0:0:
448,200,94836,2,0,L|480:120,1,54,0|8,0:0|1:3,0:0:0:0:
128,192,95100,6,0,P|64:120|136:48,1,216,4|0,0:2|0:0,0:0:0:0:
384,192,95630,2,0,L|240:192,1,108,8|0,0:0|0:0,0:0:0:0:
112,200,95983,2,0,P|96:144|80:72,1,108,2|2,0:0|0:0,0:0:0:0:
328,168,96336,2,0,L|416:72,1,108,8|0,0:0|0:0,0:0:0:0:
151,93,96688,6,0,L|88:240,1,108,2|0,1:2|0:0,0:0:0:0:
296,216,97041,2,0,P|320:136|296:80,1,108,8|0,0:0|0:0,0:0:0:0:
64,192,97394,2,0,L|192:192,1,108,2|2,1:2|0:0,0:0:0:0:
424,200,97747,1,8,0:0:0:0:
120,248,97924,6,4,P|56:176|144:128,1,216,6|2,1:2|0:0,0:0:0:0:
320,208,98453,2,0,P|352:152|352:88,1,108,8|0,0:0|0:0,0:0:0:0:
248,96,98806,2,0,L|112:96,1,108,2|0,0:0|0:0,0:0:0:0:
392,144,99159,2,0,L|256:144,1,108,8|0,0:0|0:0,0:0:0:0:
104,296,99512,6,0,P|64:200|80:152,1,108,2|0,0:0|0:0,0:0:0:0:
320,208,99865,2,0,L|448:208,1,108,8|0,0:0|0:0,0:0:0:0:
152,232,100218,1,2,0:0:0:0:
104,192,100306,1,0,0:0:0:0:
288,208,100394,1,0,1:0:0:0:
344,176,100483,1,0,0:0:0:0:
344,176,100571,1,8,0:0:0:0:
288,208,100659,1,0,0:0:0:0:
24,200,100747,6,0,P|104:136|232:160,1,216,6|2,1:2|0:0,0:0:0:0:
464,232,101277,2,0,P|448:144|424:120,1,108,8|0,0:0|0:0,0:0:0:0:
328,128,101630,2,0,L|216:128,1,108,2|0,0:0|0:0,0:0:0:0:
472,208,101983,2,0,L|432:104,1,108,8|0,0:0|0:0,0:0:0:0:
128,200,102336,6,0,P|104:136|136:96,1,108,2|0,1:2|0:0,0:0:0:0:
376,192,102688,2,0,L|464:104,1,108,8|0,0:0|0:0,0:0:0:0:
176,192,103041,1,2,1:3:0:0:
128,192,103130,1,0,0:0:0:0:
176,192,103218,1,2,1:3:0:0:
224,192,103306,1,0,0:0:0:0:
424,208,103394,2,0,P|440:136|392:88,1,108,8|8,0:0|0:0,0:0:0:0:
176,168,103747,5,2,0:0:0:0:
424,109,103924,1,2,0:0:0:0:
248,192,104277,1,2,0:0:0:0:
496,133,104454,1,2,0:0:0:0:
320,184,104806,1,2,0:0:0:0:
48,128,104983,1,8,0:0:0:0:
266,184,105336,6,0,L|354:184,1,54,2|0,2:0|2:0,0:0:0:0:
120,248,105512,1,2,0:0:0:0:
16,208,105688,1,0,0:0:0:0:
272,216,105865,1,2,0:0:0:0:
376,152,106041,1,0,0:0:0:0:
272,216,106218,1,2,0:0:0:0:
24,232,106394,6,0,P|32:152|168:128,1,216,4|2,0:2|0:0,0:0:0:0:
328,200,106924,2,0,P|296:112|264:88,1,108,8|0,0:0|0:0,0:0:0:0:
179,109,107277,2,0,L|339:101,1,108,2|0,0:0|0:0,0:0:0:0:
40,200,107630,2,0,P|56:120|96:96,1,108,8|0,0:0|0:0,0:0:0:0:
256,200,107983,2,0,L|376:200,1,108,2|0,0:0|0:0,0:0:0:0:
112,192,108336,5,8,0:0:0:0:
224,208,108512,2,0,P|248:144|216:80,1,108,2|0,0:0|0:0,0:0:0:0:
64,96,108865,1,2,0:0:0:0:
312,112,109041,1,8,0:0:0:0:
64,96,109218,6,0,P|160:48|264:112,1,216,6|2,0:2|0:0,0:0:0:0:
504,216,109747,2,0,P|504:160|424:112,1,108,8|2,0:0|0:0,0:0:0:0:
288,192,110100,2,0,L|144:192,1,108,0|2,1:0|0:0,0:0:0:0:
424,192,110453,2,0,L|448:64,1,108,8|0,0:0|0:0,0:0:0:0:
264,136,110806,6,0,L|408:136,1,108,2|0,0:0|0:0,0:0:0:0:
120,192,111159,1,8,0:0:0:0:
232,192,111336,2,0,P|296:120|208:48,1,216,2|8,0:0|0:0,0:0:0:0:
64,208,111865,1,2,0:0:0:0:
328,224,112041,6,0,P|392:176|280:104,1,216,4|2,0:2|0:0,0:0:0:0:
72,120,112571,2,0,P|144:96|216:96,1,108,8|0,0:0|0:0,0:0:0:0:
72,120,112924,2,0,P|144:96|216:96,1,108,2|0,0:0|0:0,0:0:0:0:
432,208,113277,2,0,P|416:128|368:96,1,108,8|0,0:0|0:0,0:0:0:0:
216,208,113630,6,0,P|168:152|216:96,1,108,2|0,0:0|0:0,0:0:0:0:
424,128,113983,1,8,0:0:0:0:
264,128,114159,2,0,P|320:88|496:136,1,216,2|2,0:0|0:0,0:0:0:0:
192,104,114688,1,8,0:0:0:0:
472,120,114865,6,0,P|488:208|384:296,1,216,4|2,0:2|0:0,0:0:0:0:
224,272,115394,2,0,L|352:272,1,108,8|2,0:0|0:0,0:0:0:0:
224,272,115747,2,0,L|192:144,1,108,0|2,1:0|0:0,0:0:0:0:
448,208,116100,2,0,L|416:80,1,108,8|0,0:0|0:0,0:0:0:0:
104,200,116453,6,0,P|96:128|144:80,1,108,4|0,0:2|0:0,0:0:0:0:
296,200,116806,1,0,0:0:0:0:
120,200,116983,2,0,L|112:160,3,36,0|0|0|0,0:0|0:0|0:0|3:0,0:0:0:0:
360,200,117336,1,4,0:0:0:0:
200,160,117512,1,0,1:0:0:0:
448,312,117688,6,0,P|512:256|432:176,1,216,4|0,0:2|0:0,0:0:0:0:
192,208,118218,2,0,P|128:192|112:128,1,108,8|0,0:0|0:0,0:0:0:0:
288,144,118571,2,0,L|360:64,1,108,2|0,0:0|0:0,0:0:0:0:
110,158,118924,2,0,L|78:38,1,108,8|0,0:0|0:0,0:0:0:0:
264,64,119277,6,0,L|408:64,1,108,2|0,0:0|0:0,0:0:0:0:
120,120,119630,1,8,0:0:0:0:
288,200,119806,2,0,L|384:136,1,108,2|0,0:0|0:0,0:0:0:0:
272,120,120159,2,0,L|376:56,1,108,2|8,0:0|0:0,0:0:0:0:
104,288,120512,6,0,P|48:208|144:128,1,216,2|0,0:0|0:0,0:0:0:0:
360,200,121041,2,0,P|320:128|264:112,1,108,8|0,0:0|0:0,0:0:0:0:
184,104,121394,2,0,L|336:104,1,108,2|0,0:0|0:0,0:0:0:0:
48,208,121747,2,0,L|16:96,1,108,8|0,0:0|0:0,0:0:0:0:
288,192,122100,6,0,L|440:192,1,108,2|0,0:0|0:0,0:0:0:0:
152,200,122453,2,0,L|104:64,1,108,8|2,0:0|0:0,0:0:0:0:
296,200,122806,2,0,L|240:56,1,108,0|4,0:0|0:0,0:0:0:0:
8,104,123159,1,8,0:0:0:0:
256,99,123336,6,0,P|320:187|216:248,1,216,6|2,0:2|0:0,0:0:0:0:
8,104,123865,2,0,L|128:104,1,108,8|0,0:0|0:0,0:0:0:0:
224,104,124218,2,0,L|344:104,1,108,2|0,0:0|0:0,0:0:0:0:
72,232,124571,2,0,P|48:184|72:104,1,108,8|0,0:0|0:0,0:0:0:0:
232,208,124924,6,0,L|384:208,1,108,2|0,0:0|0:0,0:0:0:0:
160,208,125277,2,0,L|192:80,1,108,8|2,0:0|0:0,0:0:0:0:
288,96,125630,1,0,0:0:0:0:
40,208,125806,2,0,L|80:64,1,108,2|8,0:0|0:0,0:0:0:0:
384,248,126159,6,0,P|448:208|360:112,1,216,4|0,0:2|0:0,0:0:0:0:
144,200,126688,2,0,L|248:152,1,108,8|0,0:0|0:0,0:0:0:0:
352,144,127041,2,0,L|456:96,1,108,2|0,0:0|0:0,0:0:0:0:
192,192,127394,2,0,L|136:80,1,108,8|2,0:0|0:0,0:0:0:0:
424,272,127747,6,0,P|472:208|448:144,1,108,2|0,0:0|0:0,0:0:0:0:
224,200,128100,2,0,L|104:200,1,108,8|8,0:0|0:0,0:0:0:0:
160,200,128365,1,0,0:0:0:0:
344,192,128453,1,8,0:0:0:0:
400,144,128542,1,0,0:0:0:0:
224,200,128630,1,4,0:0:0:0:
384,128,128806,1,8,0:0:0:0:
72,144,128983,6,0,P|16:216|88:304,1,216,4|0,0:2|0:0,0:0:0:0:
192,304,129512,2,0,L|328:304,1,108,2|0,0:3|0:0,0:0:0:0:
48,256,129865,2,0,L|96:160,1,108,8|0,0:3|0:0,0:0:0:0:
272,200,130218,2,0,L|424:200,1,108,0|0,1:0|1:0,0:0:0:0:
128,248,130571,6,0,L|112:120,1,108,2|0,0:3|0:0,0:0:0:0:
208,104,130924,1,2,0:3:0:0:
304,72,131100,1,0,0:0:0:0:
56,248,131277,2,0,P|16:176|104:96,1,216,8|2,1:3|0:3,0:0:0:0:
352,208,131806,6,0,P|288:152|152:192,1,216,4|0,3:2|0:0,0:0:0:0:
64,208,132336,2,0,L|56:96,1,108,2|0,0:3|0:0,0:0:0:0:
312,208,132688,2,0,P|376:152|288:80,1,216,8|0,0:3|1:0,0:0:0:0:
192,96,133218,1,0,1:0:0:0:
440,192,133394,6,0,P|352:128|232:144,1,216,2|2,0:3|0:3,0:0:0:0:
72,224,133924,1,8,0:0:0:0:
320,208,134100,2,0,L|192:176,1,108,8|8,0:0|0:0,0:0:0:0:
464,152,134453,1,8,0:0:0:0:
208,184,134630,6,0,P|136:248|208:320,1,216,4|0,3:2|0:0,0:0:0:0:
304,328,135159,2,0,L|440:328,1,108,2|0,0:3|0:0,0:0:0:0:
160,288,135512,2,0,L|408:288,1,216,4|0,0:0|0:0,0:0:0:0:
296,224,136041,1,0,1:0:0:0:
48,320,136218,6,0,P|0:240|80:168,1,216,2|2,0:3|0:3,0:0:0:0:
184,184,136747,1,0,0:0:0:0:
432,200,136924,2,0,P|368:176|288:176,1,108,8|0,1:3|0:0,0:0:0:0:
144,200,137277,1,2,0:3:0:0:
392,272,137453,6,0,P|448:232|344:144,1,216,4|0,0:2|0:0,0:0:0:0:
272,136,137983,2,0,L|392:80,1,108,2|0,0:3|0:0,0:0:0:0:
120,240,138336,2,0,L|80:96,1,108,8|0,0:3|0:0,0:0:0:0:
344,144,138688,1,0,1:0:0:0:
240,152,138865,1,8,0:3:0:0:
488,224,139041,6,0,P|488:152|440:104,1,108,4|0,0:2|0:0,0:0:0:0:
408,120,139306,1,0,1:0:0:0:
208,208,139394,2,0,L|72:208,1,108,8|0,0:0|0:0,0:0:0:0:
152,208,139659,1,0,1:0:0:0:
360,216,139747,2,0,L|504:216,1,108,8|8,0:0|0:0,0:0:0:0:
208,208,140100,1,4,0:0:0:0:
468,216,140277,6,0,P|384:152|256:184,1,216,4|0,0:2|0:0,0:0:0:0:
96,224,140806,2,0,L|72:104,1,108,8|0,0:0|0:0,0:0:0:0:
256,136,141159,2,0,L|384:136,1,108,2|0,0:0|0:0,0:0:0:0:
112,208,141512,2,0,L|88:88,1,108,8|0,0:0|0:0,0:0:0:0:
344,192,141865,6,0,P|280:144|136:176,1,216,2|8,0:0|0:0,0:0:0:0:
336,104,142394,2,0,L|464:152,2,108,2|0|2,0:0|0:0|0:0,0:0:0:0:
152,176,142924,1,8,0:0:0:0:
400,272,143100,6,0,P|464:224|392:136,1,216,2|0,0:0|0:0,0:0:0:0:
216,208,143630,2,0,L|104:208,1,108,8|0,0:0|0:0,0:0:0:0:
360,208,143983,2,0,L|504:208,2,108,2|0|8,0:0|0:0|0:0,0:0:0:0:
112,208,144512,6,0,L|352:208,1,216,0|0,0:0|0:0,0:0:0:0:
88,256,145041,2,0,L|0:160,1,108,8|0,0:0|0:0,0:0:0:0:
272,208,145394,2,0,L|176:104,1,108,2|0,0:0|0:0,0:0:0:0:
368,136,145747,1,8,0:0:0:0:
120,136,145924,1,0,0:0:0:0:
400,280,146100,6,0,P|472:192|400:104,1,216,4|0,0:2|0:0,0:0:0:0:
256,200,146630,2,0,L|392:144,1,108,8|0,0:0|0:0,0:0:0:0:
248,104,146983,2,0,L|184:48,1,54,0|0,0:0|1:0,0:0:0:0:
32,280,147159,2,0,P|24:232|48:152,1,108,8|0,0:0|0:0,0:0:0:0:
280,104,147512,6,0,L|400:104,2,108,4|0|0,0:2|0:0|0:0,0:0:0:0:
144,264,148041,2,0,P|88:208|176:112,1,216,8|0,0:0|0:0,0:0:0:0:
408,208,148571,2,0,L|496:80,1,108,4|0,0:0|0:0,0:0:0:0:
408,112,148836,1,0,0:0:0:0:
224,216,148924,6,0,P|160:144|248:80,1,216,4|0,0:2|1:0,0:0:0:0:
480,208,149453,2,0,L|406:128,1,108,8|4,0:0|0:2,0:0:0:0:
160,200,149806,2,0,L|72:136,1,108,0|4,0:0|0:0,0:0:0:0:
232,96,150159,1,0,0:0:0:0:
480,312,150336,6,0,P|472:216|88:208,1,594,4|0,0:0|0:0,0:0:0:0:
288,208,151394,2,0,L|400:208,1,108,8|0,0:0|0:0,0:0:0:0:
144,224,151747,5,6,3:2:0:0:
88,184,151836,1,0,3:1:0:0:
88,184,151924,1,0,3:1:0:0:
144,224,152012,1,0,3:1:0:0:
328,232,152100,1,0,3:2:0:0:
384,192,152188,1,0,3:1:0:0:
384,192,152277,1,0,3:1:0:0:
328,232,152365,1,0,3:1:0:0:
128,232,152453,6,0,L|40:232,1,54,4|0,1:2|0:0,0:0:0:0:
328,232,152630,2,0,L|416:232,1,54,0|0,1:0|0:0,0:0:0:0:
80,232,152806,2,0,L|0:232,1,54,4|0,1:2|0:0,0:0:0:0:
382,232,152983,6,0,P|446:168|366:104,1,216,6|2,0:2|0:2,0:0:0:0:
184,192,153512,2,0,L|56:192,1,108,8|0,0:0|0:0,0:0:0:0:
184,192,153865,2,0,L|40:192,1,108,2|2,0:0|0:2,0:0:0:0:
256,200,154218,1,8,0:0:0:0:
504,216,154394,2,0,P|488:152|440:96,1,108,2|0,1:3|0:0,0:0:0:0:
216,216,154747,2,0,L|88:216,1,108,2|8,0:2|0:0,0:0:0:0:
288,216,155100,5,0,0:0:0:0:
392,144,155277,1,2,0:0:0:0:
392,144,155453,1,2,0:2:0:0:
280,216,155630,1,8,0:0:0:0:
32,232,155806,6,0,P|112:184|232:248,1,216,6|2,0:2|0:2,0:0:0:0:
464,216,156336,2,0,L|320:216,1,108,8|0,0:0|0:0,0:0:0:0:
248,216,156688,2,0,L|384:216,1,108,2|2,0:0|0:2,0:0:0:0:
104,320,157041,2,0,L|80:184,1,108,8|2,0:0|1:2,0:0:0:0:
264,224,157394,6,0,L|408:224,1,108,0|2,0:0|0:2,0:0:0:0:
85,213,157747,2,0,P|21:141|125:61,1,216,8|2,0:0|0:0,0:0:0:0:
184,56,158277,1,2,0:2:0:0:
288,56,158453,1,8,0:0:0:0:
40,216,158630,6,0,P|128:160|248:232,1,216,6|2,1:2|0:2,0:0:0:0:
328,232,159159,1,8,0:0:0:0:
152,208,159336,2,0,L|400:208,1,216,2|2,0:0|0:2,0:0:0:0:
263,212,159865,1,8,0:0:0:0:
87,220,160041,1,0,0:0:0:0:
336,232,160218,2,0,L|376:120,1,108,2|2,0:3|0:2,0:0:0:0:
192,288,160571,6,0,P|128:208|224:152,1,216,8|2,0:0|0:0,0:0:0:0:
376,224,161100,2,0,L|320:112,1,108,8|2,0:0|0:0,0:0:0:0:
64,256,161453,2,0,P|16:192|120:144,1,216,6|2,0:2|0:2,0:0:0:0:
208,192,161983,2,0,L|64:192,1,108,8|0,0:0|0:0,0:0:0:0:
280,192,162336,2,0,L|440:192,2,108,2|2|8,0:0|0:2|0:0,0:0:0:0:
32,200,162865,6,0,P|48:120|200:96,1,216,6|2,1:2|0:2,0:0:0:0:
344,176,163394,1,8,0:0:0:0:
400,160,163483,1,0,0:0:0:0:
400,160,163571,1,2,0:0:0:0:
344,176,163659,1,0,0:0:0:0:
160,192,163747,2,0,L|88:192,1,54,0|0,1:0|0:0,0:0:0:0:
336,176,163924,2,0,L|416:176,1,54,8|0,0:0|1:0,0:0:0:0:
160,192,164101,2,0,L|88:192,1,54,8|0,0:0|0:0,0:0:0:0:
414,184,164277,6,0,P|486:120|382:64,1,216,6|2,0:2|0:2,0:0:0:0:
168,128,164806,2,0,L|312:128,1,108,8|2,0:0|0:2,0:0:0:0:
456,216,165159,2,0,P|504:176|424:64,1,216,2|8,0:0|0:0,0:0:0:0:
256,200,165688,6,0,L|392:200,1,108,2|0,1:3|0:0,0:0:0:0:
272,160,166041,2,0,L|144:200,2,108,2|8|0,0:2|0:0|0:0,0:0:0:0:
88,224,166571,2,0,L|72:72,1,108,2|2,0:0|0:2,0:0:0:0:
256,128,166924,1,8,0:0:0:0:
8,120,167100,6,0,P|104:64|240:96,1,216,6|2,3:2|0:2,0:0:0:0:
456,216,167630,2,0,L|416:112,1,108,8|0,0:0|0:0,0:0:0:0:
232,208,167983,2,0,P|168:136|256:88,1,216,2|8,0:0|0:0,0:0:0:0:
496,160,168512,6,0,P|368:112|272:152,1,216,2|2,1:3|0:2,0:0:0:0:
120,200,169041,1,8,0:0:0:0:
296,136,169218,2,0,L|400:184,1,108,2|0,0:2|0:0,0:0:0:0:
304,184,169571,2,0,L|416:240,1,108,2|8,0:2|0:0,0:0:0:0:
152,224,169924,1,0,0:0:0:0:
400,232,170100,6,0,L|368:352,1,108,6|2,0:2|0:2,0:0:0:0:
192,336,170453,2,0,L|64:336,1,108,8|2,0:0|0:0,0:0:0:0:
264,336,170806,1,0,0:0:0:0:
344,256,170983,1,8,0:0:0:0:
344,256,171159,1,8,0:0:0:0:
264,336,171336,1,0,0:0:0:0:
16,200,171512,6,0,L|56:80,1,108,2|0,0:0|0:0,0:0:0:0:
304,192,171865,2,0,L|432:192,1,108,8|2,0:0|0:0,0:0:0:0:
304,192,172218,2,0,L|160:192,1,108,0|8,0:0|0:0,0:0:0:0:
376,192,172571,2,0,L|504:192,1,108,8|0,0:0|0:0,0:0:0:0:
196,192,172924,6,0,L|164:56,1,108,6|2,0:2|0:2,0:0:0:0:
352,216,173277,1,8,0:0:0:0:
440,136,173453,1,2,0:0:0:0:
440,136,173630,1,0,1:0:0:0:
352,216,173806,1,2,0:0:0:0:
168,216,173983,2,0,L|104:104,1,108,8|2,0:0|0:0,0:0:0:0:
368,184,174336,6,0,L|488:184,1,108,2|0,1:3|1:0,0:0:0:0:
224,184,174688,2,0,L|104:184,1,108,8|0,0:0|0:0,0:0:0:0:
368,280,175041,1,2,0:0:0:0:
424,224,175130,1,0,0:0:0:0:
424,224,175218,1,2,0:0:0:0:
368,280,175306,1,0,0:0:0:0:
168,144,175394,2,0,L|144:72,1,54,2|0,0:0|0:0,0:0:0:0:
424,224,175571,6,0,P|488:160|400:104,1,216,4|0,0:2|0:0,0:0:0:0:
160,192,176100,2,0,L|288:192,1,108,4|0,0:2|0:0,0:0:0:0:
376,192,176453,2,0,L|344:64,1,108,2|0,0:0|0:0,0:0:0:0:
104,200,176806,2,0,L|232:200,1,108,8|0,0:0|0:0,0:0:0:0:
392,104,177159,6,0,L|416:232,1,108,2|0,0:0|0:0,0:0:0:0:
160,208,177512,2,0,L|32:208,1,108,8|0,0:0|0:0,0:0:0:0:
232,288,177865,2,0,L|104:288,1,108,2|2,0:0|0:0,0:0:0:0:
304,256,178218,1,8,0:0:0:0:
56,280,178394,1,4,0:2:0:0:
304,256,178571,6,0,P|360:208|376:152,1,108,2|0,0:0|0:0,0:0:0:0:
128,192,178924,2,0,L|256:120,1,108,8|0,0:0|0:0,0:0:0:0:
384,200,179277,2,0,L|272:112,1,108,2|2,0:0|0:0,0:0:0:0:
136,208,179630,2,0,L|24:120,1,108,8|0,0:0|0:0,0:0:0:0:
304,216,179983,6,0,P|368:192|392:144,1,108,2|0,0:2|0:0,0:0:0:0:
144,200,180336,2,0,L|24:200,1,108,8|2,0:0|0:0,0:0:0:0:
144,200,180688,2,0,L|8:200,1,108,0|2,0:0|0:0,0:0:0:0:
216,200,181041,1,8,0:0:0:0:
464,304,181218,6,0,P|384:240|248:240,1,216,4|2,0:2|0:0,0:0:0:0:
24,288,181747,2,0,L|80:152,1,108,8|0,0:0|0:0,0:0:0:0:
168,184,182100,2,0,L|304:184,1,108,2|2,0:0|0:0,0:0:0:0:
456,192,182453,2,0,L|400:72,1,108,8|0,0:0|0:0,0:0:0:0:
304,88,182806,6,0,L|160:88,1,108,2|0,0:0|0:0,0:0:0:0:
448,240,183159,2,0,L|456:88,1,108,8|0,0:0|0:0,0:0:0:0:
208,232,183512,2,0,L|248:112,1,108,2|2,0:0|0:0,0:0:0:0:
304,128,183777,1,0,0:0:0:0:
368,128,183865,1,8,0:0:0:0:
120,272,184041,6,0,P|48:208|136:152,1,216,4|0,1:2|0:0,0:0:0:0:
368,200,184571,1,8,0:0:0:0:
192,200,184747,2,0,L|64:200,2,108,0|2|2,0:0|0:0|0:0,0:0:0:0:
368,200,185277,2,0,L|504:200,1,108,8|0,0:0|0:0,0:0:0:0:
192,264,185630,6,0,P|144:208|216:128,1,162,4|0,0:0|0:0,0:0:0:0:
368,200,185983,2,0,L|496:200,1,108,8|0,0:0|0:0,0:0:0:0:
216,216,186336,2,0,L|128:216,1,54,8|0,0:0|0:0,0:0:0:0:
368,200,186512,1,0,0:0:0:0:
424,136,186600,1,0,1:0:0:0:
424,136,186688,1,0,1:0:0:0:
368,200,186777,1,0,0:0:0:0:
96,216,186865,6,0,P|32:136|128:80,1,216,4|2,0:2|0:0,0:0:0:0:
352,200,187394,2,0,L|208:200,1,108,8|0,0:0|0:0,0:0:0:0:
488,200,187747,2,0,L|360:200,1,108,0|0,0:0|0:0,0:0:0:0:
128,208,188100,2,0,L|256:208,1,108,8|2,0:0|0:0,0:0:0:0:
480,240,188453,6,0,L|496:112,1,108,0|2,1:0|0:0,0:0:0:0:
248,136,188806,1,8,0:0:0:0:
416,144,188983,1,0,1:0:0:0:
168,248,189159,2,0,L|152:120,1,108,2|8,0:0|0:0,0:0:0:0:
336,144,189512,1,2,0:0:0:0:
88,184,189688,6,0,P|184:144|304:192,1,216,4|0,0:2|0:0,0:0:0:0:
40,64,190218,2,0,L|184:64,1,108,8|0,0:0|0:0,0:0:0:0:
392,288,190571,1,0,1:0:0:0:
496,224,190747,1,2,0:0:0:0:
496,224,190924,1,8,0:0:0:0:
392,288,191100,1,0,1:0:0:0:
144,296,191277,6,0,L|120:168,1,108,2|2,0:0|0:0,0:0:0:0:
304,200,191630,1,8,0:0:0:0:
124,189,191806,2,0,L|-4:189,2,108,0|2|8,0:0|0:0|0:0,0:0:0:0:
376,200,192336,1,0,0:0:0:0:
124,189,192512,6,0,P|52:253|124:317,1,216,4|2,0:2|0:0,0:0:0:0:
376,208,193041,2,0,L|240:208,1,108,8|0,0:0|0:0,0:0:0:0:
160,208,193394,2,0,L|208:88,1,108,2|2,0:0|0:0,0:0:0:0:
448,104,193747,2,0,L|340:104,1,108,8|2,0:0|0:0,0:0:0:0:
88,208,194100,5,8,0:0:0:0:
184,168,194277,1,0,0:0:0:0:
440,216,194453,1,2,0:0:0:0:
352,144,194630,1,8,0:0:0:0:
352,144,194806,1,0,0:0:0:0:
440,216,194983,1,2,0:0:0:0:
264,208,195159,1,8,0:0:0:0:
16,288,195336,6,0,L|0:176,1,108,4|2,0:2|0:0,0:0:0:0:
176,152,195688,1,0,0:0:0:0:
424,288,195865,2,0,L|440:176,1,108,4|2,0:2|0:0,0:0:0:0:
264,152,196217,1,0,0:0:0:0:
16,216,196394,2,0,L|32:136,1,54,4|0,1:2|0:0,0:0:0:0:
216,192,196571,2,0,L|376:192,1,108,8|0,0:0|0:0,0:0:0:0:
72,200,196924,5,4,0:2:0:0:
320,208,197100,1,2,0:0:0:0:
216,200,197277,1,0,0:0:0:0:
464,288,197453,2,0,P|488:192|384:128,1,216,6|0,1:2|1:0,0:0:0:0:
240,112,197983,1,0,1:0:0:0:
488,120,198159,6,0,P|384:80|284:142,1,216,4|0,0:2|0:0,0:0:0:0:
8,224,198688,2,0,L|32:96,1,108,8|0,1:3|0:0,0:0:0:0:
208,200,199041,1,8,0:3:0:0:
264,160,199130,1,0,0:0:0:0:
264,160,199218,1,4,0:0:0:0:
208,200,199306,1,0,0:0:0:0:
16,208,199394,2,0,L|56:96,1,108,8|0,1:3|0:0,0:0:0:0:
232,128,199747,6,0,L|384:128,1,108,0|0,0:0|0:0,0:0:0:0:
160,136,200100,2,0,L|88:272,1,108,8|0,0:0|0:0,0:0:0:0:
216,280,200453,1,4,0:0:0:0:
272,232,200541,1,0,0:0:0:0:
216,184,200630,1,0,1:0:0:0:
160,136,200718,1,0,0:0:0:0:
216,88,200806,1,4,0:0:0:0:
472,192,200983,5,8,0:0:0:0:
368,120,201159,1,0,0:0:0:0:
264,64,201335,1,0,0:0:0:0:
16,200,201512,2,0,L|104:104,1,108,8|0,1:3|0:0,0:0:0:0:
272,208,201865,1,0,0:0:0:0:
320,184,201953,1,0,0:0:0:0:
336,128,202041,1,0,0:0:0:0:
320,184,202130,1,0,0:0:0:0:
272,208,202218,1,8,1:3:0:0:
96,208,202394,1,0,0:0:0:0:
352,216,202571,5,4,0:0:0:0:
248,152,202747,1,0,0:0:0:0:
352,112,202924,1,8,0:0:0:0:
456,88,203100,1,0,0:0:0:0:
144,216,203277,2,0,L|56:216,1,54,0|0,0:0|0:0,0:0:0:0:
280,232,203453,2,0,L|352:128,1,108,4|8,0:2|0:0,0:0:0:0:
90,216,203806,6,0,P|34:176|122:88,1,216,4|0,0:0|0:0,0:0:0:0:
352,184,204336,2,0,L|384:72,1,108,8|0,1:3|0:0,0:0:0:0:
136,208,204688,1,4,0:0:0:0:
80,184,204776,1,0,0:0:0:0:
80,184,204864,1,4,0:0:0:0:
136,208,204952,1,0,0:0:0:0:
328,208,205041,2,0,L|488:208,1,108,8|0,0:0|0:0,0:0:0:0:
256,208,205394,6,0,L|248:88,1,108,0|0,1:0|0:0,0:0:0:0:
72,200,205747,2,0,L|64:48,1,108,8|0,0:0|0:0,0:0:0:0:
320,192,206100,1,4,0:0:0:0:
376,168,206188,1,0,0:0:0:0:
376,168,206276,1,4,0:0:0:0:
320,192,206364,1,0,0:0:0:0:
128,184,206453,1,8,0:0:0:0:
224,96,206630,1,0,1:0:0:0:
472,328,206806,6,0,L|376:232,1,108,4|0,0:0|0:0,0:0:0:0:
144,272,207159,2,0,P|72:208|160:152,1,216,8|0,0:0|0:0,0:0:0:0:
200,152,207600,1,0,0:0:0:0:
256,144,207688,1,0,0:0:0:0:
312,128,207777,1,0,0:0:0:0:
128,144,207865,2,0,L|112:24,1,108,8|0,1:3|0:0,0:0:0:0:
360,128,208218,6,0,L|384:240,1,108,4|0,0:0|0:0,0:0:0:0:
136,192,208571,2,0,L|0:192,1,108,8|0,0:0|0:0,0:0:0:0:
136,192,208924,1,0,0:0:0:0:
376,192,209100,1,0,0:0:0:0:
432,160,209188,1,0,0:0:0:0:
432,160,209277,1,0,0:0:0:0:
376,192,209365,1,0,0:0:0:0:
192,200,209453,2,0,L|136:200,1,54
392,144,209630,6,0,L|488:200,1,108,4|0,1:2|0:0,0:0:0:0:
224,200,209983,2,0,L|104:200,1,108,8|0,0:0|0:0,0:0:0:0:
224,200,210336,2,0,P|264:160|256:96,1,108,4|0,0:0|0:0,0:0:0:0:
16,208,210688,1,8,1:3:0:0:
264,240,210865,5,0,0:0:0:0:
368,176,211041,1,0,1:0:0:0:
264,240,211218,1,0,0:0:0:0:
16,240,211394,2,0,L|152:240,1,108,0|0,1:0|0:0,0:0:0:0:
232,256,211747,1,8,0:0:0:0:
288,256,211836,1,0,0:0:0:0:
232,256,211924,1,0,0:0:0:0:
176,256,212012,1,0,1:0:0:0:
232,256,212100,1,8,0:0:0:0:
472,312,212277,6,0,P|472:208|352:160,1,216,0|0,0:0|0:0,0:0:0:0:
136,208,212806,2,0,L|280:208,1,108,8|0,1:3|0:0,0:0:0:0:
352,208,213159,1,4,0:0:0:0:
400,192,213247,1,0,0:0:0:0:
416,144,213335,1,4,0:0:0:0:
400,192,213423,1,0,0:0:0:0:
352,208,213511,1,8,0:0:0:0:
176,208,213688,1,0,0:0:0:0:
424,264,213865,6,0,L|440:144,1,108,0|0,1:0|0:0,0:0:0:0:
192,128,214218,1,0,1:0:0:0:
88,128,214394,1,0,0:0:0:0:
136,104,214483,1,0,0:0:0:0:
152,48,214571,1,8,0:0:0:0:
136,104,214659,1,0,0:0:0:0:
88,128,214747,1,0,0:0:0:0:
344,192,214924,2,0,L|472:192,1,108,8|0,1:3|0:0,0:0:0:0:
168,200,215277,6,0,L|40:200,1,108,4|0,0:2|0:0,0:0:0:0:
344,192,215630,2,0,L|360:344,1,108,2|2,0:0|0:0,0:0:0:0:
112,288,215983,1,8,0:0:0:0:
216,296,216159,1,0,0:0:0:0:
392,288,216336,2,0,L|344:184,1,108,8|0,0:0|0:0,0:0:0:0:
88,200,216688,6,0,L|80:80,1,108,2|8,0:0|0:0,0:0:0:0:
192,88,217041,2,0,L|328:80,1,108,0|2,0:0|0:0,0:0:0:0:
48,176,217394,1,8,0:0:0:0:
160,88,217571,1,0,0:0:0:0:
408,80,217747,2,0,P|440:128|408:192,1,108,4|0,0:2|0:0,0:0:0:0:
168,276,218100,6,0,P|96:204|196:164,1,216,8|0,0:0|0:0,0:0:0:0:
272,152,218630,1,8,0:0:0:0:
24,196,218806,1,2,0:0:0:0:
124,184,218983,1,0,0:0:0:0:
304,236,219159,2,0,L|332:112,1,108,8|0,0:0|0:0,0:0:0:0:
80,236,219512,6,0,L|340:236,1,216,2|8,3:3|0:0,0:0:0:0:
220,260,219983,1,0,1:0:0:0:
144,264,220100,1,0,0:0:0:0:
320,256,220218,1,0,0:0:0:0:
376,224,220336,1,0,0:0:0:0:
376,224,220453,1,0,0:0:0:0:
120,232,220571,1,8,0:3:0:0:
64,176,220688,1,0,0:0:0:0:
64,176,220806,1,0,0:0:0:0:
376,224,220924,6,0,P|448:176|352:104,1,216,4|0,0:2|0:0,0:0:0:0:
196,200,221630,2,0,P|116:152|196:64,1,216,0|0,0:0|0:0,0:0:0:0:
352,192,222336,2,0,P|472:136|512:56,1,216,0|0,0:0|0:0,0:0:0:0:
328,168,223042,2,0,P|448:112|488:32,1,216,0|0,0:0|0:0,0:0:0:0:
72,232,223747,6,0,P|4:168|88:120,1,216,4|0,0:0|0:0,0:0:0:0:
265,191,224453,2,0,P|337:199|473:135,1,216,0|0,0:0|0:0,0:0:0:0:
281,143,225159,2,0,P|193:167|65:95,1,216,0|0,0:0|0:0,0:0:0:0:
385,207,225865,2,0,P|465:175|409:55,1,216,0|4,0:0|0:0,0:0:0:0:
28,320,226571,6,0,P|16:224|56:88,1,216,4|0,0:0|0:0,0:0:0:0:
232,276,227277,2,0,P|262:184|248:42,1,216,0|0,0:0|0:0,0:0:0:0:
72,88,227983,2,0,P|156:68|312:108,1,216,0|0,0:0|0:0,0:0:0:0:
464,268,228688,2,0,P|500:168|464:44,1,216,0|8,0:0|0:3,0:0:0:0:
64,92,229394,6,0,P|172:72|312:108,1,216,4|8,0:2|0:0,0:0:0:0:
460,168,230100,2,0,P|468:252|456:312,1,108,0|0,0:0|0:0,0:0:0:0:
448,320,230365,1,0,0:0:0:0:
424,352,230453,1,8,0:2:0:0:
240,76,230806,6,0,P|232:160|244:220,1,108,0|0,0:0|0:0,0:0:0:0:
252,228,231071,1,0,0:0:0:0:
276,260,231159,1,8,0:0:0:0:
468,60,231512,2,0,P|476:144|464:204,1,108,0|0,0:0|0:0,0:0:0:0:
456,212,231777,1,0,0:0:0:0:
440,248,231865,2,0,P|376:264|296:248,1,108,4|0,0:0|0:0,0:0:0:0:
84,268,232218,6,0,P|20:192|112:136,1,216,0|8,0:0|0:0,0:0:0:0:
280,191,232924,2,0,P|206:149|146:151,1,108,2|0,0:2|0:0,0:0:0:0:
136,144,233188,1,0,0:0:0:0:
92,168,233277,1,8,0:0:0:0:
265,257,233630,6,0,P|331:211|320:148,1,108,2|0,0:2|0:0,0:0:0:0:
288,144,233894,1,0,0:0:0:0:
236,116,233983,1,8,0:0:0:0:
91,122,234336,2,0,P|192:91|216:96,1,108,2|0,0:2|0:0,0:0:0:0:
240,104,234600,1,0,0:0:0:0:
284,136,234688,1,8,0:0:0:0:
468,240,235041,6,0,P|488:164|472:112,1,108,2|0,0:2|0:0,0:0:0:0:
432,104,235306,1,0,0:0:0:0:
384,84,235394,1,8,0:0:0:0:
200,228,235747,2,0,P|180:152|196:100,1,108,2|0,0:2|0:0,0:0:0:0:
236,92,236012,1,0,0:0:0:0:
284,72,236100,1,8,0:0:0:0:
468,80,236453,6,0,P|408:56|336:60,1,108,2|0,0:2|0:0,0:0:0:0:
316,64,236718,1,0,0:0:0:0:
268,88,236806,1,8,0:0:0:0:
84,248,237159,2,0,P|52:196|60:136,1,108,2|0,0:2|0:0,0:0:0:0:
76,104,237424,1,0,0:0:0:0:
264,204,237512,2,0,L|408:200,1,108,4|0,0:2|0:0,0:0:0:0:
120,200,237865,6,0,L|112:76,1,108,4|0,0:0|0:0,0:0:0:0:
292,196,238218,2,0,L|312:68,1,108,0|0,0:0|0:0,0:0:0:0:
60,200,238571,2,0,L|48:52,1,108,0|0,0:0|0:0,0:0:0:0:
228,192,238924,2,0,L|236:56,1,108,0|0,0:0|0:0,0:0:0:0:
484,212,239277,6,0,L|468:72,1,108,0|0,0:0|0:0,0:0:0:0:
292,192,239630,2,0,L|280:52,1,108,0|0,0:0|0:0,0:0:0:0:
36,192,239983,2,0,L|168:192,1,108,0|0,0:0|0:0,0:0:0:0:
400,192,240336,2,0,L|268:192,1,108,0|0,0:0|0:0,0:0:0:0:
44,192,240688,5,4,0:0:0:0:
216,192,240865,1,4,0:2:0:0:
392,200,241218,1,0,0:0:0:0:
216,192,241394,1,0,0:0:0:0:
40,200,241747,1,4,0:0:0:0:
216,192,241924,1,0,0:0:0:0:
392,224,242100,5,0,0:0:0:0:
456,176,242188,1,0,0:0:0:0:
456,176,242277,1,0,0:0:0:0:
392,224,242365,1,0,0:0:0:0:
154,200,242453,1,0,0:0:0:0:
98,144,242541,1,0,0:0:0:0:
98,144,242630,1,0,0:0:0:0:
154,200,242718,1,0,0:0:0:0:
402,176,242806,6,0,L|506:176,1,54,0|0,0:0|0:0,0:0:0:0:
97,229,242983,1,0,0:0:0:0:
71,220,243027,1,0,0:0:0:0:
53,200,243071,1,0,0:0:0:0:
46,175,243115,1,0,0:0:0:0:
52,149,243159,1,0,0:0:0:0:
70,128,243203,1,0,0:0:0:0:
95,119,243247,1,0,0:0:0:0:
456,176,243336,1,4,0:2:0:0:
352,248,253747,6,0,L|432:144,1,108,4|2,0:2|0:0,0:0:0:0:
168,192,254100,2,0,L|80:192,2,54,8|8|2,0:0|0:0|0:0,0:0:0:0:
417,162,254453,1,8,0:0:0:0:
114,192,254630,6,0,P|58:144|154:64,1,216,6|0,0:2|0:0,0:0:0:0:
384,192,255159,1,8,0:0:0:0:
272,192,255336,2,0,L|256:72,1,108,0|0,0:0|0:0,0:0:0:0:
360,56,255688,1,2,0:0:0:0:
184,72,255865,2,0,L|336:80,1,108,8|2,0:0|0:0,0:0:0:0:
48,216,256218,6,0,L|32:88,1,108,0|2,1:0|0:0,0:0:0:0:
291,77,256571,2,0,L|432:88,1,108,8|0,0:0|0:0,0:0:0:0:
216,192,256924,2,0,L|96:192,2,108,2|2|8,0:0|0:0|0:0,0:0:0:0:
464,96,257453,6,0,P|512:192|440:288,1,216,4|2,0:2|0:0,0:0:0:0:
208,272,257983,1,8,0:0:0:0:
104,264,258159,1,0,0:0:0:0:
280,264,258336,2,0,L|296:144,1,108,2|2,0:0|0:0,0:0:0:0:
112,144,258688,1,8,0:0:0:0:
360,192,258865,6,0,P|264:144|152:208,1,216,2|2,0:0|0:0,0:0:0:0:
416,216,259394,1,8,0:0:0:0:
304,216,259571,2,0,L|288:88,1,108,0|2,0:0|0:0,0:0:0:0:
392,104,259924,1,0,0:0:0:0:
290,108,260100,1,8,1:3:0:0:
112,120,260277,1,0,0:0:0:0:
360,216,260453,6,0,L|496:216,1,108,4|0,0:2|0:0,0:0:0:0:
216,216,260806,2,0,L|352:216,1,108,8|0,0:0|0:0,0:0:0:0:
144,216,261159,2,0,L|160:96,1,108,2|2,0:0|0:0,0:0:0:0:
408,144,261512,2,0,L|272:144,1,108,8|0,0:0|0:0,0:0:0:0:
50,108,261865,5,0,0:0:0:0:
104,108,261953,1,0,0:0:0:0:
158,108,262041,1,0,0:0:0:0:
208,104,262130,1,0,0:0:0:0:
408,192,262218,1,8,0:0:0:0:
464,168,262306,1,0,0:0:0:0:
464,168,262394,1,2,0:0:0:0:
408,192,262483,1,0,0:0:0:0:
200,184,262571,2,0,L|146:184,1,54,10|0,1:3|0:0,0:0:0:0:
408,192,262747,1,4,0:2:0:0:
464,160,262836,1,2,1:2:0:0:
464,160,262924,1,8,1:3:0:0:
408,192,263012,1,0,0:0:0:0:
72,184,263100,6,0,P|15:104|95:47,1,216,6|2,0:2|0:2,0:0:0:0:
430,49,263630,1,8,0:0:0:0:
288,128,263806,1,0,0:0:0:0:
293,181,263894,1,0,0:0:0:0:
299,235,263982,1,2,0:0:0:0:
471,318,264159,2,0,L|351:328,1,108,2|8,0:2|0:0,0:0:0:0:
120,144,264512,6,0,L|353:168,1,216,2|2,1:3|0:2,0:0:0:0:
166,286,265041,2,0,L|159:165,1,108,8|0,0:0|0:0,0:0:0:0:
449,81,265394,2,0,L|327:91,2,108,2|2|8,0:0|0:2|0:0,0:0:0:0:
121,321,265924,6,0,P|62:241|149:159,1,216,6|2,1:2|0:2,0:0:0:0:
438,95,266453,2,0,L|318:90,1,108,8|0,0:0|0:0,0:0:0:0:
80,144,266806,2,0,L|207:136,1,108,2|2,0:0|0:2,0:0:0:0:
16,112,267159,1,8,0:0:0:0:
340,346,267336,6,0,P|389:258|306:192,1,216,2|2,1:3|0:2,0:0:0:0:
177,184,267865,2,0,L|60:189,1,108,8|0,0:0|0:0,0:0:0:0:
245,115,268218,2,0,L|302:111,1,54,2|0,0:0|0:0,0:0:0:0:
245,115,268394,2,0,L|178:122,1,54,2|0,0:2|0:0,0:0:0:0:
433,258,268571,2,0,L|439:201,1,54,8|0,0:0|0:0,0:0:0:0:
179,336,268747,6,0,L|376:232,1,216,6|2,0:2|0:2,0:0:0:0:
48,218,269277,1,8,0:0:0:0:
182,143,269453,1,0,0:0:0:0:
235,150,269541,1,0,0:0:0:0:
289,157,269629,1,2,0:0:0:0:
112,336,269806,2,0,L|112:224,1,108,2|8,0:2|0:0,0:0:0:0:
288,208,270159,1,0,0:0:0:0:
400,208,270336,6,0,L|384:80,1,108,2|2,1:3|0:2,0:0:0:0:
200,128,270688,1,8,0:0:0:0:
93,159,270865,2,0,L|34:166,2,54,0|0|2,0:0|0:0|0:0,0:0:0:0:
268,258,271218,2,0,L|142:252,1,108,2|8,0:3|0:0,0:0:0:0:
415,356,271571,6,0,L|189:349,1,216,6|2,0:2|0:2,0:0:0:0:
368,208,272100,2,0,L|348:337,1,108,8|0,0:0|0:0,0:0:0:0:
188,202,272453,1,2,0:0:0:0:
159,157,272541,1,0,0:0:0:0:
160,104,272629,1,8,0:0:0:0:
191,60,272717,1,0,0:0:0:0:
241,42,272805,1,2,0:0:0:0:
484,119,272983,6,0,L|251:101,1,216,6|2,0:2|0:2,0:0:0:0:
382,189,273512,1,8,0:0:0:0:
92,343,273688,1,2,0:0:0:0:
216,344,273865,2,0,L|231:289,1,54,0|0,1:0|0:0,0:0:0:0:
152,248,274041,2,0,L|137:187,1,54,8|0,0:0|0:0,0:0:0:0:
328,184,274218,2,0,L|415:175,1,54,8|0,0:0|0:0,0:0:0:0:
184,47,274394,6,0,P|118:125|226:195,1,216,6|2,0:2|0:2,0:0:0:0:
456,270,274924,2,0,L|335:275,1,108,8|0,0:0|0:0,0:0:0:0:
211,353,275277,2,0,L|332:350,1,108,2|2,0:0|0:2,0:0:0:0:
149,278,275630,1,8,0:0:0:0:
424,28,275806,6,0,L|407:277,1,216,2|2,1:3|0:2,0:0:0:0:
263,103,276336,2,0,L|392:117,1,108,8|0,0:0|0:0,0:0:0:0:
171,158,276688,1,2,0:0:0:0:
460,334,276865,2,0,L|471:217,1,108,8|2,0:0|0:0,0:0:0:0:
154,294,277218,6,0,L|386:272,1,216,6|2,0:2|0:2,0:0:0:0:
186,98,277747,2,0,L|211:239,1,108,8|0,0:0|0:0,0:0:0:0:
347,124,278100,2,0,L|230:145,2,108,2|2|8,0:0|0:2|0:0,0:0:0:0:
96,319,278630,6,0,P|40:235|150:149,1,216,2|2,1:3|0:2,0:0:0:0:
230,129,279159,2,0,L|341:137,1,108,8|2,0:0|0:0,0:0:0:0:
175,270,279512,2,0,L|154:147,1,108,0|2,0:0|0:2,0:0:0:0:
331,223,279865,2,0,L|391:222,1,54,8|0,0:0|0:0,0:0:0:0:
331,223,280041,2,0,L|266:224,1,54,2|0,0:0|0:0,0:0:0:0:
450,319,280218,6,0,P|500:230|411:149,1,216,6|8,0:2|0:0,0:0:0:0:
277,149,280747,1,2,0:0:0:0:
409,150,280924,1,0,0:0:0:0:
277,149,281100,1,8,0:0:0:0:
128,232,281277,2,0,L|106:120,1,108,8|0,0:0|0:0,0:0:0:0:
382,324,281630,6,0,P|429:236|328:172,1,216,2|8,1:3|0:0,0:0:0:0:
204,163,282159,2,0,L|193:232,2,54,2|0|0,0:0|0:0|0:0,0:0:0:0:
326,96,282512,2,0,L|385:84,2,54,8|0|8,0:0|0:0|0:0,0:0:0:0:
158,33,282865,1,0,0:0:0:0:
327,95,283041,6,0,L|204:107,1,108,6|2,1:2|0:2,0:0:0:0:
459,317,283394,2,0,L|476:196,1,108,8|2,0:0|0:0,0:0:0:0:
319,252,283747,1,0,0:0:0:0:
372,257,283835,1,0,0:0:0:0:
426,263,283923,1,2,0:0:0:0:
104,321,284100,1,8,0:0:0:0:
234,254,284277,2,0,L|250:200,1,54,0|0,0:0|0:0,0:0:0:0:
36,44,284453,6,0,L|51:159,1,108,2|0,1:3|0:0,0:0:0:0:
127,173,284718,1,0,0:0:0:0:
330,121,284806,2,0,L|383:120,1,54,2|0,0:3|0:0,0:0:0:0:
330,121,284983,2,0,L|257:121,1,54,0|0,0:0|0:0,0:0:0:0:
483,314,285159,6,0,L|494:254,1,54,2|0,0:0|0:0,0:0:0:0:
313,184,285336,2,0,L|241:175,1,54,2|0,0:0|0:0,0:0:0:0:
461,112,285512,2,0,L|478:39,1,54,8|0,0:0|0:0,0:0:0:0:
186,38,285688,2,0,L|110:33,1,54,0|8,0:0|0:0,0:0:0:0:
368,329,285865,6,0,L|386:214,1,108,8|0,0:0|0:0,0:0:0:0:
243,250,286218,1,8,0:0:0:0:
484,108,286394,2,0,L|256:118,1,216,8|8,0:0|0:0,0:0:0:0:
428,261,286924,2,0,L|441:148,1,108,8|0,0:0|0:0,0:0:0:0:
365,111,287188,1,0,0:0:0:0:
118,83,287277,5,8,0:0:0:0:
309,132,287630,2,0,L|299:253,1,108,0|0,1:0|0:0,0:0:0:0:
42,168,287983,2,0,L|188:182,2,108,0|0|0,1:0|0:0|0:0,0:0:0:0:
376,339,288512,6,0,P|427:253|329:173,1,216,4|2,0:2|0:0,0:0:0:0:
213,173,289041,1,8,0:0:0:0:
360,172,289218,2,0,L|373:104,2,54,0|0|2,0:0|0:0|0:0,0:0:0:0:
213,173,289571,1,2,0:0:0:0:
345,291,289747,2,0,L|193:288,1,108,8|0,0:0|0:0,0:0:0:0:
495,106,290100,6,0,L|270:99,1,216,2|8,1:2|0:0,0:0:0:0:
405,220,290630,2,0,L|414:137,1,54,0|0,0:0|0:0,0:0:0:0:
162,289,290806,1,2,0:2:0:0:
269,299,290982,1,2,0:2:0:0:
377,309,291158,1,0,0:0:0:0:
73,68,291336,6,0,P|10:148|91:234,1,216,6|2,1:2|0:0,0:0:0:0:
216,320,291865,2,0,L|248:212,1,108,8|0,0:0|0:0,0:0:0:0:
89,67,292218,2,0,L|107:180,1,108,2|2,0:0|0:0,0:0:0:0:
269,116,292571,2,0,L|396:105,1,108,8|0,0:0|0:0,0:0:0:0:
189,211,292924,6,0,L|418:231,2,216,2|8|2,0:0|0:0|1:3,0:0:0:0:
322,341,293806,2,0,L|342:226,1,108,2|8,1:3|0:0,0:0:0:0:
72,130,294159,6,0,L|334:109,1,216,6|0,1:2|0:0,0:0:0:0:
156,267,294688,2,0,L|144:144,1,108,8|0,0:0|0:0,0:0:0:0:
274,200,295041,1,2,0:0:0:0:
447,109,295218,2,0,L|324:93,2,108,2|8|0,0:0|0:0|0:0,0:0:0:0:
198,318,295747,6,0,P|153:235|229:154,1,216,2|8,1:2|0:0,0:0:0:0:
378,162,296277,2,0,L|390:93,1,54,2|0,0:0|0:0,0:0:0:0:
190,55,296453,2,0,L|76:44,1,108,0|2,0:0|0:0,0:0:0:0:
374,27,296806,1,8,0:0:0:0:
131,336,296983,6,0,L|112:112,1,216,6|2,1:2|0:0,0:0:0:0:
256,231,297512,2,0,L|371:222,1,108,8|0,0:0|0:0,0:0:0:0:
198,157,297865,2,0,L|90:167,1,108,2|2,0:0|0:0,0:0:0:0:
420,57,298218,2,0,L|401:197,1,108,8|0,0:0|0:0,0:0:0:0:
128,264,298571,5,2,0:0:0:0:
72,224,298659,1,0,0:0:0:0:
72,224,298747,1,0,0:0:0:0:
128,264,298836,1,0,1:0:0:0:
328,224,298924,1,8,0:0:0:0:
272,200,299012,1,0,0:0:0:0:
216,176,299100,1,0,0:0:0:0:
160,160,299188,1,0,1:0:0:0:
368,152,299277,2,0,L|464:152,1,54,8|0,0:0|0:0,0:0:0:0:
160,160,299453,2,0,L|80:160,1,54,8|0,0:0|0:0,0:0:0:0:
422,152,299630,2,0,L|526:152,1,54,4|0,1:3|0:0,0:0:0:0:
75,243,299806,6,0,P|19:147|113:65,1,216,6|2,0:2|0:0,0:0:0:0:
217,35,300336,2,0,L|333:43,1,108,8|0,0:0|0:0,0:0:0:0:
176,210,300688,2,0,L|166:96,1,108,0|0,0:0|0:0,0:0:0:0:
481,202,301041,2,0,L|476:336,1,108,8|0,0:0|0:0,0:0:0:0:
176,210,301394,6,0,L|407:188,1,216,2|8,1:2|0:0,0:0:0:0:
246,120,301924,1,0,0:0:0:0:
489,46,302100,2,0,L|369:56,2,108,2|2|8,2:0|0:0|0:0,0:0:0:0:
158,317,302630,6,0,P|97:236|196:150,1,216,4|2,0:2|0:0,0:0:0:0:
331,81,303159,2,0,L|216:73,1,108,8|0,0:0|0:0,0:0:0:0:
49,281,303512,2,0,L|168:270,1,108,2|2,0:0|0:0,0:0:0:0:
456,332,303865,2,0,L|470:214,1,108,8|0,0:0|0:0,0:0:0:0:
157,143,304218,2,0,L|281:138,1,108,2|2,0:0|0:0,0:0:0:0:
424,245,304571,2,0,L|441:128,1,108,8|0,0:0|0:0,0:0:0:0:
192,280,304924,5,2,1:3:0:0:
144,240,305012,1,0,3:0:0:0:
144,240,305100,1,2,1:3:0:0:
192,280,305188,1,0,2:0:0:0:
376,288,305277,2,0,P|400:240|368:184,1,108,8|8,1:3|1:3,0:0:0:0:
96,224,305630,5,2,0:0:0:0:
344,232,305806,1,2,0:0:0:0:
176,224,306159,1,2,0:0:0:0:
424,216,306336,1,2,0:0:0:0:
256,208,306688,1,2,0:0:0:0:
8,208,306865,1,8,0:0:0:0:
288,280,307218,5,0,3:0:0:0:
336,216,307306,1,0,3:0:0:0:
384,152,307394,1,2,0:2:0:0:
128,208,307571,1,0,0:0:0:0:
200,160,307747,1,2,0:2:0:0:
200,160,307924,1,0,0:0:0:0:
128,208,308100,1,2,0:2:0:0:
480,232,308277,5,4,0:2:0:0:
256,192,308453,12,0,314012,0:0:0:0:
