osu file format v14

[General]
AudioFilename: Kami_no_manimani - rib_x_itou.mp3
AudioLeadIn: 0
PreviewTime: 68371
Countdown: 0
SampleSet: None
StackLeniency: 0.7
Mode: 0
LetterboxInBreaks: 1
WidescreenStoryboard: 1

[Editor]
Bookmarks: 7663
DistanceSpacing: 0.5
BeatDivisor: 4
GridSize: 4
TimelineZoom: 1

[Metadata]
Title:Kami no Mani Mani
TitleUnicode:神のまにまに
Artist:Rib & Itou Kashitarou
ArtistUnicode:Rib & Itou Kashitarou
Creator:MeatloafCereal
Version:Hard
Source:
Tags:utaittemita utaite
BeatmapID:736817
BeatmapSetID:332859

[Difficulty]
HPDrainRate:7
CircleSize:4
OverallDifficulty:7
ApproachRate:9
SliderMultiplier:2.3
SliderTickRate:1

[Events]
//Background and Video events
0,0,"89f1791baab78f403946ab0628a23c4d.jpg",0,0
//Break Periods
2,192551,198774
//Storyboard Layer 0 (Background)
//Storyboard Layer 1 (Fail)
//Storyboard Layer 2 (Pass)
//Storyboard Layer 3 (Foreground)
//Storyboard Sound Samples

[TimingPoints]
552,444.444444444444,4,1,0,65,1,0
6329,-200,4,1,0,65,0,0
7663,-100,4,1,0,65,0,0
23663,-125,4,2,0,65,0,0
69885,-100,4,1,0,65,0,1
98329,-100,4,1,0,65,0,0
100107,-125,4,2,0,65,0,0
146329,-83.3333333333333,4,1,0,65,0,1
174774,-100,4,1,0,65,0,0
199663,-200,4,2,0,65,0,0
204996,-100,4,2,0,65,0,0
206774,-83.3333333333333,4,1,0,65,0,1
220107,-83.3333333333333,4,1,0,65,0,0
220996,-83.3333333333333,4,1,0,65,0,1
233885,-83.3333333333333,4,1,0,65,0,0

[Colours]
Combo1 : 255,128,192
Combo2 : 213,30,30
Combo3 : 192,192,192
Combo4 : 58,58,58

[HitObjects]
428,244,7663,6,0,P|380:264|316:228,1,115
240,188,7996,1,0,0:0:0:0:
220,224,8107,2,0,L|232:348,1,115
76,300,8440,1,0,0:0:0:0:
100,276,8551,2,0,L|112:152,1,115
152,344,8996,1,0,0:0:0:0:
80,48,9440,6,0,P|140:40|168:88,1,115
140,160,9774,1,0,0:0:0:0:
108,184,9885,2,0,B|48:188|48:188|-12:164,1,115
232,144,10218,1,0,0:0:0:0:
264,120,10329,2,0,B|324:116|324:116|384:140,1,115
456,24,10774,2,0,P|480:80|456:144,1,115
424,340,11218,6,0,B|404:300|404:300|416:212,1,115
312,264,11551,1,0,0:0:0:0:
292,228,11663,2,0,P|236:212|180:236,1,115
8,284,11996,1,0,0:0:0:0:
32,316,12108,2,0,P|88:332|144:308,1,115
104,180,12551,1,0,0:0:0:0:
240,304,12774,1,0,0:0:0:0:
160,84,12996,6,0,B|136:72|120:56|120:56|92:68|92:68|44:52,1,115
24,116,13329,1,0,0:0:0:0:
28,184,13440,1,0,0:0:0:0:
240,304,13663,1,0,0:0:0:0:
360,24,13885,2,0,B|348:48|332:64|332:64|344:92|344:92|328:140,1,115
392,160,14218,1,0,0:0:0:0:
460,156,14329,1,0,0:0:0:0:
240,184,14551,1,0,0:0:0:0:
392,360,14774,6,0,P|400:300|368:252,1,115
284,292,15107,1,0,0:0:0:0:
256,312,15218,2,0,P|184:316|148:268,1,115
0,204,15551,1,0,0:0:0:0:
28,224,15662,2,0,P|100:228|136:180,1,115
172,12,16107,2,0,L|180:132,1,115
424,108,16551,6,0,P|352:80|308:108,1,115
296,212,16885,1,0,0:0:0:0:
328,232,16996,2,0,P|384:240|428:200,1,115
240,136,17329,1,0,0:0:0:0:
208,156,17440,2,0,P|152:164|108:124,1,115
24,236,17885,2,0,B|8:192|8:192|16:116,1,115
240,232,18329,6,0,B|256:276|256:276|248:352,1,115
124,232,18663,1,0,0:0:0:0:
96,204,18774,2,0,P|88:152|136:96,1,115
212,144,19107,1,0,0:0:0:0:
244,120,19218,2,0,B|268:104|296:120|296:120|324:132|360:116,1,115
512,48,19663,2,0,B|481:61|453:49|453:49|425:33|401:49,1,115
388,296,20107,6,0,L|444:304,2,57.5
356,324,20440,1,0,0:0:0:0:
316,332,20551,1,0,0:0:0:0:
276,320,20663,1,0,0:0:0:0:
252,288,20774,1,0,0:0:0:0:
248,248,20885,1,0,0:0:0:0:
272,216,20996,6,0,L|280:156,2,57.5
116,80,21440,1,0,0:0:0:0:
104,40,21551,1,0,0:0:0:0:
72,280,21885,2,0,L|76:352,2,57.5
188,152,22329,1,0,0:0:0:0:
184,192,22440,1,0,0:0:0:0:
344,56,22774,1,0,0:0:0:0:
340,308,23663,6,0,P|388:316|440:304,1,92
280,228,24107,2,0,P|232:220|176:236,1,92
164,248,24440,1,0,0:0:0:0:
164,248,24551,1,0,0:0:0:0:
264,360,24774,1,0,0:0:0:0:
384,220,24996,2,0,L|392:112,1,92
180,36,25440,6,0,L|184:144,1,92
236,224,25885,1,0,0:0:0:0:
304,140,26107,1,0,0:0:0:0:
304,140,26218,1,0,0:0:0:0:
312,108,26329,2,0,L|316:8,1,92
80,140,26774,2,0,L|76:231,1,92
228,316,27218,6,0,P|276:324|328:312,1,92
428,356,27663,2,0,P|436:308|424:256,1,92
404,244,27996,1,0,0:0:0:0:
384,220,28107,2,0,L|380:120,1,92
272,232,28551,1,0,0:0:0:0:
468,176,28774,1,0,0:0:0:0:
288,132,28996,6,0,L|172:136,1,92
360,48,29440,2,0,L|451:44,1,92
472,72,29774,1,0,0:0:0:0:
492,96,29885,1,0,0:0:0:0:
352,276,30107,1,0,0:0:0:0:
252,320,30329,1,0,0:0:0:0:
156,264,30551,1,0,0:0:0:0:
156,264,30663,1,0,0:0:0:0:
144,228,30774,6,0,P|136:176|148:128,1,92
312,236,31218,2,0,P|262:216|227:182,1,92
420,124,31663,2,0,L|316:132,2,92
232,72,32329,1,0,0:0:0:0:
232,72,32440,1,0,0:0:0:0:
200,68,32551,2,0,L|92:64,1,92
252,160,32996,1,0,0:0:0:0:
352,112,33218,2,0,P|356:48|340:16,1,92
148,152,33663,2,0,P|144:216|160:248,1,92
256,288,34107,1,0,0:0:0:0:
444,236,34329,6,0,L|448:132,1,92
352,256,34774,2,0,L|355:347,1,92
320,160,35218,2,0,L|316:68,1,92
228,204,35663,1,0,0:0:0:0:
180,328,35885,1,0,0:0:0:0:
20,252,36107,6,0,L|-4:196,1,46
92,184,36329,2,0,L|84:128,1,46
180,132,36551,2,0,L|184:80,1,46
296,32,36774,2,0,L|300:88,1,46
348,140,36996,1,0,0:0:0:0:
308,164,37107,1,0,0:0:0:0:
288,204,37218,1,0,0:0:0:0:
292,248,37329,1,0,0:0:0:0:
320,284,37440,1,0,0:0:0:0:
364,300,37551,1,0,0:0:0:0:
408,288,37663,1,0,0:0:0:0:
232,312,37885,6,0,L|120:308,1,92
36,352,38329,2,0,L|32:240,1,92
52,232,38663,1,0,0:0:0:0:
68,208,38774,1,0,0:0:0:0:
216,100,38996,1,0,0:0:0:0:
244,208,39218,2,0,P|184:220|144:204,1,92
24,116,39663,6,0,P|72:104|124:120,1,92
240,4,40107,2,0,L|340:0,1,92
356,20,40440,1,0,0:0:0:0:
388,16,40551,1,0,0:0:0:0:
420,180,40774,1,0,0:0:0:0:
472,84,40996,1,0,0:0:0:0:
328,128,41218,1,0,0:0:0:0:
252,248,41440,6,0,B|244:312|244:312|260:352,1,92
364,324,41885,2,0,P|412:308|424:252,1,92
420,240,42218,1,0,0:0:0:0:
420,240,42329,1,0,0:0:0:0:
240,152,42551,1,0,0:0:0:0:
352,152,42774,2,0,P|356:104|348:56,1,92
136,124,43218,6,0,L|132:28,2,92
64,216,43885,2,0,L|56:268,1,46
160,292,44107,2,0,L|168:352,1,46
236,216,44329,2,0,L|236:124,2,92
360,300,44996,6,0,L|456:296,1,92
264,348,45440,2,0,L|172:351,1,92
144,336,45774,1,0,0:0:0:0:
144,336,45885,1,0,0:0:0:0:
272,256,46107,1,0,0:0:0:0:
200,140,46329,2,0,P|188:92|204:36,1,92
304,176,46774,5,0,0:0:0:0:
192,256,46996,1,0,0:0:0:0:
276,92,47218,1,0,0:0:0:0:
408,168,47440,2,0,L|504:160,1,92
348,292,47885,1,0,0:0:0:0:
260,356,48107,1,0,0:0:0:0:
152,328,48329,1,0,0:0:0:0:
124,316,48440,1,0,0:0:0:0:
92,308,48551,6,0,L|0:320,1,92
144,232,48996,2,0,P|152:188|144:132,1,92
64,56,49440,2,0,P|16:68|0:116,1,92
236,72,49885,2,0,P|214:32|171:24,1,92
256,160,50329,6,0,L|320:168,2,46
420,96,50774,1,0,0:0:0:0:
416,128,50885,1,0,0:0:0:0:
396,152,50996,1,0,0:0:0:0:
392,184,51107,1,0,0:0:0:0:
400,216,51218,1,0,0:0:0:0:
388,244,51329,2,0,L|384:296,1,46
284,364,51551,2,0,L|280:318,1,46
240,172,51774,2,0,L|240:232,1,46
92,244,52107,6,0,L|-8:248,1,92
180,280,52551,2,0,P|188:336|180:376,1,92
104,148,52996,2,0,P|96:92|104:52,2,92
208,112,53663,1,0,0:0:0:0:
400,72,53885,6,0,L|512:60,1,92
288,140,54329,2,0,L|379:149,1,92
172,196,54774,2,0,L|181:287,1,92
336,276,55218,1,0,0:0:0:0:
260,356,55440,1,0,0:0:0:0:
264,208,55663,6,0,L|264:108,1,92
432,252,56107,2,0,L|432:352,1,92
384,184,56551,2,0,L|384:92,1,92
476,176,56996,1,0,0:0:0:0:
312,276,57218,1,0,0:0:0:0:
140,264,57440,5,0,0:0:0:0:
32,288,57663,1,0,0:0:0:0:
236,328,57885,1,0,0:0:0:0:
72,80,58107,1,0,0:0:0:0:
64,112,58218,1,0,0:0:0:0:
72,144,58329,1,0,0:0:0:0:
92,168,58440,1,0,0:0:0:0:
124,180,58551,1,0,0:0:0:0:
156,180,58663,1,0,0:0:0:0:
188,172,58774,1,0,0:0:0:0:
280,72,58996,1,0,0:0:0:0:
308,180,59218,6,0,L|320:288,1,92
460,160,59663,2,0,P|424:120|364:132,1,92
412,324,60107,1,0,0:0:0:0:
500,260,60329,1,0,0:0:0:0:
318,271,60551,2,0,L|224:276,1,92
16,280,60996,6,0,P|68:284|104:268,1,92
124,244,61329,1,0,0:0:0:0:
128,212,61440,2,0,L|228:208,1,92
92,124,61885,2,0,L|-8:120,1,92
176,36,62329,2,0,P|184:84|180:132,1,92
204,148,62663,1,0,0:0:0:0:
232,168,62774,6,0,L|336:160,2,92
408,92,63440,1,0,0:0:0:0:
424,120,63551,1,0,0:0:0:0:
440,148,63663,2,0,L|448:256,1,92
316,248,64107,2,0,L|308:356,1,92
92,264,64551,5,0,0:0:0:0:
196,308,64774,1,0,0:0:0:0:
236,204,64996,1,0,0:0:0:0:
132,164,65218,1,0,0:0:0:0:
104,152,65329,1,0,0:0:0:0:
72,156,65440,1,0,0:0:0:0:
196,308,65663,1,0,0:0:0:0:
236,204,65885,2,0,L|240:112,1,92
308,280,66329,6,0,L|304:336,1,46
396,272,66551,2,0,L|404:320,1,46
484,236,66774,2,0,L|512:276,1,46
408,156,66996,2,0,L|412:104,1,46
308,144,67218,2,0,L|312:204,1,46
220,108,67440,2,0,L|220:48,1,46
152,180,67663,2,0,L|156:240,1,46
24,168,67885,2,0,L|32:112,1,46
120,44,68107,1,0,0:0:0:0:
196,204,69885,6,0,B|200:232|200:232|184:256|184:256|192:272|168:312,1,115
56,196,70218,1,0,0:0:0:0:
56,156,70329,2,0,P|88:112|152:120,1,115
256,40,70663,1,0,0:0:0:0:
280,72,70774,2,0,L|288:188,1,115
372,356,71218,2,0,L|388:224,1,115
248,288,71663,6,0,B|200:296|200:296|184:272|128:268,1,115
160,152,71996,1,0,0:0:0:0:
124,168,72107,2,0,P|56:156|44:100,1,115
264,180,72440,1,0,0:0:0:0:
300,196,72551,2,0,P|368:184|380:128,1,115
248,44,72996,2,0,L|128:36,1,115
336,100,73440,6,0,P|400:124|440:88,1,115
476,244,73774,1,0,0:0:0:0:
504,216,73885,2,0,B|520:176|520:176|508:100,1,115
404,296,74218,1,0,0:0:0:0:
376,268,74329,2,0,B|336:252|336:252|260:264,1,115
64,264,74774,1,0,0:0:0:0:
184,356,74996,1,0,0:0:0:0:
100,160,75218,6,0,L|96:36,1,115
192,168,75551,1,0,0:0:0:0:
176,204,75663,2,0,L|172:272,1,57.5
280,208,75885,2,0,L|283:150,1,57.5
268,296,76107,2,0,L|324:304,1,57.5
392,248,76329,2,0,L|460:240,1,57.5
488,152,76551,2,0,L|484:28,1,115
368,148,76996,6,0,P|312:160|256:120,1,115
148,40,77329,1,0,0:0:0:0:
172,72,77440,2,0,L|184:192,1,115
144,328,77774,1,0,0:0:0:0:
104,320,77885,2,0,P|64:288|72:224,1,115
256,208,78329,2,0,P|280:264|252:312,1,115
156,204,78774,6,0,L|152:72,1,115
356,180,79218,2,0,L|359:294,1,115
408,104,79551,1,0,0:0:0:0:
444,84,79663,2,0,L|504:80,1,57.5
344,40,79885,2,0,L|286:36,1,57.5
268,168,80107,2,0,P|208:184|168:152,1,115
44,216,80551,6,0,P|28:156|60:116,1,115
144,240,80885,1,0,0:0:0:0:
184,236,80996,2,0,P|200:296|168:336,1,115
180,144,81329,1,0,0:0:0:0:
148,120,81440,2,0,L|140:0,1,115
296,120,81885,2,0,L|288:234,1,115
264,40,82329,6,0,L|340:36,1,57.5
384,152,82551,2,0,L|444:160,1,57.5
304,256,82774,2,0,L|232:260,1,57.5
408,308,82996,2,0,L|472:304,1,57.5
240,336,83218,2,0,B|216:324|216:324|188:340|188:340|152:336|120:320,1,115
124,308,83663,1,0,0:0:0:0:
116,288,83885,1,0,0:0:0:0:
112,264,84107,6,0,B|128:224|128:224|88:200|100:152,1,115
200,40,84440,1,0,0:0:0:0:
176,72,84551,2,0,P|116:88|72:52,1,115
288,20,84885,1,0,0:0:0:0:
320,44,84996,2,0,P|336:104|300:148,1,115
240,308,85440,2,0,B|212:272|212:272|208:184,1,115
432,224,85885,6,0,B|444:292|444:292|425:333,1,115
304,212,86218,1,0,0:0:0:0:
304,172,86329,2,0,P|340:136|400:144,1,115
204,160,86663,1,0,0:0:0:0:
176,132,86774,2,0,L|172:72,1,57.5
96,196,86996,2,0,L|99:253,1,57.5
0,168,87218,2,0,L|8:48,1,115
184,292,87663,6,0,P|136:336|72:328,1,115
180,200,88107,2,0,P|228:156|292:164,1,115
336,220,88440,1,0,0:0:0:0:
332,260,88551,2,0,L|328:324,1,57.5
464,252,88774,2,0,L|468:316,1,57.5
408,176,88996,2,0,P|416:120|476:96,1,115
352,48,89440,6,0,B|288:44|288:44|264:52|264:52|204:56,1,115
0,136,89885,2,0,B|64:132|64:132|88:140|88:140|148:144,1,115
288,176,90329,2,0,L|204:180,1,57.5
44,240,90551,2,0,L|101:242,1,57.5
284,276,90774,2,0,L|200:280,1,57.5
68,336,90996,2,0,L|125:333,1,57.5
180,200,91218,6,0,B|184:152|184:152|172:116|172:116|176:72,1,115
340,204,91551,1,0,0:0:0:0:
372,228,91663,2,0,B|376:276|376:276|364:312|364:312|368:356,1,115
492,240,91996,1,0,0:0:0:0:
488,200,92107,2,0,P|464:152|400:152,1,115
284,120,92551,2,0,P|264:64|296:12,1,115
280,216,92996,6,0,B|240:232|240:232|156:216,1,115
180,360,93440,2,0,B|250:373|250:373|290:357,1,115
92,212,93774,1,0,0:0:0:0:
72,248,93885,2,0,P|60:308|112:344,1,115
356,312,94218,1,0,0:0:0:0:
369,273,94329,2,0,P|371:211|314:184,1,115
188,120,94774,6,0,P|112:116|80:76,1,115
208,224,95107,1,0,0:0:0:0:
244,212,95218,2,0,P|284:176|288:112,1,115
404,156,95551,1,0,0:0:0:0:
421,121,95662,2,0,P|424:67|383:18,1,115
344,228,96107,2,0,P|416:244|464:216,1,115
256,304,96551,5,0,0:0:0:0:
124,344,96774,1,0,0:0:0:0:
216,172,96996,2,0,L|216:100,1,57.5
84,212,97218,2,0,L|84:272,1,57.5
136,92,97440,2,0,P|80:80|16:108,1,115
304,224,97885,2,0,B|300:184|300:184|316:160|316:160|308:136|320:92,1,115
324,76,98218,1,0,0:0:0:0:
344,40,98329,2,0,L|408:36,1,57.5
512,120,98551,2,0,L|454:123,1,57.5
392,216,98774,2,0,L|384:280,1,57.5
472,360,98996,2,0,L|480:288,1,57.5
280,292,99218,1,0,0:0:0:0:
256,276,100107,5,0,0:0:0:0:
96,284,100329,1,0,0:0:0:0:
240,256,100551,2,0,L|248:164,1,92
252,132,100885,1,0,0:0:0:0:
252,132,100996,2,0,P|304:144|336:124,1,92
128,56,101440,2,0,P|84:68|64:108,1,92
164,220,101885,6,0,L|172:320,1,92
304,272,102329,2,0,P|360:292|396:276,1,92
416,264,102663,1,0,0:0:0:0:
416,264,102774,1,0,0:0:0:0:
256,344,102996,1,0,0:0:0:0:
156,296,103218,1,0,0:0:0:0:
200,196,103440,1,0,0:0:0:0:
312,188,103663,6,0,L|308:76,1,92
92,68,104107,2,0,L|72:176,1,92
212,112,104551,2,0,L|212:12,1,92
160,200,104996,1,0,0:0:0:0:
232,284,105218,1,0,0:0:0:0:
304,200,105440,2,0,P|352:188|400:208,1,92
232,284,105885,2,0,P|184:296|136:276,1,92
336,288,106329,2,0,L|336:344,1,46
448,240,106551,2,0,L|440:184,1,46
304,120,106774,2,0,L|308:188,1,46
396,80,106996,2,0,L|400:16,1,46
228,40,107218,6,0,B|220:72|220:72|204:100|204:100|200:144,1,92
76,236,107663,2,0,B|73:211|73:211|53:187|53:187|49:151,1,92
104,88,107996,2,0,L|104:32,1,46
180,148,108218,2,0,L|196:88,1,46
152,312,108551,2,0,P|108:344|56:340,1,92
224,256,108996,6,0,B|260:264|260:264|288:248|288:248|320:248,1,92
492,244,109440,1,0,0:0:0:0:
412,320,109663,2,0,P|328:328|312:300,1,92
408,204,110107,1,0,0:0:0:0:
408,204,110218,1,0,0:0:0:0:
424,152,110329,2,0,B|432:104|432:104|424:52,1,92
256,32,110774,6,0,P|236:72|252:120,1,92
352,76,111218,1,0,0:0:0:0:
208,184,111440,2,0,L|104:192,1,92
100,300,111885,1,0,0:0:0:0:
8,124,112107,2,0,L|100:116,1,92
200,280,112551,6,0,P|244:312|280:308,1,92
360,344,112885,2,0,L|368:284,1,46
472,276,113107,2,0,L|456:208,1,46
372,200,113329,2,0,L|380:140,1,46
352,136,113551,1,0,0:0:0:0:
320,128,113663,1,0,0:0:0:0:
296,108,113774,1,0,0:0:0:0:
284,72,113885,1,0,0:0:0:0:
292,36,113996,1,0,0:0:0:0:
320,12,114107,1,0,0:0:0:0:
200,128,114329,6,0,L|188:20,1,92
80,136,114774,2,0,L|64:236,1,92
72,264,115107,1,0,0:0:0:0:
72,264,115218,1,0,0:0:0:0:
176,300,115440,1,0,0:0:0:0:
260,228,115663,2,0,P|312:216|356:236,1,92
512,300,116107,5,0,0:0:0:0:
404,328,116329,1,0,0:0:0:0:
440,216,116551,2,0,L|448:120,1,92
320,40,116996,2,0,L|328:148,1,92
424,52,117440,1,0,0:0:0:0:
332,232,117663,1,0,0:0:0:0:
220,44,117885,6,0,B|224:92|224:92|208:132|208:132|216:192,1,138
120,312,118329,2,0,B|116:264|116:264|132:224|132:224|125:177,1,138
28,160,118774,2,0,L|32:220,1,46
204,336,118996,2,0,L|207:290,1,46
328,248,119218,2,0,P|312:200|264:192,1,92
316,336,119663,5,0,0:0:0:0:
192,208,119885,1,0,0:0:0:0:
348,328,120107,2,0,L|440:320,1,92
460,296,120440,1,0,0:0:0:0:
492,292,120551,1,0,0:0:0:0:
332,208,120774,1,0,0:0:0:0:
332,208,120996,2,0,P|324:152|328:104,1,92
452,72,121440,6,0,B|460:120|460:120|448:160|448:160|448:192|436:212,1,138
320,304,121885,2,0,P|248:288|236:264,1,92
256,164,122329,1,0,0:0:0:0:
104,216,122551,1,0,0:0:0:0:
236,136,122774,2,0,L|240:40,1,92
128,232,123218,6,0,L|120:336,1,92
232,252,123663,1,0,0:0:0:0:
128,128,123885,2,0,B|84:112|84:112|24:112,1,92
156,228,124329,1,0,0:0:0:0:
156,228,124440,1,0,0:0:0:0:
188,224,124551,2,0,P|224:192|224:132,1,92
332,48,124996,6,0,L|336:148,1,92
448,256,125440,2,0,L|460:152,1,92
316,324,125885,2,0,L|305:232,1,92
280,212,126218,1,0,0:0:0:0:
280,212,126329,2,0,L|276:160,1,46
180,272,126551,2,0,L|176:320,1,46
84,240,126774,6,0,B|60:212|60:212|52:148,1,92
148,32,127218,1,0,0:0:0:0:
152,64,127329,1,0,0:0:0:0:
180,80,127440,1,0,0:0:0:0:
188,112,127551,1,0,0:0:0:0:
184,144,127663,2,0,L|180:192,2,46
292,88,128107,2,0,L|392:80,1,92
420,224,128551,6,0,P|432:276|408:324,1,92
312,288,128996,2,0,P|324:340|300:388,1,92
200,374,129440,2,0,P|187:331|200:288,1,92
92,310,129885,2,0,P|79:267|92:224,1,92
180,156,130329,6,0,P|192:100|180:56,2,92
104,76,130996,2,0,P|48:64|4:76,1,92
256,224,131440,2,0,P|312:236|356:224,1,92
176,152,131885,1,0,0:0:0:0:
176,152,132107,2,0,B|164:172|164:172|168:192|168:192|156:224|168:252,1,92
280,132,132551,2,0,B|292:112|292:112|288:92|288:92|300:60|288:32,1,92
224,288,132996,1,0,0:0:0:0:
224,288,133218,2,0,L|120:292,1,92
300,332,133663,5,0,0:0:0:0:
300,332,133885,2,0,L|391:328,1,92
512,240,134329,2,0,L|420:243,1,92
388,240,134663,1,0,0:0:0:0:
356,228,134774,1,0,0:0:0:0:
336,204,134885,1,0,0:0:0:0:
328,172,134996,1,0,0:0:0:0:
332,140,135107,1,0,0:0:0:0:
352,112,135218,1,0,0:0:0:0:
380,100,135329,1,0,0:0:0:0:
412,104,135440,1,0,0:0:0:0:
44,144,135663,6,0,P|48:84|80:60,1,92
140,168,136107,2,0,P|136:228|104:252,1,92
184,76,136440,1,0,0:0:0:0:
212,92,136551,2,0,B|240:120|240:120|248:188,1,92
192,332,136996,2,0,P|172:288|188:244,1,92
320,232,137440,6,0,P|340:272|328:315,1,92
252,200,137774,1,0,0:0:0:0:
248,168,137885,2,0,B|240:136|240:136|252:112|252:112|248:68,1,92
116,24,138218,1,0,0:0:0:0:
120,56,138329,2,0,B|128:88|128:88|116:112|116:112|118:144,1,92
336,156,138774,2,0,P|388:160|428:136,1,92
264,60,139218,5,0,0:0:0:0:
264,60,139329,1,0,0:0:0:0:
264,92,139440,2,0,P|241:139|249:185,1,92
160,340,139885,1,0,0:0:0:0:
160,340,139996,1,0,0:0:0:0:
192,332,140107,2,0,B|200:292|200:292|192:228,1,92
68,160,140551,2,0,P|32:192|40:240,1,92
156,176,140885,5,0,0:0:0:0:
168,144,140996,2,0,B|152:96|152:96|152:44,1,92
288,164,141440,2,0,B|304:212|304:212|304:264,1,92
216,280,141774,1,0,0:0:0:0:
188,296,141885,2,0,L|88:292,1,92
292,352,142329,2,0,L|383:348,1,92
468,212,142774,5,0,0:0:0:0:
468,212,142885,1,0,0:0:0:0:
480,240,142996,2,0,L|472:292,1,46
352,228,143218,2,0,L|360:172,1,46
384,40,143440,1,0,0:0:0:0:
384,40,143551,1,0,0:0:0:0:
416,48,143663,2,0,L|464:40,1,46
316,104,143885,2,0,L|268:112,1,46
228,236,144107,2,0,L|164:216,1,46
188,52,144329,2,0,L|128:72,1,46
68,180,144551,1,0,0:0:0:0:
92,200,146329,6,0,B|96:296|96:296|76:284|40:288,1,137.999995788574
196,280,146663,1,0,0:0:0:0:
204,312,146774,2,0,P|264:336|324:296,1,137.999995788574
292,196,147107,1,0,0:0:0:0:
280,164,147218,2,0,L|276:88,1,68.9999978942872
408,248,147440,2,0,L|412:316,1,68.9999978942872
508,136,147663,2,0,P|496:84|420:68,1,137.999995788574
144,68,148107,6,0,P|216:76|272:28,1,137.999995788574
420,128,148551,2,0,B|360:152|360:152|332:128|276:128,1,137.999995788574
192,172,148885,1,0,0:0:0:0:
188,208,148996,2,0,L|192:288,1,68.9999978942872
72,172,149218,2,0,L|76:252,1,68.9999978942872
148,360,149440,2,0,P|224:368|280:320,1,137.999995788574
356,344,149774,5,0,0:0:0:0:
356,344,149885,2,0,B|368:292|368:292|348:208,1,137.999995788574
208,132,150218,1,0,0:0:0:0:
216,100,150329,2,0,P|292:72|328:120,1,137.999995788574
284,240,150774,1,0,0:0:0:0:
416,144,150996,1,0,0:0:0:0:
200,216,151218,2,0,P|124:244|88:196,1,137.999995788574
56,136,151551,5,0,0:0:0:0:
52,100,151663,2,0,L|48:24,1,68.9999978942872
152,152,151885,2,0,L|136:224,1,68.9999978942872
244,88,152107,2,0,L|236:16,1,68.9999978942872
312,168,152329,2,0,L|320:244,1,68.9999978942872
368,64,152551,2,0,B|408:56|408:56|440:68|440:68|496:56|512:80,1,137.999995788574
340,328,152996,2,0,B|300:336|300:336|268:324|268:324|212:336|196:312,1,137.999995788574
428,200,153440,6,0,P|460:276|416:320,1,137.999995788574
308,216,153774,1,0,0:0:0:0:
296,184,153885,2,0,B|288:144|288:144|320:96|304:48,1,137.999995788574
192,120,154218,2,0,L|200:192,1,68.9999978942872
48,168,154440,2,0,L|39:237,1,68.9999978942872
220,352,154774,2,0,P|268:316|252:236,1,137.999995788574
136,324,155218,6,0,B|84:304|84:304|-4:320,1,137.999995788574
196,248,155551,1,0,0:0:0:0:
216,220,155663,2,0,B|236:168|236:168|220:80,1,137.999995788574
328,128,155996,1,0,0:0:0:0:
364,132,156107,2,0,L|448:120,1,68.9999978942872
512,220,156329,2,0,L|443:229,1,68.9999978942872
276,304,156551,2,0,P|332:336|388:296,1,137.999995788574
444,160,156996,6,0,B|456:132|456:132|440:112|440:112|460:76|448:28,1,137.999995788574
248,136,157329,1,0,0:0:0:0:
256,168,157440,2,0,B|296:172|316:196|316:196|328:164|368:148,1,137.999995788574
220,260,157774,1,0,0:0:0:0:
192,280,157885,2,0,P|116:292|92:240,1,137.999995788574
168,200,158329,1,0,0:0:0:0:
48,344,158551,1,0,0:0:0:0:
68,160,158774,6,0,B|60:120|60:120|72:96|72:96|64:64|64:16,1,137.999995788574
192,96,159107,1,0,0:0:0:0:
224,104,159218,2,0,P|264:112|304:96,1,68.9999978942872
432,60,159440,2,0,P|392:52|352:68,1,68.9999978942872
304,188,159663,2,0,L|300:256,1,68.9999978942872
444,144,159885,2,0,B|440:188|440:188|460:220|460:220|444:244|460:288,1,137.999995788574
456,288,160329,1,0,0:0:0:0:
444,312,160551,6,0,P|376:336|332:288,1,137.999995788574
352,152,160885,1,0,0:0:0:0:
380,132,160996,2,0,P|448:124|484:180,1,137.999995788574
304,220,161329,1,0,0:0:0:0:
272,212,161440,2,0,L|204:204,1,68.9999978942872
192,340,161663,2,0,L|124:348,1,68.9999978942872
36,256,161885,2,0,B|56:216|56:216|44:120,1,137.999995788574
200,40,162329,6,0,B|192:112|192:112|152:128|136:176,1,137.999995788574
124,284,162663,1,0,0:0:0:0:
140,316,162774,2,0,P|192:348|256:304,1,137.999995788574
320,248,163107,1,0,0:0:0:0:
316,212,163218,2,0,L|312:144,1,68.9999978942872
416,268,163440,2,0,L|420:336,1,68.9999978942872
488,200,163663,2,0,P|524:144|484:88,1,137.999995788574
288,140,164107,6,0,B|212:144|212:144|128:136,1,137.999995788574
128,276,164440,1,0,0:0:0:0:
136,308,164551,2,0,P|192:344|244:296,1,137.999995788574
52,228,164996,1,0,0:0:0:0:
128,44,165218,1,0,0:0:0:0:
204,248,165440,1,0,0:0:0:0:
120,120,165663,1,0,0:0:0:0:
120,120,165774,1,0,0:0:0:0:
88,128,165885,6,0,P|60:132|12:124,1,68.9999978942872
200,160,166107,2,0,P|228:156|276:164,1,68.9999978942872
420,112,166329,2,0,P|424:72|412:32,1,68.9999978942872
360,192,166551,2,0,P|356:232|368:272,1,68.9999978942872
184,352,166774,2,0,B|184:316|184:316|196:292|196:292|200:252|176:208,1,137.999995788574
148,224,167107,1,0,0:0:0:0:
112,220,167218,2,0,P|108:180|128:140,1,68.9999978942872
232,132,167440,2,0,P|264:120|300:128,1,68.9999978942872
104,148,167663,6,0,B|64:116|64:116|52:68|76:20,1,137.999995788574
256,212,168107,2,0,B|296:244|296:244|308:292|284:340,1,137.999995788574
472,248,168440,1,0,0:0:0:0:
468,284,168551,2,0,L|472:360,1,68.9999978942872
384,240,168774,2,0,L|380:171,1,68.9999978942872
504,92,168996,2,0,B|472:60|472:60|416:52|368:72,1,137.999995788574
200,120,169440,6,0,P|224:60|304:64,1,137.999995788574
276,180,169774,1,0,0:0:0:0:
248,200,169885,2,0,P|176:212|120:172,1,137.999995788574
8,268,170218,1,0,0:0:0:0:
16,236,170329,2,0,L|36:152,1,68.9999978942872
116,336,170551,2,0,L|96:252,1,68.9999978942872
248,200,170774,2,0,P|232:276|176:280,1,137.999995788574
344,248,171218,6,0,B|376:256|376:256|392:240|392:240|428:256|472:232,1,137.999995788574
280,112,171663,2,0,B|248:104|248:104|232:120|232:120|196:104|152:128,1,137.999995788574
348,164,171996,1,0,0:0:0:0:
368,136,172107,2,0,P|372:100|360:56,1,68.9999978942872
260,216,172329,2,0,P|256:252|268:296,1,68.9999978942872
352,336,172551,1,0,0:0:0:0:
176,256,172774,1,0,0:0:0:0:
44,304,172996,5,0,0:0:0:0:
36,272,173107,1,0,0:0:0:0:
24,240,173218,2,0,P|16:208|32:172,1,68.9999978942872
164,144,173440,2,0,B|188:108|188:108|176:80|176:80|180:0,1,137.999995788574
116,232,173885,1,0,0:0:0:0:
144,248,173996,1,0,0:0:0:0:
180,248,174107,1,0,0:0:0:0:
212,240,174218,1,0,0:0:0:0:
240,220,174329,2,0,B|248:264|248:264|216:300|240:356,1,137.999995788574
408,220,174774,6,0,P|468:212|516:248,1,115
340,288,175218,2,0,P|352:336|296:384,1,115
244,220,175663,1,0,0:0:0:0:
244,220,175774,1,0,0:0:0:0:
224,200,175885,2,0,B|208:152|208:152|224:60,1,115
332,200,176329,1,0,0:0:0:0:
184,292,176551,6,0,P|112:304|72:280,1,115
120,112,176996,1,0,0:0:0:0:
120,112,177107,1,0,0:0:0:0:
148,112,177218,2,0,L|280:104,1,115
456,116,177663,2,0,P|392:112|368:64,1,115
512,44,178107,1,0,0:0:0:0:
412,204,178329,6,0,B|364:212|364:212|288:188,1,115
240,352,178663,1,0,0:0:0:0:
272,352,178774,2,0,P|332:360|368:308,1,115
212,248,179107,1,0,0:0:0:0:
240,236,179218,2,0,P|256:160|224:136,1,115
40,300,179663,1,0,0:0:0:0:
140,360,179885,1,0,0:0:0:0:
64,188,180107,6,0,L|56:60,1,115
192,32,180440,1,0,0:0:0:0:
212,52,180551,2,0,P|220:112|164:140,1,115
152,344,180996,2,0,B|144:300|144:300|152:216,1,115
256,144,181440,1,0,0:0:0:0:
360,240,181663,1,0,0:0:0:0:
360,240,181885,6,0,P|432:272|472:232,1,115
264,196,182329,2,0,P|192:228|152:188,1,115
40,216,182663,1,0,0:0:0:0:
28,188,182774,2,0,P|36:128|84:96,1,115
112,288,183107,1,0,0:0:0:0:
84,300,183218,2,0,P|52:308|16:296,1,57.5
208,348,183440,5,0,0:0:0:0:
168,200,183663,2,0,B|164:156|164:156|176:132|176:132|168:64,1,115
152,68,183996,1,0,0:0:0:0:
132,48,184107,1,0,0:0:0:0:
264,204,184329,2,0,P|312:224|372:200,1,115
232,116,184774,1,0,0:0:0:0:
256,300,184996,1,0,0:0:0:0:
316,136,185218,1,0,0:0:0:0:
188,244,185440,6,0,P|124:248|76:212,1,115
324,244,185885,2,0,P|388:248|436:212,1,115
488,152,186218,1,0,0:0:0:0:
488,152,186329,2,0,B|464:108|464:108|468:28,1,115
320,240,186774,2,0,B|344:284|344:284|340:364,1,115
288,144,187218,6,0,P|352:136|400:176,1,115
260,344,187663,1,0,0:0:0:0:
260,344,187774,1,0,0:0:0:0:
232,328,187885,2,0,L|224:200,1,115
116,292,188329,2,0,P|84:300|52:284,1,57.5
0,228,188551,2,0,P|-20:176|12:108,1,115
152,68,188996,6,0,L|160:128,1,57.5
88,208,189218,2,0,L|80:151,1,57.5
248,152,189440,2,0,L|236:208,1,57.5
212,336,189663,1,0,0:0:0:0:
244,356,189774,1,0,0:0:0:0:
292,356,189885,2,0,P|336:352|352:340,3,57.5
372,316,190329,2,0,L|388:256,3,57.5
392,220,190774,1,0,0:0:0:0:
384,276,199663,6,0,P|328:288|272:275,1,115
264,144,200329,2,0,L|260:72,1,57.5
176,244,200774,2,0,L|172:172,1,57.5
44,72,201440,6,0,P|24:136|72:184,1,115
136,152,202107,1,0,0:0:0:0:
116,232,202329,1,0,0:0:0:0:
236,340,202551,1,0,0:0:0:0:
216,260,202773,1,0,0:0:0:0:
364,208,203218,6,0,P|408:208|444:268,1,115
328,340,203885,2,0,L|392:336,1,57.5
244,240,204329,2,0,L|240:176,1,57.5
308,112,204774,1,0,0:0:0:0:
80,72,204996,5,0,0:0:0:0:
116,88,205107,1,0,0:0:0:0:
164,96,205218,1,0,0:0:0:0:
208,84,205329,1,0,0:0:0:0:
252,64,205440,2,0,L|248:0,1,57.5
356,84,205663,2,0,L|359:141,1,57.5
448,64,205885,2,0,L|445:7,1,57.5
312,160,206107,2,0,L|315:217,1,57.5
464,152,206329,5,0,0:0:0:0:
448,136,206551,1,0,0:0:0:0:
432,152,206774,2,0,P|356:176|304:128,1,137.999995788574
180,168,207107,1,0,0:0:0:0:
208,148,207218,2,0,B|232:108|232:108|228:16,1,137.999995788574
96,160,207551,1,0,0:0:0:0:
68,140,207663,2,0,P|36:128|4:140,1,68.9999978942872
92,268,207885,2,0,P|80:300|92:332,1,68.9999978942872
220,248,208107,2,0,B|284:264|284:264|360:248,1,137.999995788574
392,80,208440,5,0,0:0:0:0:
368,56,208551,2,0,P|312:32|232:68,1,137.999995788574
440,200,208885,1,0,0:0:0:0:
464,176,208996,2,0,B|488:136|488:136|484:32,1,137.999995788574
352,160,209329,1,0,0:0:0:0:
344,192,209440,2,0,L|348:272,1,68.9999978942872
212,236,209663,2,0,L|215:167,1,68.9999978942872
224,352,209885,2,0,P|160:376|96:324,1,137.999995788574
24,172,210218,5,0,0:0:0:0:
28,208,210329,2,0,B|40:240|40:240|20:268|20:268|28:296|16:348,1,137.999995788574
136,264,210663,1,0,0:0:0:0:
156,236,210774,2,0,B|144:204|144:204|164:176|164:176|156:148|168:96,1,137.999995788574
108,8,211107,1,0,0:0:0:0:
72,8,211218,2,0,L|4:4,1,68.9999978942872
165,107,211440,2,0,L|233:103,1,68.9999978942872
344,28,211663,2,0,P|364:100|292:132,1,137.999995788574
256,304,211996,5,0,0:0:0:0:
244,272,212107,2,0,P|236:232|248:188,1,68.9999978942872
380,288,212329,2,0,P|384:320|376:368,1,68.9999978942872
416,200,212551,2,0,P|449:194|483:200,1,68.9999978942872
340,152,212774,2,0,P|334:118|340:84,1,68.9999978942872
264,208,212996,2,0,B|236:204|216:216|216:216|224:256|184:312,1,137.999995788574
28,136,213440,2,0,B|56:140|76:128|76:128|68:88|108:32,1,137.999995788574
108,232,213774,5,0,0:0:0:0:
108,264,213885,2,0,P|48:308|0:280,1,137.999995788574
148,152,214218,1,0,0:0:0:0:
180,140,214329,2,0,B|216:128|232:96|232:96|256:128|288:132,1,137.999995788574
232,212,214663,1,0,0:0:0:0:
216,244,214774,2,0,L|212:320,1,68.9999978942872
376,140,214996,2,0,L|379:71,1,68.9999978942872
336,248,215218,2,0,P|412:288|472:252,1,137.999995788574
292,104,215551,5,0,0:0:0:0:
256,112,215663,2,0,B|176:96|176:96|132:108|100:100,1,137.999995788574
288,216,215996,1,0,0:0:0:0:
252,224,216107,2,0,B|172:208|172:208|128:220|96:212,1,137.999995788574
36,176,216440,1,0,0:0:0:0:
20,144,216551,2,0,P|8:100|20:56,1,68.9999978942872
168,36,216774,2,0,P|180:67|180:102,1,68.9999978942872
112,296,216996,2,0,P|164:336|228:288,1,137.999995788574
392,200,217329,5,0,0:0:0:0:
416,176,217440,2,0,B|436:156|436:156|468:148|468:148|508:116|492:44,1,137.999995788574
288,128,217774,1,0,0:0:0:0:
280,96,217885,2,0,P|292:16|352:8,1,137.999995788574
308,212,218218,1,0,0:0:0:0:
272,216,218329,2,0,L|180:204,1,68.9999978942872
108,320,218551,2,0,L|96:228,1,68.9999978942872
72,72,218774,2,0,P|20:128|44:188,1,137.999995788574
176,136,219107,5,0,0:0:0:0:
184,104,219218,2,0,L|180:28,1,68.9999978942872
268,147,219440,2,0,L|271:215,1,68.9999978942872
340,80,219663,2,0,P|368:72|416:88,3,68.9999978942872
440,92,220107,2,0,L|512:84,1,68.9999978942872
308,176,220329,2,0,L|239:183,1,68.9999978942872
408,180,220551,2,0,L|476:172,1,68.9999978942872
280,260,220774,2,0,L|211:267,1,68.9999978942872
376,272,220996,6,0,B|416:264|452:280|452:280|480:260|520:264,1,137.999995788574
304,332,221329,1,0,0:0:0:0:
272,320,221440,2,0,P|236:260|276:192,1,137.999995788574
164,148,221774,1,0,0:0:0:0:
184,120,221885,2,0,P|188:84|168:44,1,68.9999978942872
0,156,222107,2,0,P|-4:192|16:232,1,68.9999978942872
152,336,222329,2,0,B|156:256|156:256|116:216|84:236,1,137.999995788574
240,212,222663,5,0,0:0:0:0:
272,228,222774,2,0,B|316:220|316:220|344:232|344:232|392:224|432:244,1,137.999995788574
512,128,223107,1,0,0:0:0:0:
480,140,223218,2,0,P|404:148|356:104,1,137.999995788574
192,144,223551,1,0,0:0:0:0:
216,116,223663,2,0,L|220:32,1,68.9999978942872
272,228,223885,2,0,L|268:296,1,68.9999978942872
148,252,224107,2,0,P|76:208|80:156,1,137.999995788574
368,240,224551,6,0,B|404:252|420:280|420:280|408:320|376:332,1,137.999995788574
212,232,224885,1,0,0:0:0:0:
208,200,224996,2,0,B|221:164|249:149|249:149|289:162|300:195,1,137.999995788574
172,304,225329,1,0,0:0:0:0:
136,308,225440,2,0,P|100:300|72:268,1,68.9999978942872
52,144,225663,2,0,P|88:152|116:184,1,68.9999978942872
200,68,225885,2,0,P|264:44|332:72,1,137.999995788574
388,196,226218,5,0,0:0:0:0:
380,228,226329,2,0,P|380:264|392:296,1,68.9999978942872
472,156,226551,2,0,P|472:120|460:88,1,68.9999978942872
264,160,226774,2,0,B|264:196|264:196|276:228,1,68.9999978942872
496,328,226996,2,0,B|496:292|496:292|484:260,1,68.9999978942872
288,320,227218,2,0,B|256:332|216:328|216:328|196:300|152:304,1,137.999995788574
144,28,227663,2,0,B|132:60|136:100|136:100|164:120|160:164,1,137.999995788574
52,336,227996,5,0,0:0:0:0:
76,312,228107,2,0,B|88:280|84:240|84:240|56:220|60:176,1,137.999995788574
208,232,228440,1,0,0:0:0:0:
240,216,228551,2,0,P|264:184|240:88,1,137.999995788574
63,85,228885,1,0,0:0:0:0:
51,117,228996,2,0,P|47:157|71:193,1,68.9999978942872
176,324,229218,2,0,L|264:320,1,68.9999978942872
396,272,229440,2,0,P|468:256|512:324,1,137.999995788574
312,248,229774,5,0,0:0:0:0:
276,244,229885,2,0,B|220:236|212:184|212:184|228:124,1,137.999995788574
424,40,230218,1,0,0:0:0:0:
440,72,230329,2,0,P|456:144|400:184,1,137.999995788574
312,104,230663,1,0,0:0:0:0:
300,72,230774,2,0,L|296:-4,1,68.9999978942872
136,144,230996,2,0,L|132:212,1,68.9999978942872
56,80,231218,2,0,P|128:40|188:56,1,137.999995788574
179,333,231663,6,0,P|112:341|56:304,1,137.999995788574
244,176,231996,1,0,0:0:0:0:
256,208,232107,2,0,B|276:256|276:256|244:296|272:344,1,137.999995788574
160,240,232440,1,0,0:0:0:0:
148,208,232551,2,0,P|140:168|156:124,1,68.9999978942872
356,228,232774,2,0,P|364:268|348:312,1,68.9999978942872
324,140,232996,2,0,P|368:88|432:96,1,137.999995788574
440,260,233440,5,0,0:0:0:0:
248,80,233663,1,0,0:0:0:0:
404,264,233885,2,0,B|312:272|312:272|292:252|264:248,1,137.999995788574
48,272,234329,2,0,P|108:312|168:280,1,137.999995788574
20,132,234774,2,0,P|12:168|20:204,1,68.9999978942872
204,224,234996,2,0,P|212:188|204:152,1,68.9999978942872
132,32,235218,6,0,B|112:68|112:68|120:92|120:92|100:120|112:172,1,137.999995788574
288,168,235551,1,0,0:0:0:0:
300,136,235663,2,0,P|284:72|216:52,1,137.999995788574
204,224,235996,1,0,0:0:0:0:
236,236,236107,2,0,L|312:228,1,68.9999978942872
368,336,236329,2,0,L|444:328,1,68.9999978942872
444,212,236551,2,0,B|424:168|424:168|436:64,1,137.999995788574
368,256,236996,6,0,B|340:212|340:212|248:188,1,137.999995788574
164,344,237329,1,0,0:0:0:0:
136,324,237440,2,0,P|112:260|156:196,1,137.999995788574
64,132,237774,1,0,0:0:0:0:
44,104,237885,2,0,L|12:44,1,68.9999978942872
160,72,238107,2,0,L|160:-8,1,68.9999978942872
260,116,238329,2,0,B|292:84|292:84|336:68|388:88,1,137.999995788574
388,300,238663,5,0,0:0:0:0:
352,280,238774,2,0,B|316:240|344:192|344:192|336:144,1,137.999995788574
112,260,239107,1,0,0:0:0:0:
132,288,239218,2,0,P|188:308|236:248,1,137.999995788574
240,124,239551,1,0,0:0:0:0:
236,88,239663,2,0,L|232:16,1,68.9999978942872
115,191,239885,2,0,L|111:263,1,68.9999978942872
32,152,240107,2,0,L|20:80,1,68.9999978942872
204,216,240329,2,0,L|276:212,1,68.9999978942872
452,264,240551,6,0,P|388:304|332:272,1,137.999995788574
115,191,240885,1,0,0:0:0:0:
131,219,240996,2,0,P|195:259|251:227,1,137.999995788574
496,160,241440,2,0,B|456:184|456:184|412:156|360:176,1,137.999995788574
76,112,241885,2,0,B|116:88|116:88|160:116|212:96,1,137.999995788574
304,52,242218,5,0,0:0:0:0:
324,80,242329,2,0,P|384:100|452:60,1,137.999995788574
272,156,242663,1,0,0:0:0:0:
252,184,242774,2,0,B|244:216|220:232|220:232|256:312,1,137.999995788574
128,308,243107,1,0,0:0:0:0:
96,316,243218,2,0,L|16:320,1,68.9999978942872
132,212,243440,2,0,L|124:136,1,68.9999978942872
184,16,243663,2,0,P|220:76|292:56,1,137.999995788574
484,144,243996,5,0,0:0:0:0:
452,136,244107,2,0,L|296:152,1,137.999995788574
184,360,244440,5,0,0:0:0:0:
212,340,244551,2,0,B|224:304|224:304|184:252|228:200,1,137.999995788574
312,328,244885,1,0,0:0:0:0:
344,336,244996,2,0,P|380:340|420:328,1,68.9999978942872
512,232,245218,2,0,P|476:236|436:224,1,68.9999978942872
288,116,245440,2,0,P|336:168|312:232,1,137.999995788574
128,188,245774,5,0,0:0:0:0:
128,152,245885,2,0,B|132:100|132:100|160:68|160:68|164:12,1,137.999995788574
248,180,246218,1,0,0:0:0:0:
244,220,246329,2,0,B|240:272|240:272|212:304|212:304|208:360,1,137.999995788574
100,296,246663,1,0,0:0:0:0:
68,304,246774,2,0,P|36:304|0:284,1,68.9999978942872
128,152,246996,2,0,P|160:152|196:172,1,68.9999978942872
328,240,247218,6,0,B|348:184|348:184|336:92,1,137.999995788574
432,308,247663,5,0,0:0:0:0:
436,272,247774,1,0,0:0:0:0:
440,236,247885,1,0,0:0:0:0:
320,168,248107,1,0,0:0:0:0:
324,204,248218,1,0,0:0:0:0:
328,240,248329,1,0,0:0:0:0:
408,136,248551,2,0,L|420:52,1,68.9999978942872
288,96,248774,2,0,L|281:27,1,68.9999978942872
176,124,248996,2,0,L|148:36,1,68.9999978942872
92,188,249218,2,0,L|36:136,1,68.9999978942872
