osu file format v14

[General]
AudioFilename: audio.mp3
AudioLeadIn: 0
PreviewTime: -1
Countdown: 1
SampleSet: None
StackLeniency: 0.7
Mode: 1
LetterboxInBreaks: 0
WidescreenStoryboard: 0

[Editor]
DistanceSpacing: 0.7
BeatDivisor: 4
GridSize: 32
TimelineZoom: 1

[Metadata]
Title:Tambourine Perfect Version
TitleUnicode:Tambourine Perfect Version
Artist:Rhythm Heaven Fever
ArtistUnicode:Rhythm Heaven Fever
Creator:Kbludoh
Version:Monkey Business
Source:
Tags:
BeatmapID:1615599
BeatmapSetID:768206

[Difficulty]
HPDrainRate:5
CircleSize:5
OverallDifficulty:5
ApproachRate:5
SliderMultiplier:1.4
SliderTickRate:1

[Events]
//Background and Video events
//Break Periods
//Storyboard Layer 0 (Background)
//Storyboard Layer 1 (Fail)
//Storyboard Layer 2 (Pass)
//Storyboard Layer 3 (Foreground)
//Storyboard Sound Samples

[TimingPoints]
344,402.684563758389,4,1,0,100,1,0
6775,-25,4,1,0,100,0,0
9594,-100,4,1,0,100,0,0
13218,-25,4,1,0,100,0,0
16037,-100,4,1,0,100,0,0
19661,-25,4,1,0,100,0,0
22480,-100,4,1,0,100,0,0
26104,-25,4,1,0,100,0,0
28923,-100,4,1,0,100,0,0
32547,-25,4,1,0,100,0,0
35373,-100,4,1,0,100,0,0
38990,-25,4,1,0,100,0,0
41809,-100,4,1,0,100,0,0
45433,-25,4,1,0,100,0,0
48252,-100,4,1,0,100,0,0
51876,-25,4,1,0,100,0,0
54695,-100,4,1,0,100,0,0
58319,-25,4,1,0,100,0,0
61138,-100,4,1,0,100,0,0
64762,-25,4,1,0,100,0,0
67588,-100,4,1,0,100,0,0

[HitObjects]
224,160,342,5,2,0:0:0:0:
224,160,545,1,2,0:0:0:0:
224,160,746,1,2,0:0:0:0:
224,128,948,1,0,0:0:0:0:
224,160,1149,1,2,0:0:0:0:
224,160,1350,1,0,0:0:0:0:
224,160,1552,1,2,0:0:0:0:
224,160,1753,1,0,0:0:0:0:
224,160,1954,1,2,0:0:0:0:
224,160,2156,1,0,0:0:0:0:
224,160,2357,1,0,0:0:0:0:
224,160,2558,1,0,0:0:0:0:
224,160,2760,1,2,0:0:0:0:
224,160,2961,1,2,0:0:0:0:
224,160,3162,1,2,0:0:0:0:
224,160,3364,1,0,0:0:0:0:
224,160,3565,1,6,0:0:0:0:
224,160,3968,1,6,0:0:0:0:
224,160,4370,1,6,0:0:0:0:
224,160,4773,1,6,0:0:0:0:
224,160,5176,1,6,0:0:0:0:
224,160,5578,1,6,0:0:0:0:
224,160,5981,1,6,0:0:0:0:
224,160,6384,1,2,0:0:0:0:
224,160,6786,1,6,0:0:0:0:
224,160,7189,1,6,0:0:0:0:
224,160,7592,1,6,0:0:0:0:
224,160,7995,1,6,0:0:0:0:
224,160,8397,1,6,0:0:0:0:
224,160,8800,1,6,0:0:0:0:
224,160,9203,1,6,0:0:0:0:
224,192,9605,1,0,0:0:0:0:
224,192,9807,1,2,0:0:0:0:
256,192,10008,1,6,0:0:0:0:
256,192,10411,1,6,0:0:0:0:
256,192,10813,1,6,0:0:0:0:
256,192,11216,1,6,0:0:0:0:
256,192,11619,1,4,0:0:0:0:
256,192,12021,1,4,0:0:0:0:
256,192,12424,1,4,0:0:0:0:
256,192,12827,1,2,0:0:0:0:
256,192,13229,1,6,0:0:0:0:
256,192,13632,1,6,0:0:0:0:
256,192,14035,1,6,0:0:0:0:
256,192,14437,1,6,0:0:0:0:
256,192,14840,1,4,0:0:0:0:
256,192,15243,1,4,0:0:0:0:
256,192,15646,1,4,0:0:0:0:
256,192,16048,1,0,0:0:0:0:
256,192,16250,1,2,0:0:0:0:
256,192,16451,1,6,0:0:0:0:
256,192,16854,1,6,0:0:0:0:
256,192,17256,1,6,0:0:0:0:
256,192,17659,1,6,0:0:0:0:
256,192,18062,1,6,0:0:0:0:
256,192,18364,1,6,0:0:0:0:
256,192,18666,1,6,0:0:0:0:
256,192,19270,1,2,0:0:0:0:
256,192,19672,1,6,0:0:0:0:
256,192,20075,1,6,0:0:0:0:
256,192,20478,1,6,0:0:0:0:
256,192,20880,1,6,0:0:0:0:
256,192,21283,1,6,0:0:0:0:
256,192,21585,1,6,0:0:0:0:
256,192,21887,1,6,0:0:0:0:
256,192,22491,1,0,0:0:0:0:
256,192,22692,1,2,0:0:0:0:
256,192,22894,1,6,0:0:0:0:
256,192,23297,1,6,0:0:0:0:
256,192,23699,1,6,0:0:0:0:
256,192,24102,1,6,0:0:0:0:
256,192,24505,1,4,0:0:0:0:
256,192,24907,1,4,0:0:0:0:
256,192,25310,1,4,0:0:0:0:
256,192,25713,1,2,0:0:0:0:
256,192,26115,1,6,0:0:0:0:
256,192,26518,1,6,0:0:0:0:
256,192,26921,1,6,0:0:0:0:
256,192,27323,1,6,0:0:0:0:
256,192,27726,1,4,0:0:0:0:
256,192,28129,1,4,0:0:0:0:
256,192,28531,1,4,0:0:0:0:
256,192,28934,1,0,0:0:0:0:
256,192,29135,1,2,0:0:0:0:
256,192,29337,1,6,0:0:0:0:
256,192,29739,1,6,0:0:0:0:
256,192,30142,1,6,0:0:0:0:
256,192,30545,1,6,0:0:0:0:
256,192,31149,1,6,0:0:0:0:
256,192,31350,1,6,0:0:0:0:
256,192,31552,1,6,0:0:0:0:
256,192,32156,1,2,0:0:0:0:
256,192,32558,1,6,0:0:0:0:
256,192,32961,1,6,0:0:0:0:
256,192,33364,1,6,0:0:0:0:
256,192,33766,1,6,0:0:0:0:
256,192,34370,1,6,0:0:0:0:
256,192,34572,1,6,0:0:0:0:
256,192,34773,1,6,0:0:0:0:
256,192,35377,1,0,0:0:0:0:
256,192,35578,1,2,0:0:0:0:
256,192,35780,1,6,0:0:0:0:
256,192,36182,1,6,0:0:0:0:
256,192,36786,1,6,0:0:0:0:
256,192,36988,1,6,0:0:0:0:
256,192,37390,1,4,0:0:0:0:
256,192,37793,1,4,0:0:0:0:
256,192,38196,1,4,0:0:0:0:
256,192,38599,1,2,0:0:0:0:
256,192,39001,1,6,0:0:0:0:
256,192,39404,1,6,0:0:0:0:
256,192,40008,1,6,0:0:0:0:
256,192,40209,1,6,0:0:0:0:
256,192,40612,1,4,0:0:0:0:
256,192,41015,1,4,0:0:0:0:
256,192,41417,1,4,0:0:0:0:
256,192,41820,1,0,0:0:0:0:
256,192,42021,1,2,0:0:0:0:
256,192,42223,1,6,0:0:0:0:
256,192,42625,1,6,0:0:0:0:
256,192,43229,1,6,0:0:0:0:
256,192,43431,1,6,0:0:0:0:
256,192,44035,1,6,0:0:0:0:
256,192,44437,1,6,0:0:0:0:
256,192,44840,1,6,0:0:0:0:
256,192,45041,1,2,0:0:0:0:
256,192,45444,1,6,0:0:0:0:
256,192,45847,1,6,0:0:0:0:
256,192,46451,1,6,0:0:0:0:
256,192,46652,1,6,0:0:0:0:
256,192,47256,1,6,0:0:0:0:
256,192,47659,1,6,0:0:0:0:
256,192,48062,1,6,0:0:0:0:
256,192,48263,1,0,0:0:0:0:
256,192,48464,1,2,0:0:0:0:
256,192,48666,1,6,0:0:0:0:
256,192,49068,1,6,0:0:0:0:
256,192,49672,1,6,0:0:0:0:
256,192,49874,1,6,0:0:0:0:
256,192,50276,1,4,0:0:0:0:
256,192,50679,1,4,0:0:0:0:
256,192,51082,1,4,0:0:0:0:
256,192,51484,1,2,0:0:0:0:
256,192,51887,1,6,0:0:0:0:
256,192,52290,1,6,0:0:0:0:
256,192,52894,1,6,0:0:0:0:
256,192,53095,1,6,0:0:0:0:
256,192,53498,1,4,0:0:0:0:
256,192,53901,1,4,0:0:0:0:
256,192,54303,1,4,0:0:0:0:
256,192,54706,1,0,0:0:0:0:
256,192,54907,1,2,0:0:0:0:
256,192,55109,1,6,0:0:0:0:
256,192,55310,1,6,0:0:0:0:
256,192,55713,1,6,0:0:0:0:
256,192,55914,1,6,0:0:0:0:
256,192,56719,1,6,0:0:0:0:
256,192,57021,1,6,0:0:0:0:
256,192,57323,1,6,0:0:0:0:
256,192,57927,1,2,0:0:0:0:
256,192,58330,1,6,0:0:0:0:
256,192,58531,1,6,0:0:0:0:
256,192,58934,1,6,0:0:0:0:
256,192,59135,1,6,0:0:0:0:
256,192,59941,1,6,0:0:0:0:
256,192,60243,1,6,0:0:0:0:
256,192,60545,1,6,0:0:0:0:
256,192,61149,1,0,0:0:0:0:
256,192,61350,1,2,0:0:0:0:
256,192,61552,1,6,0:0:0:0:
256,192,61753,1,6,0:0:0:0:
256,192,62156,1,6,0:0:0:0:
256,192,62357,1,6,0:0:0:0:
256,192,63162,1,4,0:0:0:0:
256,192,63565,1,4,0:0:0:0:
256,192,63968,1,4,0:0:0:0:
256,192,64370,1,2,0:0:0:0:
256,192,64773,1,6,0:0:0:0:
256,192,64974,1,6,0:0:0:0:
256,192,65377,1,6,0:0:0:0:
256,192,65578,1,6,0:0:0:0:
256,192,66384,1,4,0:0:0:0:
256,192,66786,1,4,0:0:0:0:
256,192,67189,1,4,0:0:0:0:
256,160,67592,1,0,0:0:0:0:
256,160,67793,1,2,0:0:0:0:
256,192,67995,1,2,0:0:0:0:
256,160,68196,1,2,0:0:0:0:
256,160,68397,1,2,0:0:0:0:
256,160,68599,1,0,0:0:0:0:
256,192,68800,1,2,0:0:0:0:
256,192,69001,1,2,0:0:0:0:
256,160,69203,1,2,0:0:0:0:
256,160,69404,1,0,0:0:0:0:
256,192,69605,1,2,0:0:0:0:
256,192,69807,1,0,0:0:0:0:
256,192,70008,1,0,0:0:0:0:
256,192,70209,1,0,0:0:0:0:
256,192,70411,1,2,0:0:0:0:
256,192,70612,1,2,0:0:0:0:
256,192,70813,1,2,0:0:0:0:
256,192,71216,1,6,0:0:0:0:
