osu file format v14

[General]
AudioFilename: audio.mp3
AudioLeadIn: 0
PreviewTime: 31010
Countdown: 0
SampleSet: Normal
StackLeniency: 0.7
Mode: 0
LetterboxInBreaks: 0
WidescreenStoryboard: 0

[Editor]
Bookmarks: 425,5130,9836,14541,19247,23952,26305,31010,35716,40422,45127,49833,54538,59244,63949,68655,71008,75713,80419,85124,89830,94535,99241,103946,108652,109956,111186,112487,113717
DistanceSpacing: 0.8
BeatDivisor: 1
GridSize: 16
TimelineZoom: 1

[Metadata]
Title:Inspector Gadget
TitleUnicode:Inspector Gadget
Artist:Rhymes & Rhytm
ArtistUnicode:Rhymes & Rhytm
Creator:Halliday
Version:Normal
Source:
Tags:Children'S Tv Theme Tunes For Boys Pegasus Entertainment The Orchard Enterprises
BeatmapID:1256467
BeatmapSetID:593976

[Difficulty]
HPDrainRate:4
CircleSize:3
OverallDifficulty:4
ApproachRate:4
SliderMultiplier:0.700000005960464
SliderTickRate:1

[Events]
//Background and Video events
0,0,"100680.jpg",0,0
//Break Periods
//Storyboard Layer 0 (Background)
//Storyboard Layer 1 (Fail)
//Storyboard Layer 2 (Pass)
//Storyboard Layer 3 (Foreground)
//Storyboard Sound Samples

[TimingPoints]
425,294.096022351298,4,1,0,40,1,0
5130,-100,4,3,0,40,0,0
19247,-100,4,1,0,40,0,0
26305,294.096022351298,4,1,0,40,1,0
31010,-100,4,1,0,40,0,1
49832,-100,4,1,0,40,0,0
56890,-100,4,2,0,40,0,0
63949,-100,4,1,0,40,0,0
71007,294.096022351298,4,1,0,40,1,0
75712,-100,4,1,0,40,0,1
94534,-100,4,1,0,40,0,0
101592,-100,4,2,0,40,0,0
108652,326.086956521739,4,2,0,40,1,0
109956,307.692307692308,4,2,0,40,1,0
111802,342.857647058826,4,2,0,40,1,0
112487,307.692307692308,4,1,0,40,1,0

[Colours]
Combo1 : 17,194,114
Combo2 : 0,78,106
Combo3 : 0,165,210
Combo4 : 26,79,129
Combo5 : 0,220,203

[HitObjects]
351,182,5130,6,0,P|329:142|323:118,1,70.0000005960464,4|0,0:0|0:0,0:0:0:0:
318,63,5718,1,8,0:0:0:0:
318,63,6012,1,0,0:0:0:0:
205,63,6601,6,0,L|140:121,1,70.0000005960464
116,152,7189,1,0,0:0:0:0:
116,152,7483,5,8,0:0:0:0:
112,264,8071,1,0,0:0:0:0:
221,287,8659,2,0,P|260:286|298:271,1,70.0000005960464
331,239,9247,1,8,0:0:0:0:
358,130,9836,6,0,P|390:142|418:170,1,70.0000005960464,4|0,0:0|0:0,0:0:0:0:
445,213,10424,1,0,0:0:0:0:
442,268,10718,2,0,L|400:332,1,70.0000005960464
356,355,11306,2,0,L|286:347,1,70.0000005960464
201,274,12188,6,0,P|172:244|160:215,1,70.0000005960464
150,161,12777,1,8,0:0:0:0:
150,103,13071,1,0,0:0:0:0:
157,46,13365,2,0,P|225:68|265:129,1,140.000001192093
342,201,14541,5,4,0:0:0:0:
342,201,15129,2,0,L|383:142,1,70.0000005960464
412,96,15717,1,8,0:0:0:0:
412,96,16306,2,0,P|380:71|345:60,1,70.0000005960464
296,58,16894,5,8,0:0:0:0:
216,137,17482,1,8,0:0:0:0:
256,241,18070,2,0,L|325:242,1,70.0000005960464,2|0,0:0|0:0,0:0:0:0:
325,186,18658,2,0,L|394:187,1,70.0000005960464,2|8,0:0|0:0,0:0:0:0:
394,130,19247,6,0,P|460:130|497:187,1,140.000001192093,4|0,0:0|0:0,0:0:0:0:
497,243,20129,1,0,0:0:0:0:
468,291,20423,2,0,L|415:344,1,70.0000005960464,8|0,0:0|0:0,0:0:0:0:
362,340,21011,1,0,0:0:0:0:
306,340,21305,1,0,0:0:0:0:
266,300,21599,2,0,P|214:250|225:179,1,140.000001192093,8|0,0:0|0:0,0:0:0:0:
254,143,22482,1,0,0:0:0:0:
305,120,22776,2,0,B|367:153|367:153|434:117,1,140.000001192093,8|0,0:0|0:0,0:0:0:0:
344,45,23952,6,0,P|270:44|225:95,1,140.000001192093,4|0,0:0|0:0,0:0:0:0:
221,143,24834,1,0,0:0:0:0:
221,199,25129,2,0,P|250:239|280:257,1,70.0000005960464,8|0,0:0|0:0,0:0:0:0:
320,265,25717,1,0,0:0:0:0:
372,245,26011,1,0,0:0:0:0:
405,200,26305,1,4,0:0:0:0:
318,167,27775,5,8,0:0:0:0:
318,167,28070,1,8,0:0:0:0:
210,198,28657,2,2,P|113:198|225:281,1,350.000002980232,4|2,0:0|0:0,0:0:0:0:
59,122,31010,6,0,P|123:92|205:93,1,140.000001192093,4|0,0:0|0:0,0:0:0:0:
246,102,31893,1,0,0:0:0:0:
296,125,32187,2,0,L|358:157,1,70.0000005960464,8|0,0:0|0:0,0:0:0:0:
407,183,32775,1,0,0:0:0:0:
407,238,33069,1,0,0:0:0:0:
369,279,33363,2,0,B|301:265|301:265|227:278,1,140.000001192093,8|0,0:0|0:0,0:0:0:0:
176,288,34246,1,0,0:0:0:0:
142,243,34540,6,0,P|135:171|177:111,1,140.000001192093,8|0,0:0|0:0,0:0:0:0:
282,116,35716,6,0,L|383:218,1,140.000001192093,4|0,0:0|0:0,0:0:0:0:
434,199,36598,1,0,0:0:0:0:
462,150,36892,2,0,P|452:111|432:79,1,70.0000005960464,8|0,0:0|0:0,0:0:0:0:
390,54,37481,1,0,0:0:0:0:
334,44,37775,1,0,0:0:0:0:
314,125,38068,6,0,L|239:119,1,70.0000005960464,8|2,0:0|0:0,0:0:0:0:
209,75,38657,2,0,L|135:95,1,70.0000005960464,2|2,0:0|0:0,0:0:0:0:
115,173,39245,5,8,0:0:0:0:
165,198,39539,1,2,0:0:0:0:
220,194,39833,1,2,0:0:0:0:
266,163,40127,1,2,0:0:0:0:
350,163,40422,6,0,B|368:230|368:230|358:302,1,140.000001192093,4|0,0:0|0:0,0:0:0:0:
305,315,41304,1,0,0:0:0:0:
251,330,41598,2,0,P|208:335|159:323,1,70.0000005960464,8|0,0:0|0:0,0:0:0:0:
130,308,42186,1,0,0:0:0:0:
213,233,42774,2,2,B|240:167|240:167|322:151,1,140.000001192093,10|2,0:0|0:0,0:0:0:0:
317,265,43951,2,2,P|277:322|213:343,1,140.000001192093,10|2,0:0|0:0,0:0:0:0:
210,231,45127,6,0,L|210:90,1,140.000001192093,4|0,0:0|0:0,0:0:0:0:
170,51,46009,1,0,0:0:0:0:
116,66,46303,2,0,P|85:91|64:125,1,70.0000005960464,8|0,0:0|0:0,0:0:0:0:
55,169,46892,1,0,0:0:0:0:
134,248,47480,2,2,P|199:224|248:173,1,140.000001192093,10|2,0:0|0:0,0:0:0:0:
356,145,48656,1,8,0:0:0:0:
357,201,48950,1,2,0:0:0:0:
332,251,49244,1,2,0:0:0:0:
286,284,49539,1,2,0:0:0:0:
230,287,49832,6,0,P|168:257|142:190,1,140.000001192093,4|0,0:0|0:0,0:0:0:0:
186,162,50715,1,0,0:0:0:0:
237,137,51009,2,0,L|311:138,1,70.0000005960464,8|0,0:0|0:0,0:0:0:0:
362,144,51597,1,0,0:0:0:0:
375,197,51891,1,0,0:0:0:0:
358,251,52185,2,0,B|290:269|290:269|246:259|206:281,1,140.000001192093,8|0,0:0|0:0,0:0:0:0:
175,302,53068,1,0,0:0:0:0:
127,269,53362,2,0,P|95:213|116:139,1,140.000001192093,8|0,0:0|0:0,0:0:0:0:
224,164,54538,6,0,P|288:135|325:60,1,140.000001192093,4|0,0:0|0:0,0:0:0:0:
282,37,55420,1,0,0:0:0:0:
227,21,55715,2,0,L|147:21,1,70.0000005960464,8|0,0:0|0:0,0:0:0:0:
101,21,56303,1,0,0:0:0:0:
61,60,56597,1,0,0:0:0:0:
60,114,56891,6,2,B|82:164|149:161|149:161|212:165|232:223,1,210.000001788139,8|0,0:0|0:0,0:0:0:0:
242,269,58067,2,2,P|301:334|356:254,1,210.000001788139,2|0,0:0|0:0,0:0:0:0:
336,204,59244,6,2,B|313:137|313:137|250:106|250:106|224:40,1,210.000001788139,4|0,0:0|0:0,0:0:0:0:
169,42,60420,2,2,B|148:98|97:113|97:113|144:129|169:192,1,210.000001788139,2|0,0:0|0:0,0:0:0:0:
166,242,61596,5,10,0:0:0:0:
271,203,62185,1,2,0:0:0:0:
380,226,62773,1,2,0:0:0:0:
435,129,63361,1,2,0:0:0:0:
346,59,63949,6,0,P|276:59|210:84,1,140.000001192093,4|0,0:0|0:0,0:0:0:0:
169,120,64832,1,0,0:0:0:0:
178,175,65126,2,0,L|192:252,1,70.0000005960464,8|0,0:0|0:0,0:0:0:0:
201,298,65714,1,0,0:0:0:0:
256,301,66008,1,0,0:0:0:0:
311,302,66302,2,0,B|372:268|372:268|372:195,1,140.000001192093,8|0,0:0|0:0,0:0:0:0:
372,141,67184,1,0,0:0:0:0:
372,85,67478,2,0,P|304:86|246:35,1,140.000001192093,8|0,0:0|0:0,0:0:0:0:
170,121,68655,6,0,L|288:197,1,140.000001192093,4|0,0:0|0:0,0:0:0:0:
327,236,69537,1,0,0:0:0:0:
316,290,69831,2,0,P|288:334|266:348,1,70.0000005960464,8|0,0:0|0:0,0:0:0:0:
218,350,70419,1,0,0:0:0:0:
164,334,70713,1,0,0:0:0:0:
126,292,71008,1,4,0:0:0:0:
215,249,72478,5,8,0:0:0:0:
215,249,72772,1,8,0:0:0:0:
294,169,73359,2,2,B|345:232|313:300|313:300|418:311|439:241|412:160,1,350.000002980232,4|2,0:0|0:0,0:0:0:0:
215,41,75713,6,0,B|123:156,1,140.000001192093,4|0,0:0|0:0,0:0:0:0:
111,204,76595,1,0,0:0:0:0:
131,256,76889,2,0,P|170:286|208:293,1,70.0000005960464,8|0,0:0|0:0,0:0:0:0:
245,291,77478,1,0,0:0:0:0:
296,269,77772,1,0,0:0:0:0:
346,243,78066,2,0,B|371:180|371:180|312:138,1,140.000001192093,8|0,0:0|0:0,0:0:0:0:
256,138,78948,1,0,0:0:0:0:
200,138,79241,2,0,B|141:180|141:180|166:243,1,140.000001192093,8|0,0:0|0:0,0:0:0:0:
73,306,80419,6,0,P|22:262|1:175,1,140.000001192093,4|0,0:0|0:0,0:0:0:0:
31,147,81301,1,0,0:0:0:0:
82,125,81595,2,0,L|149:97,1,70.0000005960464,8|0,0:0|0:0,0:0:0:0:
198,78,82183,1,0,0:0:0:0:
251,94,82477,1,0,0:0:0:0:
310,153,82770,6,0,L|260:203,1,70.0000005960464,8|2,0:0|0:0,0:0:0:0:
204,202,83359,2,0,L|155:151,1,70.0000005960464,2|2,0:0|0:0,0:0:0:0:
198,78,83948,5,8,0:0:0:0:
143,65,84242,1,2,0:0:0:0:
88,80,84535,1,2,0:0:0:0:
50,123,84829,1,2,0:0:0:0:
98,192,85124,6,0,P|109:275|160:261,1,140.000001192093,4|0,0:0|0:0,0:0:0:0:
192,243,86006,1,0,0:0:0:0:
216,192,86299,2,0,P|218:144|206:114,1,70.0000005960464,8|0,0:0|0:0,0:0:0:0:
177,79,86889,1,0,0:0:0:0:
111,170,87477,2,2,P|120:238|170:290,1,140.000001192093,10|2,0:0|0:0,0:0:0:0:
222,189,88653,2,2,P|290:180|342:128,1,140.000001192093,10|2,0:0|0:0,0:0:0:0:
419,211,89830,6,0,B|381:269|381:269|317:312,1,140.000001192093,4|0,0:0|0:0,0:0:0:0:
266,308,90712,1,0,0:0:0:0:
210,308,91006,2,0,P|163:291|137:262,1,70.0000005960464,8|0,0:0|0:0,0:0:0:0:
119,230,91594,1,0,0:0:0:0:
225,196,92182,2,2,B|286:175|308:213|369:180,1,140.000001192093,10|2,0:0|0:0,0:0:0:0:
316,81,93359,1,8,0:0:0:0:
276,41,93653,1,2,0:0:0:0:
220,41,93947,1,2,0:0:0:0:
180,80,94241,1,2,0:0:0:0:
180,135,94535,6,0,P|206:206|255:246,1,140.000001192093,4|0,0:0|0:0,0:0:0:0:
310,252,95416,1,0,0:0:0:0:
363,234,95712,2,0,L|359:158,1,70.0000005960464,8|0,0:0|0:0,0:0:0:0:
354,108,96300,1,0,0:0:0:0:
308,75,96594,1,0,0:0:0:0:
252,75,96888,2,0,B|208:88|208:88|177:125|177:125|130:139,1,140.000001192093,8|0,0:0|0:0,0:0:0:0:
80,158,97770,1,0,0:0:0:0:
80,213,98064,2,0,P|118:276|187:293,1,140.000001192093,8|0,0:0|0:0,0:0:0:0:
187,182,99241,6,0,L|339:182,1,140.000001192093,4|0,0:0|0:0,0:0:0:0:
382,182,100123,1,0,0:0:0:0:
421,221,100417,2,0,P|437:266|435:297,1,70.0000005960464,8|0,0:0|0:0,0:0:0:0:
409,336,101005,1,0,0:0:0:0:
353,329,101299,1,0,0:0:0:0:
297,322,101592,6,2,P|297:257|206:304,1,210.000001788139,8|0,0:0|0:0,0:0:0:0:
149,300,102770,2,2,P|132:232|225:140,1,210.000001788139,2|0,0:0|0:0,0:0:0:0:
277,140,103946,6,2,B|346:155|346:155|352:234|430:261,1,210.000001788139,4|0,0:0|0:0,0:0:0:0:
425,315,105123,2,2,P|320:315|263:235,1,210.000001788139,2|0,0:0|0:0,0:0:0:0:
263,180,106299,5,10,0:0:0:0:
183,100,106887,1,2,0:0:0:0:
103,179,107475,1,2,0:0:0:0:
182,258,108064,1,2,0:0:0:0:
295,256,108652,6,0,P|343:197|333:135,1,140.000001192093,0|8,0:0|0:0,0:0:0:0:
219,164,109956,2,0,B|161:125|161:125|101:165,1,140.000001192093,0|8,0:0|0:0,0:0:0:0:
161,258,111186,1,0,0:0:0:0:
261,258,111802,6,0,P|292:237|312:207,1,70.0000005960464,8|0,0:0|0:0,0:0:0:0:
321,149,112487,1,4,0:0:0:0:
439,267,113410,1,8,0:0:0:0:
439,267,113717,1,8,0:0:0:0:
