osu file format v14

[General]
AudioFilename: audio.mp3
AudioLeadIn: 0
PreviewTime: 31010
Countdown: 0
SampleSet: Normal
StackLeniency: 0.7
Mode: 0
LetterboxInBreaks: 0
WidescreenStoryboard: 1

[Editor]
Bookmarks: 425,5130,9836,14541,19247,23952,26305,31010,35716,40422,45127,49833,54538,59244,63949,68655,71008,75713,80419,85124,89830,94535,99241,103946,108652,109956,111186,112487,113717
DistanceSpacing: 1
BeatDivisor: 2
GridSize: 16
TimelineZoom: 1.5

[Metadata]
Title:Inspector Gadget
TitleUnicode:Inspector Gadget
Artist:Rhymes & Rhytm
ArtistUnicode:Rhymes & Rhytm
Creator:Halliday
Version:Hard
Source:
Tags:Children'S Tv Theme Tunes For Boys Pegasus Entertainment The Orchard Enterprises
BeatmapID:1262127
BeatmapSetID:593976

[Difficulty]
HPDrainRate:5
CircleSize:4
OverallDifficulty:6
ApproachRate:6
SliderMultiplier:1.00000000596046
SliderTickRate:1

[Events]
//Background and Video events
0,0,"100680.jpg",0,0
//Break Periods
//Storyboard Layer 0 (Background)
//Storyboard Layer 1 (Fail)
//Storyboard Layer 2 (Pass)
//Storyboard Layer 3 (Foreground)
//Storyboard Sound Samples

[TimingPoints]
425,294.096022351298,4,1,0,40,1,0
5130,-100,4,3,0,40,0,0
11306,-100,4,3,0,30,0,0
11600,-100,4,3,0,40,0,0
19247,-100,4,1,0,40,0,0
26305,294.096022351298,4,1,0,40,1,0
31010,-100,4,1,0,40,0,1
49833,-100,4,1,0,40,0,0
56890,-100,4,2,0,40,0,0
63949,-100,4,1,0,40,0,0
71007,294.096022351298,4,1,0,40,1,0
75713,-100,4,1,0,40,0,1
94535,-100,4,1,0,40,0,0
101592,-100,4,2,0,40,0,0
108652,326.086956521739,4,2,0,40,1,0
109956,307.692307692308,4,2,0,40,1,0
111802,342.857647058826,4,2,0,40,1,0
112487,307.692307692308,4,1,0,40,1,0

[Colours]
Combo1 : 17,194,114
Combo2 : 0,78,106
Combo3 : 0,165,210
Combo4 : 26,79,129
Combo5 : 0,220,203

[HitObjects]
52,148,5130,6,0,L|85:106,1,50.000000298023,2|0,0:0|0:0,0:0:0:0:
132,110,5424,2,0,L|177:83,1,50.000000298023
220,105,5718,1,2,0:0:0:0:
220,204,6012,6,0,L|291:274,1,100.000000596046
341,274,6453,1,0,0:0:0:0:
392,274,6601,2,0,P|436:235|444:188,1,100.000000596046,8|2,0:0|0:0,0:0:0:0:
452,96,7189,1,0,0:0:0:0:
375,30,7483,6,0,L|330:51,1,50.000000298023,2|0,0:0|0:0,0:0:0:0:
280,44,7777,2,0,L|252:91,1,50.000000298023
230,131,8071,1,2,0:0:0:0:
300,201,8365,1,2,0:0:0:0:
399,201,8659,2,2,P|380:260|256:291,1,200.000001192092,2|8,0:0|0:0,0:0:0:0:
116,150,9836,6,0,L|79:192,1,50.000000298023,2|0,0:0|0:0,0:0:0:0:
118,222,10130,2,0,L|81:264,1,50.000000298023
120,294,10424,1,2,0:0:0:0:
219,294,10718,2,2,P|263:271|279:214,1,100.000000596046,8|2,0:0|0:0,0:0:0:0:
350,155,11306,2,2,L|350:100,3,33.3333335320153
420,225,11894,1,0,0:0:0:0:
420,324,12188,6,0,P|400:341|365:349,1,50.000000298023,2|0,0:0|0:0,0:0:0:0:
332,327,12482,2,0,P|312:310|277:302,1,50.000000298023
239,302,12777,1,2,0:0:0:0:
168,231,13071,1,2,0:0:0:0:
238,160,13365,2,2,B|335:127|336:196|435:150,1,200.000001192092,2|8,0:0|0:0,0:0:0:0:
259,51,14541,6,0,L|205:62,2,50.000000298023,0|0|8,0:0|0:0|0:0,0:0:0:0:
329,121,15129,1,2,0:0:0:0:
329,121,15423,1,2,0:0:0:0:
222,227,15717,2,0,L|276:238,2,50.000000298023,0|0|8,0:0|0:0|0:0,0:0:0:0:
152,297,16305,1,2,0:0:0:0:
152,297,16599,1,2,0:0:0:0:
45,190,16894,6,0,L|62:139,1,50.000000298023,2|0,0:0|0:0,0:0:0:0:
77,95,17188,1,0,0:0:0:0:
160,39,17482,2,0,L|185:86,1,50.000000298023,2|0,0:0|0:0,0:0:0:0:
207,128,17776,1,0,0:0:0:0:
303,155,18070,2,0,L|358:155,1,50.000000298023,2|0,0:0|0:0,0:0:0:0:
406,208,18364,2,0,L|351:208,1,50.000000298023
302,261,18658,2,0,L|357:261,1,50.000000298023,2|0,0:0|0:0,0:0:0:0:
405,314,18952,2,0,L|350:314,1,50.000000298023,8|0,0:0|0:0,0:0:0:0:
301,367,19247,6,0,P|248:352|208:309,1,100.000000596046,6|2,0:0|0:0,0:0:0:0:
193,277,19688,1,0,0:0:0:0:
193,277,19835,1,10,0:0:0:0:
233,185,20129,1,0,0:0:0:0:
330,164,20423,2,0,P|384:171|437:164,1,100.000000596046,10|0,0:0|0:0,0:0:0:0:
386,256,21011,2,0,P|336:248|280:256,1,100.000000596046,10|0,0:0|0:0,0:0:0:0:
187,253,21599,6,0,P|144:206|138:155,1,100.000000596046,6|2,0:0|0:0,0:0:0:0:
155,126,22041,1,0,0:0:0:0:
155,126,22188,1,10,0:0:0:0:
249,158,22482,1,2,0:0:0:0:
343,190,22776,2,0,P|389:147|398:96,1,100.000000596046,8|2,0:0|0:0,0:0:0:0:
372,16,23364,1,2,0:0:0:0:
74,56,23952,5,6,0:0:0:0:
101,153,24246,1,2,0:0:0:0:
101,153,24393,1,0,0:0:0:0:
101,153,24540,1,10,0:0:0:0:
196,123,24834,1,0,0:0:0:0:
115,63,25129,2,0,B|64:63|64:63|21:99,1,100.000000596046,10|0,0:0|0:0,0:0:0:0:
97,165,25717,2,0,L|97:286,1,100.000000596046,10|0,0:0|0:0,0:0:0:0:
97,265,26305,5,6,0:0:0:0:
97,265,27775,1,10,0:0:0:0:
97,265,28069,1,6,0:0:0:0:
238,123,28657,6,0,L|330:198,1,100.000000596046,6|0,0:0|0:0,0:0:0:0:
356,214,29098,1,2,0:0:0:0:
388,251,29245,2,0,P|398:296|372:350,1,100.000000596046,10|0,0:0|0:0,0:0:0:0:
330,357,29687,1,2,0:0:0:0:
280,355,29834,2,0,P|247:320|243:260,1,100.000000596046,10|0,0:0|0:0,0:0:0:0:
275,176,30422,2,2,L|306:144,3,33.3333335320153,6|2|2|10,0:0|0:0|0:0|0:0,0:0:0:0:
150,172,31010,6,0,L|75:247,1,100.000000596046,6|2,0:0|0:0,0:0:0:0:
48,281,31451,1,0,0:0:0:0:
48,281,31598,1,10,0:0:0:0:
129,339,31892,1,0,0:0:0:0:
227,320,32186,1,10,0:0:0:0:
323,348,32481,1,0,0:0:0:0:
407,294,32775,2,0,P|428:249|423:191,1,100.000000596046,10|0,0:0|0:0,0:0:0:0:
330,229,33363,6,0,P|307:184|266:155,1,100.000000596046,6|2,0:0|0:0,0:0:0:0:
217,152,33804,1,0,0:0:0:0:
217,152,33951,1,10,0:0:0:0:
233,251,34245,1,2,0:0:0:0:
316,306,34539,1,8,0:0:0:0:
401,254,34833,1,2,0:0:0:0:
381,156,35127,1,8,0:0:0:0:
103,100,35716,6,0,L|199:68,1,100.000000596046,6|2,0:0|0:0,0:0:0:0:
245,52,36157,1,0,0:0:0:0:
294,58,36304,2,0,P|332:90|353:149,1,100.000000596046,10|0,0:0|0:0,0:0:0:0:
251,151,36892,2,0,B|234:198|234:198|251:244,1,100.000000596046,10|0,0:0|0:0,0:0:0:0:
351,244,37480,1,10,0:0:0:0:
351,144,37774,1,0,0:0:0:0:
211,198,38068,5,4,0:0:0:0:
238,294,38362,1,10,0:0:0:0:
331,331,38657,1,8,0:0:0:0:
318,231,38951,1,10,0:0:0:0:
168,231,39245,5,4,0:0:0:0:
97,301,39539,1,10,0:0:0:0:
26,230,39833,1,8,0:0:0:0:
96,159,40127,1,10,0:0:0:0:
245,159,40421,6,0,P|267:204|237:249,1,100.000000596046,6|0,0:0|0:0,0:0:0:0:
339,276,41009,2,0,P|342:226|390:202,1,100.000000596046,10|0,0:0|0:0,0:0:0:0:
431,208,41450,1,2,0:0:0:0:
465,243,41597,2,0,L|445:350,2,100.000000596046,10|2|10,0:0|0:0|0:0,0:0:0:0:
394,172,42480,5,2,0:0:0:0:
351,145,42627,2,0,P|287:135|251:146,1,100.000000596046,6|0,0:0|0:0,0:0:0:0:
211,170,43068,1,2,0:0:0:0:
173,262,43362,1,10,0:0:0:0:
253,320,43656,1,2,0:0:0:0:
301,308,43803,2,0,B|340:278|340:278|348:227,1,100.000000596046,6|0,0:0|0:0,0:0:0:0:
353,178,44244,1,2,0:0:0:0:
353,78,44538,2,0,P|297:94|262:138,1,100.000000596046,10|0,0:0|0:0,0:0:0:0:
162,229,45127,6,0,B|137:185|137:185|152:124,1,100.000000596046,6|0,0:0|0:0,0:0:0:0:
209,58,45715,1,10,0:0:0:0:
308,58,46009,1,0,0:0:0:0:
355,73,46156,1,2,0:0:0:0:
384,112,46303,2,0,P|385:166|355:216,1,100.000000596046,10|2,0:0|0:0,0:0:0:0:
264,206,46891,1,10,0:0:0:0:
193,135,47185,5,2,0:0:0:0:
220,92,47332,2,0,B|247:50|247:50|309:47,1,100.000000596046,6|0,0:0|0:0,0:0:0:0:
348,52,47774,1,2,0:0:0:0:
322,147,48068,1,10,0:0:0:0:
236,197,48362,1,2,0:0:0:0:
186,197,48509,2,0,P|146:176|112:128,1,100.000000596046,6|0,0:0|0:0,0:0:0:0:
100,84,48950,1,10,0:0:0:0:
199,84,49244,1,10,0:0:0:0:
298,84,49538,1,10,0:0:0:0:
404,190,49832,5,6,0:0:0:0:
339,266,50126,1,2,0:0:0:0:
302,300,50273,1,0,0:0:0:0:
252,299,50420,2,0,B|204:287|204:287|182:240,1,100.000000596046,10|0,0:0|0:0,0:0:0:0:
274,200,51009,2,0,P|235:157|183:142,1,100.000000596046,10|0,0:0|0:0,0:0:0:0:
102,176,51597,1,10,0:0:0:0:
84,274,51891,1,0,0:0:0:0:
182,241,52185,5,6,0:0:0:0:
240,159,52479,1,2,0:0:0:0:
207,121,52626,1,0,0:0:0:0:
160,102,52773,2,0,P|112:97|52:114,1,100.000000596046,10|2,0:0|0:0,0:0:0:0:
117,192,53361,1,8,0:0:0:0:
216,192,53655,1,2,0:0:0:0:
286,121,53950,1,2,0:0:0:0:
479,349,54538,6,0,L|371:320,1,100.000000596046,6|2,0:0|0:0,0:0:0:0:
333,313,54979,1,0,0:0:0:0:
286,295,55126,2,0,P|263:240|275:194,1,100.000000596046,10|0,0:0|0:0,0:0:0:0:
341,131,55714,1,10,0:0:0:0:
437,157,56008,1,0,0:0:0:0:
409,253,56302,1,10,0:0:0:0:
313,227,56596,1,0,0:0:0:0:
240,157,56890,6,2,L|211:256,1,100.000000596046,6|2,0:0|0:0,0:0:0:0:
178,347,57479,1,0,0:0:0:0:
178,347,57773,1,8,0:0:0:0:
326,326,58067,6,2,L|355:227,1,100.000000596046,6|2,0:0|0:0,0:0:0:0:
388,136,58655,1,0,0:0:0:0:
388,136,58949,1,8,0:0:0:0:
269,43,59243,6,2,P|193:27|160:39,1,100.000000596046,6|2,0:0|0:0,0:0:0:0:
216,122,59831,1,0,0:0:0:0:
216,122,60126,1,8,0:0:0:0:
335,215,60420,6,2,P|411:231|444:219,1,100.000000596046,6|2,0:0|0:0,0:0:0:0:
388,136,61008,1,0,0:0:0:0:
388,136,61303,1,8,0:0:0:0:
244,177,61596,6,2,B|201:205|201:205|201:262,1,100.000000596046,6|10,0:0|0:0,0:0:0:0:
345,212,62184,6,2,B|388:184|388:184|388:127,1,100.000000596046,6|10,0:0|0:0,0:0:0:0:
276,247,62772,6,2,B|265:297|265:297|305:337,1,100.000000596046,6|10,0:0|0:0,0:0:0:0:
313,142,63360,6,2,B|324:92|324:92|284:52,1,100.000000596046,6|10,0:0|0:0,0:0:0:0:
222,192,63949,6,0,P|260:233|312:247,1,100.000000596046,6|2,0:0|0:0,0:0:0:0:
350,247,64390,1,0,0:0:0:0:
350,247,64537,1,10,0:0:0:0:
434,192,64831,1,0,0:0:0:0:
416,93,65125,2,0,P|378:52|326:38,1,100.000000596046,10|2,0:0|0:0,0:0:0:0:
256,97,65713,1,10,0:0:0:0:
277,195,66007,1,10,0:0:0:0:
212,272,66302,6,0,L|113:220,1,100.000000596046,6|2,0:0|0:0,0:0:0:0:
78,204,66743,1,0,0:0:0:0:
78,204,66890,1,10,0:0:0:0:
164,154,67184,1,2,0:0:0:0:
261,177,67478,2,0,B|316:171|316:171|353:125,1,100.000000596046,8|2,0:0|0:0,0:0:0:0:
402,55,68066,1,2,0:0:0:0:
402,318,68654,6,0,P|444:281|462:229,1,100.000000596046,6|2,0:0|0:0,0:0:0:0:
464,191,69095,1,0,0:0:0:0:
464,191,69243,1,10,0:0:0:0:
399,115,69537,1,0,0:0:0:0:
301,93,69831,2,0,L|194:93,1,100.000000596046,10|0,0:0|0:0,0:0:0:0:
101,93,70419,1,10,0:0:0:0:
101,192,70713,1,0,0:0:0:0:
208,201,71007,5,6,0:0:0:0:
208,201,72477,1,10,0:0:0:0:
208,201,72771,1,6,0:0:0:0:
386,110,73359,6,0,B|423:144|423:144|432:204,1,100.000000596046,6|0,0:0|0:0,0:0:0:0:
433,243,73800,1,2,0:0:0:0:
407,286,73947,2,0,P|369:319|310:323,1,100.000000596046,10|0,0:0|0:0,0:0:0:0:
274,306,74389,1,2,0:0:0:0:
236,272,74536,2,0,P|178:246|136:253,1,100.000000596046,10|0,0:0|0:0,0:0:0:0:
72,179,75124,2,2,L|29:190,3,33.3333335320153,6|2|2|10,0:0|0:0|0:0|0:0,0:0:0:0:
145,81,75712,5,6,0:0:0:0:
238,115,76006,1,2,0:0:0:0:
238,115,76153,1,0,0:0:0:0:
238,115,76300,1,10,0:0:0:0:
167,185,76594,1,0,0:0:0:0:
75,145,76888,2,0,P|117:97|153:85,1,100.000000596046,10|0,0:0|0:0,0:0:0:0:
250,85,77477,2,0,L|363:85,1,100.000000596046,10|0,0:0|0:0,0:0:0:0:
420,155,78065,5,6,0:0:0:0:
375,244,78359,1,2,0:0:0:0:
375,244,78506,1,0,0:0:0:0:
375,244,78653,1,10,0:0:0:0:
280,275,78947,1,2,0:0:0:0:
187,237,79241,2,0,B|182:187|182:187|145:150,1,100.000000596046,8|2,0:0|0:0,0:0:0:0:
217,81,79829,1,2,0:0:0:0:
467,130,80418,6,0,L|397:57,1,100.000000596046,6|2,0:0|0:0,0:0:0:0:
358,26,80859,1,0,0:0:0:0:
358,26,81006,1,10,0:0:0:0:
270,75,81300,1,0,0:0:0:0:
340,145,81594,1,10,0:0:0:0:
252,194,81888,1,0,0:0:0:0:
322,264,82182,2,0,P|367:262|430:223,1,100.000000596046,10|0,0:0|0:0,0:0:0:0:
468,153,82770,5,4,0:0:0:0:
430,60,83064,1,10,0:0:0:0:
335,92,83359,1,8,0:0:0:0:
373,185,83653,1,10,0:0:0:0:
464,66,83947,5,4,0:0:0:0:
373,108,84241,1,10,0:0:0:0:
273,108,84535,1,8,0:0:0:0:
182,150,84829,1,10,0:0:0:0:
75,256,85123,6,0,P|33:224|22:178,1,100.000000596046,6|0,0:0|0:0,0:0:0:0:
92,109,85711,2,0,L|193:109,1,100.000000596046,10|0,0:0|0:0,0:0:0:0:
227,144,86152,1,2,0:0:0:0:
262,179,86299,2,0,B|262:229|262:229|219:272,2,100.000000596046,10|2|10,0:0|0:0|0:0,0:0:0:0:
332,108,87182,5,2,0:0:0:0:
378,125,87329,2,0,P|420:168|431:219,1,100.000000596046,6|0,0:0|0:0,0:0:0:0:
429,255,87770,1,2,0:0:0:0:
329,255,88064,1,10,0:0:0:0:
229,255,88358,1,2,0:0:0:0:
183,238,88505,2,0,P|141:195|130:144,1,100.000000596046,6|0,0:0|0:0,0:0:0:0:
132,108,88946,1,2,0:0:0:0:
219,157,89240,1,10,0:0:0:0:
319,157,89535,1,0,0:0:0:0:
460,108,89829,5,6,0:0:0:0:
389,37,90123,1,0,0:0:0:0:
318,107,90417,1,10,0:0:0:0:
224,72,90711,1,0,0:0:0:0:
219,121,90858,1,2,0:0:0:0:
237,167,91005,2,0,P|279:201|343:205,1,100.000000596046,10|2,0:0|0:0,0:0:0:0:
423,208,91593,1,10,0:0:0:0:
423,307,91887,5,2,0:0:0:0:
373,307,92034,2,0,L|259:307,1,100.000000596046,6|0,0:0|0:0,0:0:0:0:
222,307,92476,1,2,0:0:0:0:
151,236,92770,1,10,0:0:0:0:
221,165,93064,1,2,0:0:0:0:
221,165,93211,1,6,0:0:0:0:
316,195,93505,1,0,0:0:0:0:
316,195,93652,1,2,0:0:0:0:
414,180,93946,2,0,P|399:245|372:275,1,100.000000596046,10|2,0:0|0:0,0:0:0:0:
272,163,94534,6,0,P|240:104|206:82,1,100.000000596046,6|2,0:0|0:0,0:0:0:0:
164,81,94975,1,0,0:0:0:0:
116,96,95122,2,0,L|130:197,1,100.000000596046,10|0,0:0|0:0,0:0:0:0:
200,265,95711,1,10,0:0:0:0:
270,194,96005,1,0,0:0:0:0:
364,228,96299,1,10,0:0:0:0:
434,157,96593,1,0,0:0:0:0:
360,89,96887,6,0,P|290:68|246:80,1,100.000000596046,6|2,0:0|0:0,0:0:0:0:
222,98,97328,1,0,0:0:0:0:
202,144,97475,2,0,B|212:193|212:193|257:223,2,100.000000596046,10|2|8,0:0|0:0|0:0,0:0:0:0:
301,132,98357,1,2,0:0:0:0:
352,218,98652,1,2,0:0:0:0:
164,288,99240,5,6,0:0:0:0:
93,217,99534,1,2,0:0:0:0:
93,217,99681,1,0,0:0:0:0:
93,217,99828,1,10,0:0:0:0:
129,124,100122,1,0,0:0:0:0:
228,132,100416,2,0,P|277:120|315:81,1,100.000000596046,10|0,0:0|0:0,0:0:0:0:
411,87,101004,2,0,P|399:136|360:174,1,100.000000596046,10|0,0:0|0:0,0:0:0:0:
280,223,101592,6,2,B|244:259|244:259|244:313,1,100.000000596046,6|2,0:0|0:0,0:0:0:0:
344,303,102181,1,0,0:0:0:0:
344,303,102475,1,8,0:0:0:0:
414,232,102769,2,2,B|450:196|450:196|450:142,1,100.000000596046,6|2,0:0|0:0,0:0:0:0:
350,152,103358,1,0,0:0:0:0:
350,152,103652,1,8,0:0:0:0:
244,46,103945,6,2,P|218:92|172:116,1,100.000000596046,6|2,0:0|0:0,0:0:0:0:
248,185,104533,1,0,0:0:0:0:
248,185,104828,1,8,0:0:0:0:
177,255,105122,6,2,P|151:209|105:185,1,100.000000596046,6|2,0:0|0:0,0:0:0:0:
181,116,105710,1,0,0:0:0:0:
181,116,106005,1,8,0:0:0:0:
330,116,106298,6,2,L|221:116,1,100.000000596046,6|10,0:0|0:0,0:0:0:0:
125,223,106886,2,2,L|229:223,1,100.000000596046,6|10,0:0|0:0,0:0:0:0:
279,83,107474,6,2,L|184:137,1,100.000000596046,6|10,0:0|0:0,0:0:0:0:
155,278,108063,2,2,L|245:225,1,100.000000596046,6|10,0:0|0:0,0:0:0:0:
391,228,108652,6,0,P|379:173|346:126,1,100.000000596046,4|0,0:0|0:0,0:0:0:0:
255,136,109304,1,0,0:0:0:0:
255,136,109630,1,0,0:0:0:0:
149,136,109956,6,0,P|122:96|116:45,1,100.000000596046,4|0,0:0|0:0,0:0:0:0:
214,65,110571,1,0,0:0:0:0:
214,65,110879,1,0,0:0:0:0:
296,121,111186,6,0,B|332:157|332:157|332:207,1,100.000000596046,4|0,0:0|0:0,0:0:0:0:
332,296,111802,5,8,0:0:0:0:
234,276,112144,1,8,0:0:0:0:
125,250,112487,6,2,P|121:164|221:105,1,200.000001192092,6|2,0:0|0:0,0:0:0:0:
211,204,113410,1,10,0:0:0:0:
211,204,113717,1,6,0:0:0:0:
