osu file format v14

[General]
AudioFilename: Yumeiro Parade.mp3
AudioLeadIn: 0
PreviewTime: -1
Countdown: 1
SampleSet: Soft
StackLeniency: 0.7
Mode: 0
LetterboxInBreaks: 0
WidescreenStoryboard: 0

[Editor]
DistanceSpacing: 1.7
BeatDivisor: 4
GridSize: 4
TimelineZoom: 1

[Metadata]
Title:yumeiro parade
TitleUnicode:夢色パレード
Artist:Rhodanthe*
ArtistUnicode:Rhodanthe*
Creator:Tia -
Version:Extra
Source:ハロー!!きんいろモザイク
Tags:hello!! kiniro mosaic yumeiro parade rhodanthe anime opening tv size op nishi asuka 西 明日香 tanaka manami 田中 真奈美 taneda risa 種田 梨沙 uchiyama yumi 内山 夕美 touyama nao 東山 奈央
BeatmapID:2433598
BeatmapSetID:658369

[Difficulty]
HPDrainRate:5
CircleSize:4
OverallDifficulty:8
ApproachRate:9.5
SliderMultiplier:1.99999990463257
SliderTickRate:1

[Events]
//Background and Video events
0,0,"64342_20130802213754c75.jpg",0,0
//Break Periods
//Storyboard Layer 0 (Background)
//Storyboard Layer 1 (Fail)
//Storyboard Layer 2 (Pass)
//Storyboard Layer 3 (Foreground)
//Storyboard Layer 4 (Overlay)
//Storyboard Sound Samples

[TimingPoints]
-416,333.333333333333,4,2,0,60,1,0
-416,-100,4,2,0,60,0,0
6083,-100,4,2,0,75,0,0
16917,-125,4,2,0,65,0,0
37417,-83.3333333333333,4,2,0,75,0,0
37750,-100,4,2,0,65,0,0
38750,-125,4,2,0,65,0,0
39250,-125,4,2,0,50,0,0
39417,-125,4,2,0,65,0,0
39583,-125,4,2,0,50,0,0
39750,-125,4,2,0,65,0,0
39917,-125,4,2,0,50,0,0
40083,-125,4,2,0,65,0,0
40583,-125,4,2,0,50,0,0
40750,-125,4,2,0,65,0,0
41417,-125,4,2,0,65,0,0
41917,-125,4,2,0,50,0,0
42082,-125,4,2,0,65,0,0
42249,-125,4,2,0,50,0,0
42417,-125,4,2,0,65,0,0
42582,-125,4,2,0,50,0,0
42749,-125,4,2,0,65,0,0
42917,-125,4,2,0,80,0,0
48583,-125,4,2,0,60,0,0
48667,-125,4,2,0,55,0,0
48750,-125,4,2,0,50,0,0
48833,-125,4,2,0,45,0,0
48917,-100,4,2,0,90,0,0
53750,-125,4,2,0,55,0,0
54250,-100,4,2,0,90,0,0
54917,-125,4,2,0,90,0,0
55333,-100,4,2,0,90,0,0
68750,-200,4,2,0,90,0,0
69167,-100,4,2,0,90,0,0
70250,-100,4,2,0,65,0,0
72250,-83.3333333333333,4,2,0,85,0,0
72917,-100,4,2,0,80,0,0
74917,-200,4,2,0,80,0,0
75250,-100,4,2,0,80,0,0
76750,-66.6666666666667,4,2,0,80,0,0
77417,-100,4,2,0,80,0,0
86250,-50,4,2,0,80,0,0

[Colours]
Combo1 : 255,0,0
Combo2 : 255,255,0
Combo3 : 204,51,255
Combo4 : 0,0,255

[HitObjects]
68,72,917,6,0,P|176:84|272:132,1,199.999990463257
388,156,1583,1,0,0:0:0:0:
252,64,1750,1,0,0:0:0:0:
184,216,1917,1,0,0:0:0:0:
288,312,2083,6,0,P|308:220|396:168,1,199.999990463257
392,272,2583,2,0,P|448:244|508:256,1,99.9999952316285
364,180,2917,1,0,0:0:0:0:
260,60,3083,1,0,0:0:0:0:
172,148,3250,1,0,0:0:0:0:
364,248,3417,1,0,0:0:0:0:
184,296,3583,5,0,0:0:0:0:
452,252,3917,1,0,0:0:0:0:
436,76,4250,1,0,0:0:0:0:
364,132,4417,1,0,0:0:0:0:
276,144,4583,1,0,0:0:0:0:
188,124,4750,5,0,0:0:0:0:
256,192,4833,12,0,5917,0:0:0:0:
172,228,6083,6,0,P|216:288|348:304,1,199.999990463257
412,192,6583,2,0,P|440:132|412:100,1,99.9999952316285
228,72,6917,1,0,0:0:0:0:
96,200,7083,1,0,0:0:0:0:
288,232,7250,1,0,0:0:0:0:
96,300,7417,6,0,P|148:332|188:316,1,99.9999952316285
408,232,7750,2,0,P|384:276|328:296,1,99.9999952316285
216,96,8083,1,0,0:0:0:0:
412,136,8250,1,0,0:0:0:0:
96,276,8417,1,0,0:0:0:0:
416,332,8583,1,0,0:0:0:0:
32,136,8750,6,0,P|108:64|212:100,1,199.999990463257
252,144,9250,2,0,P|300:152|343:108,1,99.9999952316285
408,48,9583,1,0,0:0:0:0:
344,232,9750,1,0,0:0:0:0:
208,104,9917,1,0,0:0:0:0:
75,338,10083,6,0,L|103:236,1,99.9999952316285
188,312,10417,2,0,L|236:220,1,99.9999952316285
388,236,10750,1,0,0:0:0:0:
224,80,10917,1,0,0:0:0:0:
196,248,11083,1,0,0:0:0:0:
432,60,11250,1,0,0:0:0:0:
88,240,11417,6,0,P|164:336|264:312,1,199.999990463257
432,224,11917,1,0,0:0:0:0:
101,296,12083,1,0,0:0:0:0:
361,116,12250,1,0,0:0:0:0:
144,117,12417,1,0,0:0:0:0:
256,256,12583,1,0,0:0:0:0:
164,48,12750,6,0,P|104:72|96:124,1,99.9999952316285
88,216,13083,1,0,0:0:0:0:
176,312,13250,1,0,0:0:0:0:
348,320,13417,2,0,P|404:312|424:264,1,99.9999952316285
412,260,13750,1,0,0:0:0:0:
312,120,13917,1,0,0:0:0:0:
216,292,14083,1,0,0:0:0:0:
336,292,14417,5,0,0:0:0:0:
280,52,14583,1,0,0:0:0:0:
124,264,14750,1,0,0:0:0:0:
428,216,14917,1,0,0:0:0:0:
80,108,15083,1,0,0:0:0:0:
340,320,15250,1,0,0:0:0:0:
280,56,15417,6,0,P|348:64|376:104,1,99.9999952316285
356,200,15750,1,0,0:0:0:0:
220,288,15917,1,0,0:0:0:0:
76,168,16083,2,0,P|92:112|144:96,1,99.9999952316285
264,104,16417,1,0,0:0:0:0:
144,240,16583,1,0,0:0:0:0:
364,296,16750,1,0,0:0:0:0:
220,56,16917,6,0,P|132:84|88:156,1,159.999992370606
76,248,17417,2,0,P|121:292|167:307,1,79.9999961853028
264,132,17750,1,0,0:0:0:0:
400,288,17917,1,0,0:0:0:0:
208,304,18083,1,0,0:0:0:0:
416,140,18250,5,0,0:0:0:0:
328,320,18417,1,0,0:0:0:0:
160,172,18583,1,0,0:0:0:0:
440,264,18750,1,0,0:0:0:0:
172,304,18917,2,0,P|120:312|96:280,1,79.9999961853028
40,216,19250,2,0,P|80:192|120:208,1,79.9999961853028
296,60,19583,6,0,P|384:88|424:152,1,159.999992370606
388,272,20083,2,0,P|362:321|315:343,1,79.9999961853028
92,232,20417,1,0,0:0:0:0:
450,121,20583,1,0,0:0:0:0:
200,60,20750,5,0,0:0:0:0:
467,241,20917,1,0,0:0:0:0:
232,336,21083,1,0,0:0:0:0:
200,200,21250,1,0,0:0:0:0:
364,256,21417,1,0,0:0:0:0:
160,204,21583,2,0,P|124:184|84:184,1,79.9999961853028
24,256,21917,2,0,P|60:284|100:284,1,79.9999961853028
204,328,22250,5,0,0:0:0:0:
416,288,22417,1,0,0:0:0:0:
324,52,22583,1,0,0:0:0:0:
88,96,22750,1,0,0:0:0:0:
420,183,22917,1,0,0:0:0:0:
144,204,23083,1,0,0:0:0:0:
430,264,23250,1,0,0:0:0:0:
188,80,23417,2,0,P|256:44|328:84,1,159.999992370606
256,336,23917,1,0,0:0:0:0:
96,108,24083,6,0,L|156:168,1,79.9999961853028
408,108,24417,2,0,L|348:168,1,79.9999961853028
204,312,24750,1,0,0:0:0:0:
76,204,24917,2,0,P|108:116|192:100,1,159.999992370606
240,88,25417,2,0,P|324:120|408:80,1,159.999992370606
360,264,25917,1,0,0:0:0:0:
72,76,26083,6,0,L|140:160,1,79.9999961853028
232,76,26417,2,0,L|244:160,1,79.9999961853028
324,248,26750,1,0,0:0:0:0:
464,272,26917,1,0,0:0:0:0:
348,328,27083,1,0,0:0:0:0:
400,216,27250,1,0,0:0:0:0:
428,344,27417,1,0,0:0:0:0:
228,320,27583,6,0,P|136:320|96:260,1,159.999992370606
228,136,28083,1,0,0:0:0:0:
416,268,28250,1,0,0:0:0:0:
372,64,28417,1,0,0:0:0:0:
240,260,28583,1,0,0:0:0:0:
288,64,28750,6,0,P|240:44|200:60,1,79.9999961853028
96,104,29083,1,0,0:0:0:0:
72,232,29250,1,0,0:0:0:0:
160,344,29417,2,0,L|212:276,1,79.9999961853028
312,328,29750,2,0,L|344:248,1,79.9999961853028
464,304,30083,1,0,0:0:0:0:
452,144,30250,6,0,P|384:72|308:68,1,159.999992370606
228,188,30750,1,0,0:0:0:0:
408,308,30917,1,0,0:0:0:0:
336,152,31083,1,0,0:0:0:0:
188,328,31250,1,0,0:0:0:0:
152,88,31417,1,0,0:0:0:0:
312,340,31583,5,0,0:0:0:0:
400,144,31750,1,0,0:0:0:0:
92,240,31917,1,0,0:0:0:0:
400,268,32083,1,0,0:0:0:0:
184,108,32250,1,0,0:0:0:0:
312,328,32417,1,0,0:0:0:0:
444,240,32583,5,0,0:0:0:0:
448,160,32667,1,0,0:0:0:0:
408,92,32750,1,0,0:0:0:0:
340,52,32833,1,0,0:0:0:0:
260,52,32917,1,0,0:0:0:0:
96,220,33250,6,0,L|144:296,1,79.9999961853028
316,316,33583,1,0,0:0:0:0:
356,60,33750,1,0,0:0:0:0:
184,224,33917,1,0,0:0:0:0:
432,244,34083,2,0,P|416:156|352:112,1,159.999992370606
184,288,34583,1,0,0:0:0:0:
460,132,34750,5,0,0:0:0:0:
208,64,34917,1,0,0:0:0:0:
392,304,35083,1,0,0:0:0:0:
152,164,35250,1,0,0:0:0:0:
352,56,35417,1,0,0:0:0:0:
48,264,35583,6,0,P|112:324|208:336,1,159.999992370606
296,344,36083,2,0,P|248:268|168:240,1,159.999992370606
148,160,36583,1,0,0:0:0:0:
380,256,36750,1,0,0:0:0:0:
364,72,36917,5,0,0:0:0:0:
272,324,37083,1,0,0:0:0:0:
200,56,37250,1,0,0:0:0:0:
160,308,37417,1,0,0:0:0:0:
312,152,37583,1,0,0:0:0:0:
416,312,37750,1,0,0:0:0:0:
84,108,37917,1,0,0:0:0:0:
420,80,38250,6,0,L|384:180,1,99.9999952316285
168,52,38583,1,0,0:0:0:0:
84,168,38750,1,0,0:0:0:0:
228,120,38917,1,0,0:0:0:0:
80,80,39083,1,0,0:0:0:0:
176,196,39250,1,0,0:0:0:0:
168,52,39417,1,0,0:0:0:0:
84,168,39583,5,0,0:0:0:0:
228,120,39750,1,0,0:0:0:0:
80,80,39917,1,0,0:0:0:0:
176,196,40083,1,0,0:0:0:0:
84,288,40250,2,0,P|152:336|236:332,1,159.999992370606
316,312,40917,5,0,0:0:0:0:
224,152,41083,1,0,0:0:0:0:
420,204,41250,1,0,0:0:0:0:
256,256,41417,1,0,0:0:0:0:
424,120,41583,1,0,0:0:0:0:
260,68,41750,1,0,0:0:0:0:
340,240,41917,1,0,0:0:0:0:
152,72,42083,6,0,P|88:120|72:200,1,159.999992370606
120,296,42583,1,0,0:0:0:0:
393,318,42750,1,0,0:0:0:0:
426,241,42833,1,0,0:0:0:0:
448,159,42917,2,0,P|442:103|422:84,1,79.9999961853028
420,84,43167,1,0,0:0:0:0:
414,79,43250,1,0,0:0:0:0:
289,49,43417,1,0,0:0:0:0:
176,84,43583,6,0,P|112:88|92:124,1,79.9999961853028
56,224,43917,1,0,0:0:0:0:
212,316,44083,1,0,0:0:0:0:
228,184,44250,1,0,0:0:0:0:
72,312,44417,1,0,0:0:0:0:
136,156,44583,1,0,0:0:0:0:
280,320,44750,6,0,P|380:300|424:236,1,159.999992370606
120,272,45250,1,0,0:0:0:0:
360,120,45417,2,0,P|264:76|132:92,1,239.999988555908
116,160,46250,5,0,0:0:0:0:
408,304,46417,1,0,0:0:0:0:
448,60,46583,1,0,0:0:0:0:
100,336,46750,1,0,0:0:0:0:
216,36,46917,1,0,0:0:0:0:
356,344,47083,1,0,0:0:0:0:
36,152,47250,1,0,0:0:0:0:
456,160,47417,2,0,P|444:196|360:228,1,119.999994277954
124,328,47750,6,0,L|104:280,1,39.9999980926514
232,232,47917,2,0,L|252:192,1,39.9999980926514
112,160,48083,2,0,L|88:116,1,39.9999980926514
232,48,48250,2,0,P|284:104|248:144,1,119.999994277954
112,232,48583,1,0,0:0:0:0:
456,132,48750,1,0,0:0:0:0:
92,264,48917,6,0,P|116:312|168:336,1,99.9999952316285
440,104,49250,2,0,P|416:48|380:44,1,99.9999952316285
88,136,49583,1,0,0:0:0:0:
436,256,49750,1,0,0:0:0:0:
72,224,49917,1,0,0:0:0:0:
440,164,50083,1,0,0:0:0:0:
108,300,50250,5,0,0:0:0:0:
396,92,50417,1,0,0:0:0:0:
188,336,50583,1,0,0:0:0:0:
320,48,50750,1,0,0:0:0:0:
72,56,50917,2,0,L|152:128,1,99.9999952316285
448,340,51250,2,0,L|360:272,1,99.9999952316285
81,260,51583,5,0,0:0:0:0:
491,118,51750,1,0,0:0:0:0:
30,157,51917,1,0,0:0:0:0:
512,199,52083,1,0,0:0:0:0:
444,52,52250,2,0,L|356:128,1,99.9999952316285
72,332,52583,2,0,L|160:260,1,99.9999952316285
212,224,52917,5,0,0:0:0:0:
284,64,53083,1,0,0:0:0:0:
400,228,53250,1,0,0:0:0:0:
232,284,53417,1,0,0:0:0:0:
372,256,53583,5,0,0:0:0:0:
380,264,53667,1,0,0:0:0:0:
388,272,53750,2,0,L|421:306,1,39.9999980926514
250,142,53917,2,0,L|236:217,1,39.9999980926514
382,49,54083,2,0,L|402:100,1,39.9999980926514
239,188,54250,5,0,0:0:0:0:
108,316,54417,1,0,0:0:0:0:
101,174,54583,1,0,0:0:0:0:
252,348,54750,1,0,0:0:0:0:
352,31,54917,2,0,L|337:67,1,39.9999980926514
257,269,55083,2,0,L|300:238,1,39.9999980926514
484,136,55250,2,0,L|431:141,1,39.9999980926514
62,139,55417,6,0,L|125:245,1,99.9999952316285
291,182,55750,2,0,L|255:286,1,99.9999952316285
360,316,56083,1,0,0:0:0:0:
272,80,56250,1,0,0:0:0:0:
192,240,56417,1,0,0:0:0:0:
456,176,56583,1,0,0:0:0:0:
415,112,56667,1,0,0:0:0:0:
356,65,56750,1,0,0:0:0:0:
288,32,56833,1,0,0:0:0:0:
212,26,56917,6,0,P|104:54|60:90,1,149.999992847443
402,31,57250,1,0,0:0:0:0:
85,208,57417,1,0,0:0:0:0:
406,336,57583,1,0,0:0:0:0:
406,336,57667,1,0,0:0:0:0:
406,336,57750,1,0,0:0:0:0:
362,73,57917,1,0,0:0:0:0:
406,336,58083,1,0,0:0:0:0:
105,345,58250,1,0,0:0:0:0:
141,64,58417,1,0,0:0:0:0:
410,199,58583,1,0,0:0:0:0:
141,64,58750,1,0,0:0:0:0:
271,82,58917,6,0,L|219:82,1,49.9999976158143
75,177,59083,2,0,L|148:152,1,49.9999976158143
481,84,59250,2,0,L|416:110,1,49.9999976158143
31,87,59417,2,0,L|89:97,1,49.9999976158143
469,248,59583,5,0,0:0:0:0:
109,334,59750,1,0,0:0:0:0:
174,43,59917,6,0,P|250:49|293:87,1,99.9999952316285
360,112,60250,1,0,0:0:0:0:
108,268,60417,1,0,0:0:0:0:
432,332,60583,1,0,0:0:0:0:
208,44,60750,1,0,0:0:0:0:
56,52,60917,2,0,L|144:120,1,99.9999952316285
472,344,61250,2,0,L|376:280,1,99.9999952316285
216,312,61583,5,0,0:0:0:0:
268,44,61750,1,0,0:0:0:0:
440,296,61917,1,0,0:0:0:0:
76,184,62083,1,0,0:0:0:0:
368,336,62250,6,0,P|420:312|424:268,1,99.9999952316285
140,48,62583,2,0,P|92:64|60:112,1,99.9999952316285
432,76,62917,1,0,0:0:0:0:
256,328,63083,1,0,0:0:0:0:
136,60,63250,1,0,0:0:0:0:
476,304,63417,1,0,0:0:0:0:
56,204,63583,5,0,0:0:0:0:
468,148,63750,1,0,0:0:0:0:
184,340,63917,1,0,0:0:0:0:
272,32,64083,1,0,0:0:0:0:
24,188,64250,5,0,0:0:0:0:
448,320,64417,1,0,0:0:0:0:
380,32,64583,1,0,0:0:0:0:
176,144,64917,6,0,P|164:96|120:76,1,99.9999952316285
332,144,65250,2,0,P|344:96|388:72,1,99.9999952316285
256,52,65583,1,0,0:0:0:0:
96,308,65750,1,0,0:0:0:0:
424,308,65917,1,0,0:0:0:0:
352,136,66083,2,0,P|256:100|168:136,1,199.999990463257
256,304,66583,1,0,0:0:0:0:
292,160,66750,6,0,P|252:88|220:172,1,199.999990463257
256,324,67250,1,0,0:0:0:0:
256,200,67417,1,0,0:0:0:0:
86,223,67583,6,0,L|81:281,1,49.9999976158143
317,143,67750,2,0,L|286:204,1,49.9999976158143
231,351,67917,2,0,L|217:298,1,49.9999976158143
129,44,68083,2,0,L|189:35,1,49.9999976158143
288,61,68250,5,0,0:0:0:0:
356,88,68333,1,0,0:0:0:0:
404,144,68417,1,0,0:0:0:0:
416,216,68500,1,0,0:0:0:0:
388,284,68583,1,0,0:0:0:0:
325,323,68667,1,0,0:0:0:0:
253,335,68750,2,0,B|225:287|269:239|245:187,1,149.999992847443
236,184,69417,5,0,0:0:0:0:
252,320,69750,1,0,0:0:0:0:
256,315,69917,1,0,0:0:0:0:
273,216,70000,1,0,0:0:0:0:
248,119,70083,1,0,0:0:0:0:
182,42,70167,1,0,0:0:0:0:
84,21,70250,6,0,P|76:77|97:116,1,99.9999952316285
160,248,70583,1,0,0:0:0:0:
368,120,70750,1,0,0:0:0:0:
408,336,70917,1,0,0:0:0:0:
324,220,71083,1,0,0:0:0:0:
168,352,71250,1,0,0:0:0:0:
324,352,71417,1,0,0:0:0:0:
248,176,71583,5,0,0:0:0:0:
404,256,71750,1,0,0:0:0:0:
272,288,71917,1,0,0:0:0:0:
376,116,72083,1,0,0:0:0:0:
328,208,72250,1,0,0:0:0:0:
328,208,72417,1,0,0:0:0:0:
440,260,72583,2,0,P|432:320|376:352,1,119.999990615845
244,200,72917,5,0,0:0:0:0:
229,31,73083,1,0,0:0:0:0:
88,127,73250,1,0,0:0:0:0:
258,127,73417,1,0,0:0:0:0:
215,291,73583,1,0,0:0:0:0:
375,233,73750,1,0,0:0:0:0:
88,108,73917,1,0,0:0:0:0:
420,168,74083,1,0,0:0:0:0:
156,224,74250,6,0,L|92:260,1,49.9999976158143
372,194,74417,2,0,L|420:212,1,49.9999976158143
140,82,74583,2,0,L|94:63,1,49.9999976158143
382,54,74750,2,0,L|442:37,1,49.9999976158143
255,321,74917,2,0,B|232:296|257:267|281:240|247:209,1,99.9999952316285
476,156,75417,6,0,P|432:80|328:52,1,199.999990463257
176,96,75917,1,0,0:0:0:0:
336,152,76083,1,0,0:0:0:0:
224,232,76250,1,0,0:0:0:0:
488,220,76417,1,0,0:0:0:0:
288,344,76583,1,0,0:0:0:0:
468,328,76750,6,0,P|444:260|372:224,1,149.999998569489
276,216,77083,2,0,P|300:284|372:320,1,149.999998569489
116,264,77417,1,0,0:0:0:0:
260,144,77583,1,0,0:0:0:0:
252,276,77750,1,0,0:0:0:0:
116,96,77917,1,0,0:0:0:0:
40,240,78083,6,0,P|52:300|176:328,1,199.999990463257
264,80,78583,1,0,0:0:0:0:
356,320,78750,1,0,0:0:0:0:
144,284,78917,1,0,0:0:0:0:
408,132,79083,1,0,0:0:0:0:
468,340,79250,1,0,0:0:0:0:
176,152,79417,6,0,P|92:132|84:116,1,99.9999952316285
64,56,79750,2,0,P|132:52|160:76,1,99.9999952316285
272,224,80083,1,0,0:0:0:0:
420,80,80250,1,0,0:0:0:0:
424,240,80417,1,0,0:0:0:0:
256,44,80583,1,0,0:0:0:0:
216,280,80750,6,0,P|256:352|284:280,1,199.999990463257
192,100,81250,1,0,0:0:0:0:
400,288,81417,1,0,0:0:0:0:
368,88,81583,1,0,0:0:0:0:
200,244,81750,1,0,0:0:0:0:
484,204,81917,1,0,0:0:0:0:
72,252,82083,6,0,P|88:304|136:312,1,99.9999952316285
268,324,82417,1,0,0:0:0:0:
396,268,82583,1,0,0:0:0:0:
436,132,82750,2,0,P|412:76|372:68,1,99.9999952316285
240,44,83083,1,0,0:0:0:0:
124,124,83250,1,0,0:0:0:0:
276,168,83417,1,0,0:0:0:0:
136,312,83583,6,0,L|192:320,1,49.9999976158143
376,260,83750,2,0,L|320:272,1,49.9999976158143
144,212,83917,1,0,0:0:0:0:
344,168,84083,1,0,0:0:0:0:
164,52,84250,1,0,0:0:0:0:
240,224,84417,1,0,0:0:0:0:
240,224,84500,1,0,0:0:0:0:
240,224,84583,1,0,0:0:0:0:
216,28,84750,6,0,P|256:56|300:20,1,99.9999952316285
256,248,85083,1,0,0:0:0:0:
256,140,85250,1,0,0:0:0:0:
212,352,85417,2,0,P|256:328|300:360,1,99.9999952316285
44,192,85750,1,0,0:0:0:0:
432,159,85917,1,0,0:0:0:0:
360,122,86000,1,0,0:0:0:0:
280,113,86083,1,0,0:0:0:0:
201,132,86167,1,0,0:0:0:0:
148,184,86250,6,0,P|128:236|152:292,1,99.9999952316285
312,116,86417,2,0,P|280:72|224:56,1,99.9999952316285
300,284,86583,2,0,P|356:272|388:224,1,99.9999952316285
252,192,86750,5,0,0:0:0:0:
256,192,86833,12,0,87750,0:0:0:0:
