osu file format v14

[General]
AudioFilename: audio.mp3
AudioLeadIn: 0
PreviewTime: 48834
Countdown: 0
SampleSet: None
StackLeniency: 0.7
Mode: 0
LetterboxInBreaks: 0
WidescreenStoryboard: 1

[Editor]
Bookmarks: 6083,16917,38250,46250,48917,70250,75417
DistanceSpacing: 1
BeatDivisor: 2
GridSize: 32
TimelineZoom: 2.3

[Metadata]
Title:Yumeiro Parade
TitleUnicode:Yumeiro Parade
Artist:Rhodanthe*
ArtistUnicode:Rhodanthe*
Creator:LeeSinOrAfk
Version:Normal
Source:
Tags:
BeatmapID:1253128
BeatmapSetID:588216

[Difficulty]
HPDrainRate:3
CircleSize:3.5
OverallDifficulty:4
ApproachRate:5
SliderMultiplier:1.1
SliderTickRate:1

[Events]
//Background and Video events
0,0,"clickbait.png",0,0
//Break Periods
//Storyboard Layer 0 (Background)
//Storyboard Layer 1 (Fail)
//Storyboard Layer 2 (Pass)
//Storyboard Layer 3 (Foreground)
//Storyboard Sound Samples

[TimingPoints]
-416,333.333333333333,4,2,1,70,1,0
917,-100,4,2,1,70,0,0
6083,-100,4,2,1,70,0,0
38250,-100,4,2,1,70,0,0
45917,-100,4,2,1,70,0,0
48583,-100,4,2,1,70,0,0
48917,-100,4,2,1,70,0,1
59583,-100,4,2,1,70,0,0
59917,-100,4,2,1,70,0,1
70250,-100,4,2,1,70,0,0
72250,-100,4,2,1,70,0,0
72917,-100,4,2,1,70,0,0
74250,-100,4,2,1,70,0,0
75417,-100,4,2,1,70,0,0
86750,-100,4,2,1,70,0,0

[Colours]
Combo1 : 255,192,0
Combo2 : 0,159,0
Combo3 : 217,217,0
Combo4 : 0,64,128

[HitObjects]
128,162,917,6,0,L|115:283,1,110
210,327,1583,2,0,L|182:374,2,55
266,273,2083,2,0,P|282:190|231:126,1,165
136,83,2917,1,0,0:0:0:0:
146,192,3250,1,0,0:0:0:0:
236,129,3583,6,0,P|282:101|339:105,1,110
446,114,4250,2,0,L|456:54,2,55
466,189,4750,2,0,B|447:244|480:244|464:299,1,110
370,354,5417,2,0,B|354:300|387:300|368:246,1,110
270,195,6083,6,0,P|323:142|409:145,1,165
481,227,6917,2,0,L|472:305,1,55
389,351,7417,1,0,0:0:0:0:
289,305,7750,1,0,0:0:0:0:
376,240,8083,2,0,P|374:185|344:140,1,110
242,182,8750,6,0,P|172:222|96:197,1,165
54,96,9583,2,0,L|68:14,1,55
168,8,10083,1,0,0:0:0:0:
232,97,10417,2,0,L|241:151,2,55
317,27,11083,1,0,0:0:0:0:
393,106,11417,6,0,P|360:172|424:287,1,165
420,359,12250,2,0,L|356:366,1,55
269,310,12750,1,0,0:0:0:0:
192,230,13083,2,0,L|137:224,2,55
276,158,13750,2,0,L|267:75,1,55
208,58,14083,6,0,P|126:61|73:147,1,165
48,228,14917,1,0,0:0:0:0:
157,199,15250,1,0,0:0:0:0:
157,199,15417,2,0,P|157:279|216:333,1,165
293,340,16083,1,0,0:0:0:0:
333,237,16417,2,0,L|391:226,2,55
261,205,16917,6,0,P|195:187|127:224,1,110
89,233,17417,1,0,0:0:0:0:
123,128,17750,1,0,0:0:0:0:
17,96,18083,1,0,0:0:0:0:
96,20,18417,2,0,L|181:11,1,55
227,29,18750,1,0,0:0:0:0:
333,1,19083,2,0,L|328:84,1,55
346,165,19583,6,0,P|327:216|341:269,1,110
396,322,20083,1,0,0:0:0:0:
297,371,20417,1,0,0:0:0:0:
257,268,20750,1,0,0:0:0:0:
158,317,21083,2,0,L|90:307,1,55
30,286,21417,1,0,0:0:0:0:
94,196,21750,2,0,L|89:136,1,55
149,48,22250,5,0,0:0:0:0:
257,55,22583,2,0,P|282:45|309:43,2,55
225,125,23083,2,0,L|217:199,1,55
254,250,23417,2,0,P|333:238|401:293,1,165
451,344,24083,1,0,0:0:0:0:
456,233,24417,2,0,L|448:157,1,55
411,73,24917,6,0,B|354:62|355:95|299:76,1,110
232,47,25417,1,0,0:0:0:0:
270,149,25750,1,0,0:0:0:0:
161,131,26083,1,0,0:0:0:0:
178,239,26417,2,0,L|182:296,1,55
248,333,26750,2,0,P|294:304|348:308,1,110
418,342,27250,2,0,P|427:315|421:287,1,55
368,233,27583,6,0,P|309:187|267:191,1,110
206,218,28083,1,0,0:0:0:0:
249,116,28417,1,0,0:0:0:0:
140,129,28750,1,0,0:0:0:0:
186,29,29083,2,0,L|253:15,1,55
316,2,29417,1,0,0:0:0:0:
410,57,29750,2,0,L|402:130,1,55
372,217,30250,6,0,P|305:221|263:266,1,110
234,313,30750,1,0,0:0:0:0:
208,205,31083,1,0,0:0:0:0:
129,282,31417,1,0,0:0:0:0:
107,174,31750,2,0,L|101:96,1,55
81,46,32083,1,0,0:0:0:0:
190,37,32417,2,0,L|255:31,1,55
352,56,32917,5,0,0:0:0:0:
369,164,33250,2,0,L|425:179,2,55
297,191,33750,2,0,P|266:185|233:191,1,55
183,236,34083,2,0,P|172:158|236:112,1,165
314,109,34750,1,0,0:0:0:0:
231,36,35083,2,0,L|160:31,1,55
70,62,35583,6,0,P|83:114|61:167,1,110
8,219,36083,1,0,0:0:0:0:
118,220,36417,1,0,0:0:0:0:
60,313,36750,2,0,P|109:331|175:313,1,110
256,259,37417,2,0,P|326:242|377:274,1,110
495,163,38250,6,0,P|459:51|393:108,1,220
301,127,39250,1,0,0:0:0:0:
301,127,39417,2,0,L|172:117,2,110
374,154,40250,1,0,0:0:0:0:
237,326,40917,6,0,P|146:359|131:264,1,220
188,169,41917,1,0,0:0:0:0:
188,169,42083,2,0,L|305:158,2,110
111,179,42917,1,0,0:0:0:0:
247,350,43583,6,0,P|340:343|303:257,1,220
201,215,44583,1,0,0:0:0:0:
201,215,44750,2,0,L|62:228,2,110
274,183,45583,1,0,0:0:0:0:
228,82,45917,1,0,0:0:0:0:
337,91,46250,6,0,B|391:91|391:91|445:120,1,110
471,223,46917,2,0,B|417:223|417:223|363:194,1,110
294,174,47417,1,0,0:0:0:0:
283,283,47750,2,0,L|277:342,1,55
201,349,48083,2,0,L|206:294,1,55
220,184,48583,1,0,0:0:0:0:
116,222,48917,5,0,0:0:0:0:
117,112,49250,1,0,0:0:0:0:
205,48,49583,2,0,P|233:40|264:43,2,55
201,125,50083,2,0,P|198:204|258:257,1,165
356,308,50917,2,0,L|425:300,1,55
424,226,51250,2,0,L|493:218,1,55
491,143,51583,5,0,0:0:0:0:
381,153,51917,1,0,0:0:0:0:
289,213,52250,2,0,P|263:224|236:224,2,55
267,139,52750,2,0,P|235:83|139:65,1,165
112,135,53417,2,0,B|95:191|95:191|118:217|118:217|97:285,1,165
186,348,54250,5,0,0:0:0:0:
288,307,54583,1,0,0:0:0:0:
398,319,54917,2,0,P|401:346|392:371,2,55
366,249,55417,2,0,P|329:182|367:74,1,165
422,83,56083,2,0,P|365:26|286:50,1,165
235,141,56917,6,0,B|188:166|188:166|132:160,1,110
25,132,57583,2,0,B|19:187|19:187|44:234,1,110
102,287,58083,1,0,0:0:0:0:
209,311,58417,2,0,L|203:367,1,55
280,362,58750,2,0,L|285:307,1,55
402,120,59583,5,0,0:0:0:0:
427,227,59917,1,0,0:0:0:0:
338,291,60250,2,0,P|330:317|333:349,2,55
302,223,60750,2,0,P|228:206|156:254,1,165
49,230,61583,2,0,L|41:151,1,55
87,110,61917,2,0,L|79:31,1,55
157,34,62250,5,0,0:0:0:0:
167,143,62583,1,0,0:0:0:0:
274,171,62917,2,0,P|278:144|273:117,2,55
226,233,63417,2,0,P|235:307|315:359,1,165
381,364,64083,2,0,B|404:282|354:283|381:201,1,165
428,102,64917,6,0,P|402:92|375:93,1,55
299,83,65250,1,0,0:0:0:0:
225,164,65583,2,0,P|199:173|172:172,2,55
299,197,66083,2,0,P|309:276|242:342,1,165
181,355,66750,2,0,L|7:339,1,165
19,230,67583,6,0,B|22:174|22:174|59:125,1,110
162,106,68250,2,0,B|158:161|158:161|121:210,1,110
87,272,68750,1,0,0:0:0:0:
159,354,69083,1,0,0:0:0:0:
191,248,69417,1,0,0:0:0:0:
265,328,69750,2,0,L|351:320,1,55
369,224,70250,6,0,P|426:181|522:208,2,165
209,182,71750,1,0,0:0:0:0:
209,182,71917,2,0,P|216:131|189:80,2,110
152,276,72917,6,0,P|95:319|-1:292,2,165
102,177,74250,1,0,0:0:0:0:
209,182,74583,1,0,0:0:0:0:
161,82,74917,1,0,0:0:0:0:
315,138,75417,6,0,B|347:214|290:215|322:299,1,165
420,253,76250,2,0,P|428:226|427:199,1,55
403,91,76750,1,0,0:0:0:0:
325,168,77083,1,0,0:0:0:0:
294,61,77417,2,0,L|179:52,1,110
81,91,78083,6,0,P|116:164|94:242,1,165
50,343,78917,2,0,L|105:339,1,55
197,279,79417,1,0,0:0:0:0:
278,204,79750,2,0,L|333:208,2,55
196,129,80417,1,0,0:0:0:0:
283,64,80750,6,0,P|363:48|431:91,1,165
490,183,81583,2,0,L|484:237,1,55
430,333,82083,1,0,0:0:0:0:
374,238,82417,2,0,L|369:182,2,55
305,324,83083,2,0,L|235:318,1,55
175,296,83417,6,0,P|183:215|129:150,1,165
24,165,84250,1,0,0:0:0:0:
76,68,84583,1,0,0:0:0:0:
76,68,84750,2,0,P|163:23|223:43,1,165
289,81,85417,1,0,0:0:0:0:
230,174,85750,2,0,L|220:249,1,55
279,322,86250,6,0,P|342:305|388:315,1,110
456,345,86750,1,0,0:0:0:0:
