osu file format v14

[General]
AudioFilename: Your Voice - Rhodanthe.mp3
AudioLeadIn: 0
PreviewTime: 55140
Countdown: 1
SampleSet: Normal
StackLeniency: 0.7
Mode: 0
LetterboxInBreaks: 1
WidescreenStoryboard: 1

[Editor]
DistanceSpacing: 1
BeatDivisor: 3
GridSize: 8
TimelineZoom: 1.6

[Metadata]
Title:Your Voice
TitleUnicode:Your Voice
Artist:Rhodanthe*
ArtistUnicode:Rhodanthe*
Creator:Possseidon
Version:Normal
Source:Kiniro Mosaic
Tags:Kiniro Mosaic Alice Shino Shinobu Aya Ayaya Kinpatsu Kin Gold Blonde Cute Kawaii
BeatmapID:777007
BeatmapSetID:352558

[Difficulty]
HPDrainRate:3
CircleSize:3
OverallDifficulty:4
ApproachRate:5
SliderMultiplier:0.8
SliderTickRate:1

[Events]
//Background and Video events
0,0,"Kiniro Mosaic.jpg",0,0
Video,0,"Your Voice - Rhodanthe-x11xtbb_x264_001.avi"
//Break Periods
//Storyboard Layer 0 (Background)
//Storyboard Layer 1 (Fail)
//Storyboard Layer 2 (Pass)
//Storyboard Layer 3 (Foreground)
//Storyboard Sound Samples

[TimingPoints]
830,258.620689655172,4,1,0,100,1,0
830,-111.111111111111,4,1,0,60,0,0
4881,-100,4,1,0,70,0,0
17381,-142.857142857143,4,1,0,50,0,0
21433,-100,4,1,0,70,0,0
33804,-142.857142857143,4,1,0,50,0,0
42123,-125,4,1,0,60,0,0
49450,-111.111111111111,4,1,0,40,0,0
51519,-125,4,1,0,60,0,0
52554,-111.111111111111,4,1,0,80,0,0
53588,-166.666666666667,4,1,0,40,0,0
55571,-90.9090909090909,4,1,0,80,0,1
63416,-111.111111111111,4,1,0,60,0,0
63933,-90.9090909090909,4,1,0,80,0,1
74278,-111.111111111111,4,1,0,60,0,0
78416,-125,4,1,0,50,0,0

[Colours]
Combo1 : 255,128,128
Combo2 : 255,244,111
Combo3 : 55,55,255
Combo4 : 242,24,57

[HitObjects]
170,118,830,6,0,P|243:116|324:148,1,143.999995605469
342,266,1864,2,0,P|269:268|188:236,1,143.999995605469
309,138,2898,2,0,B|359:114|359:114|354:196|385:287|385:287|325:258,1,287.999991210938
161,119,4881,6,0,P|223:115|265:145,1,106.666666666667,2|0,0:0|0:0,0:0:0:0:
341,236,5485,2,0,P|315:264|256:289,1,80
160,304,6002,1,2,0:0:0:0:
197,190,6261,1,0,0:0:0:0:
160,304,6519,1,0,0:0:0:0:
278,283,6778,1,0,0:0:0:0:
341,236,6950,6,0,P|381:196|400:142,1,106.666666666667,2|0,0:0|0:0,0:0:0:0:
320,58,7554,2,0,P|295:94|284:137,1,80
196,126,8071,2,0,P|203:169|226:207,1,80,2|0,0:0|0:0,0:0:0:0:
156,261,8588,2,0,P|191:286|234:297,1,80,2|0,0:0|0:0,0:0:0:0:
315,261,9019,6,0,B|342:228|340:188|340:188|328:167|328:205,1,106.666666666667,2|0,0:0|0:0,0:0:0:0:
207,195,9623,1,0,0:0:0:0:
326,195,9881,1,0,0:0:0:0:
316,75,10140,2,0,P|261:106|226:105,1,80,2|0,0:0|0:0,0:0:0:0:
136,162,10657,2,0,P|191:193|226:192,1,80,2|0,0:0|0:0,0:0:0:0:
326,195,11174,5,4,0:0:0:0:
212,308,11692,1,0,0:0:0:0:
212,148,12209,1,2,0:0:0:0:
98,261,12726,1,0,0:0:0:0:
256,284,13243,6,0,B|296:275|338:237,1,80,6|0,0:0|0:0,0:0:0:0:
321,166,13674,2,0,B|281:157|239:119,1,80
125,190,14278,2,0,B|113:234|137:258|137:258|124:284|93:257,2,120,2|0|0,0:0|0:0|0:0,0:0:0:0:
259,150,15312,5,2,0:0:0:0:
371,191,15829,1,4,0:0:0:0:
330,303,16347,1,2,0:0:0:0:
218,263,16864,1,2,0:0:0:0:
170,192,17381,6,0,P|159:153|183:88,1,111.999996582031,6|0,0:0|0:0,0:0:0:0:
342,192,18416,2,0,P|353:231|329:296,1,111.999996582031,6|0,0:0|0:0,0:0:0:0:
279,135,19450,5,2,0:0:0:0:
230,203,19709,1,0,0:0:0:0:
153,236,19967,1,0,0:0:0:0:
68,238,20226,1,0,0:0:0:0:
100,160,20485,6,0,L|154:140,1,55.9999982910157,2|0,0:0|0:0,0:0:0:0:
164,52,21002,2,0,L|218:72,1,55.9999982910157,2|0,0:0|0:0,0:0:0:0:
331,144,21519,2,0,P|358:160|410:171,2,80,6|0|0,0:0|0:0|0:0,0:0:0:0:
204,149,22295,1,0,0:0:0:0:
272,248,22554,1,2,0:0:0:0:
331,144,22812,1,0,0:0:0:0:
383,241,23071,2,0,B|388:216|411:197|411:197|404:166,1,80
309,50,23588,5,2,0:0:0:0:
191,74,23847,1,0,0:0:0:0:
118,169,24105,1,0,0:0:0:0:
191,74,24364,1,0,0:0:0:0:
228,188,24623,2,0,P|210:227|216:275,1,80,2|0,0:0|0:0,0:0:0:0:
338,238,25140,2,0,P|356:199|350:151,1,80,2|0,0:0|0:0,0:0:0:0:
299,72,25657,2,0,P|337:57|411:76,2,120,6|0|0,0:0|0:0|0:0,0:0:0:0:
228,188,26692,2,0,P|190:203|116:184,2,120,2|0|0,0:0|0:0|0:0,0:0:0:0:
348,220,27726,6,0,P|303:249|260:351,1,160,6|0,0:0|0:0,0:0:0:0:
164,164,28761,2,0,P|209:135|252:33,1,160,2|0,0:0|0:0,0:0:0:0:
323,77,29795,5,2,0:0:0:0:
302,189,30183,1,0,0:0:0:0:
333,291,30571,1,0,0:0:0:0:
188,307,30829,5,2,0:0:0:0:
209,195,31217,1,0,0:0:0:0:
178,93,31605,1,0,0:0:0:0:
118,181,31864,5,6,0:0:0:0:
209,195,32123,1,0,0:0:0:0:
302,189,32381,2,0,P|346:188|384:194,2,80,4|0|6,0:0|0:0|0:0,0:0:0:0:
209,195,33157,1,0,0:0:0:0:
264,274,33416,2,0,P|294:305|325:328,1,80,2|0,0:0|0:0,0:0:0:0:
389,254,33933,5,0,0:0:0:0:
389,254,34192,1,0,0:0:0:0:
415,204,34450,2,0,P|428:159|430:148,1,55.9999982910157,2|0,0:0|0:0,0:0:0:0:
324,184,34967,5,0,0:0:0:0:
324,184,35226,1,0,0:0:0:0:
321,127,35484,2,0,P|309:81|305:71,1,55.9999982910157,2|0,0:0|0:0,0:0:0:0:
232,155,36002,5,0,0:0:0:0:
232,155,36261,1,0,0:0:0:0:
201,108,36519,2,0,P|168:74|160:67,1,55.9999982910157,2|0,0:0|0:0,0:0:0:0:
137,175,37036,5,0,0:0:0:0:
137,175,37295,1,0,0:0:0:0:
87,150,37553,2,0,P|42:137|31:135,1,55.9999982910157,4|2,0:0|0:0,0:0:0:0:
88,267,38071,6,0,P|159:294|250:272,1,167.999994873047,6|0,0:0|0:0,0:0:0:0:
334,226,39105,2,0,P|263:199|172:221,1,167.999994873047,6|0,0:0|0:0,0:0:0:0:
158,121,40140,2,0,L|211:83,1,55.9999982910157,2|0,0:0|0:0,0:0:0:0:
292,74,40657,2,0,L|345:112,1,55.9999982910157,2|0,0:0|0:0,0:0:0:0:
412,58,41174,1,6,0:0:0:0:
369,212,41692,1,4,0:0:0:0:
163,280,42209,6,0,P|148:224|180:161,1,128,6|0,0:0|0:0,0:0:0:0:
383,95,43243,2,0,P|398:151|366:214,1,128,6|0,0:0|0:0,0:0:0:0:
189,244,44278,1,6,0:0:0:0:
146,70,44795,1,2,0:0:0:0:
318,120,45312,1,0,0:0:0:0:
189,244,45829,1,2,0:0:0:0:
256,192,46347,12,4,48416,0:0:0:0:
238,103,49450,6,0,L|296:144,1,71.9999978027344,2|0,0:0|0:0,0:0:0:0:
389,200,49967,2,0,L|331:241,1,71.9999978027344,2|0,0:0|0:0,0:0:0:0:
235,293,50485,2,0,L|177:252,1,71.9999978027344,2|0,0:0|0:0,0:0:0:0:
87,189,51002,2,0,L|145:148,1,71.9999978027344,2|0,0:0|0:0,0:0:0:0:
224,92,51519,2,0,L|281:45,3,64,2|0|2|0,0:0|0:0|0:0|0:0,0:0:0:0:
380,67,52554,2,0,L|411:98,7,35.9999989013672,6|0|2|0|2|0|2|0,0:0|0:0|0:0|0:0|0:0|0:0|0:0|0:0,0:0:0:0:
429,116,53588,2,0,P|419:164|249:210,1,239.999992675781,6|0,0:0|0:0,0:0:0:0:
203,175,55140,1,0,0:0:0:0:
176,113,55398,1,0,0:0:0:0:
306,74,55657,6,0,P|367:101|397:133,1,88.000002685547,6|0,0:0|0:0,0:0:0:0:
312,157,56174,2,0,P|258:196|215:206,1,88.000002685547
237,120,56692,2,0,P|229:53|242:11,1,88.000002685547,2|0,0:0|0:0,0:0:0:0:
306,74,57209,1,0,0:0:0:0:
312,157,57467,1,0,0:0:0:0:
277,237,57726,6,0,P|314:271|369:292,1,88.000002685547,6|0,0:0|0:0,0:0:0:0:
259,329,58243,2,0,P|208:326|155:302,1,88.000002685547
161,226,58761,1,2,0:0:0:0:
94,283,59019,1,0,0:0:0:0:
161,226,59278,2,0,P|196:178|205:133,1,88.000002685547
242,71,59795,1,2,0:0:0:0:
242,71,60054,2,0,P|285:109|407:117,1,176.000005371094,6|0,0:0|0:0,0:0:0:0:
416,205,60829,2,0,P|361:226|319:288,2,132.00000402832,2|0|0,0:0|0:0|0:0,0:0:0:0:
400,292,61864,6,0,B|372:351|311:356|311:356|202:281|81:343,2,352.000010742188,6|0|2,0:0|0:0|0:0,0:0:0:0:
275,167,64450,1,4,0:0:0:0:
150,42,64967,2,0,P|112:104|118:163,2,132.00000402832,6|0|2,0:0|0:0|0:0,0:0:0:0:
194,120,66002,2,0,P|198:185|162:239,2,132.00000402832,2|0|2,0:0|0:0|0:0,0:0:0:0:
117,160,67036,1,0,0:0:0:0:
63,271,67295,2,0,P|115:333|206:325,1,176.000005371094,6|0,0:0|0:0,0:0:0:0:
349,183,68071,6,0,B|388:73|388:73|344:97|320:88,1,176.000005371094,6|0,0:0|0:0,0:0:0:0:
256,135,68847,1,0,0:0:0:0:
180,90,69105,2,0,B|168:96|124:72|124:72|163:182,1,176.000005371094,2|0,0:0|0:0,0:0:0:0:
146,268,69881,1,0,0:0:0:0:
220,314,70140,2,0,P|277:310|307:295,1,88.000002685547,2|0,0:0|0:0,0:0:0:0:
254,231,70657,2,0,P|291:187|302:156,1,88.000002685547
269,83,71174,2,0,P|222:68|182:79,1,88.000002685547,2|0,0:0|0:0,0:0:0:0:
219,152,71691,2,0,P|181:195|170:226,1,88.000002685547
142,307,72209,6,0,B|105:284|91:255|91:255|94:227|64:198,2,132.00000402832,6|0|0,0:0|0:0|0:0,0:0:0:0:
249,229,73243,2,0,B|286:206|300:177|300:177|297:149|327:120,2,132.00000402832,6|0|0,0:0|0:0|0:0,0:0:0:0:
250,319,74278,5,2,0:0:0:0:
355,295,74536,1,0,0:0:0:0:
417,206,74795,1,2,0:0:0:0:
393,100,75054,1,0,0:0:0:0:
299,46,75312,6,0,L|272:115,1,71.9999978027344,2|4,0:0|0:0,0:0:0:0:
168,86,75829,2,0,L|195:155,1,71.9999978027344,4|2,0:0|0:0,0:0:0:0:
254,243,76347,1,0,0:0:0:0:
180,321,76605,2,0,P|113:303|86:223,2,143.999995605469,2|0|2,0:0|0:0|0:0,0:0:0:0:
286,301,77898,1,0,0:0:0:0:
370,234,78157,1,0,0:0:0:0:
372,137,78416,5,2,0:0:0:0:
283,173,78674,1,0,0:0:0:0:
280,76,78933,2,0,P|242:84|217:100,1,64,2|0,0:0|0:0,0:0:0:0:
69,136,79450,5,2,0:0:0:0:
158,172,79708,1,0,0:0:0:0:
161,75,79967,2,0,P|199:83|224:99,1,64,2|4,0:0|0:0,0:0:0:0:
195,241,80485,5,2,0:0:0:0:
283,241,80743,1,0,0:0:0:0:
234,321,81002,1,2,0:0:0:0:
322,321,81260,1,0,0:0:0:0:
403,288,81519,2,0,P|449:258|472:220,2,96,2|0|4,0:0|0:0|0:0,0:0:0:0:
256,321,82554,5,2,0:0:0:0:
256,225,82812,1,0,0:0:0:0:
256,128,83071,1,4,0:0:0:0:
256,225,83329,1,0,0:0:0:0:
173,176,83588,2,0,P|136:162|107:168,1,64,2|0,0:0|0:0,0:0:0:0:
167,261,84105,2,0,P|129:275|100:269,1,64,2|0,0:0|0:0,0:0:0:0:
256,225,84623,5,2,0:0:0:0:
385,288,85011,1,4,0:0:0:0:
377,144,85398,1,6,0:0:0:0:
256,192,85657,12,4,88761,0:0:0:0:
